osu file format v14

[General]
AudioFilename: audio.mp3
AudioLeadIn: 0
PreviewTime: -1
Countdown: 1
SampleSet: Normal
StackLeniency: 0.7
Mode: 3
LetterboxInBreaks: 0
SpecialStyle: 1
WidescreenStoryboard: 0

[Editor]
DistanceSpacing: 0.8
BeatDivisor: 4
GridSize: 32
TimelineZoom: 2.2

[Metadata]
Title:Everytime Sweet (Remix)
TitleUnicode:Everytime Sweet (Remix)
Artist:Miraie
ArtistUnicode:Miraie
Creator:adamdino123
Version:everytime
Source:
Tags:
BeatmapID:1965580
BeatmapSetID:824536

[Difficulty]
HPDrainRate:8
CircleSize:4
OverallDifficulty:7
ApproachRate:5
SliderMultiplier:1.5
SliderTickRate:1

[Events]
//Background and Video events
0,0,"artworks-000233261806-fubzx5-t500x500.jpg",0,0
//Break Periods
//Storyboard Layer 0 (Background)
//Storyboard Layer 1 (Fail)
//Storyboard Layer 2 (Pass)
//Storyboard Layer 3 (Foreground)
//Storyboard Sound Samples

[TimingPoints]
22878.0528845865,444.444444444444,4,1,0,7,1,0

[HitObjects]
448,192,1766,5,0,0:0:0:0:
192,192,2655,1,0,0:0:0:0:
320,192,3544,1,0,0:0:0:0:
448,192,3989,1,0,0:0:0:0:
64,192,4433,1,0,0:0:0:0:
192,192,4878,1,0,0:0:0:0:
448,192,5100,1,0,0:0:0:0:
64,192,5322,1,0,0:0:0:0:
64,192,5544,1,0,0:0:0:0:
192,192,5766,1,0,0:0:0:0:
192,192,5989,1,0,0:0:0:0:
320,192,6211,1,0,0:0:0:0:
448,192,6433,1,0,0:0:0:0:
448,192,6655,1,0,0:0:0:0:
320,192,6878,1,0,0:0:0:0:
192,192,7100,1,0,0:0:0:0:
64,192,7211,1,0,0:0:0:0:
192,192,7322,1,0,0:0:0:0:
320,192,7433,1,0,0:0:0:0:
448,192,7544,1,0,0:0:0:0:
320,192,7655,1,0,0:0:0:0:
192,192,7766,1,0,0:0:0:0:
64,192,7878,1,0,0:0:0:0:
192,192,7989,1,0,0:0:0:0:
320,192,8100,1,0,0:0:0:0:
448,192,8211,1,0,0:0:0:0:
320,192,8322,1,0,0:0:0:0:
192,192,8433,1,0,0:0:0:0:
64,192,8544,1,0,0:0:0:0:
192,192,8655,1,0,0:0:0:0:
320,192,8766,1,0,0:0:0:0:
192,192,8878,1,0,0:0:0:0:
64,192,9100,1,0,0:0:0:0:
192,192,9322,1,0,0:0:0:0:
320,192,9433,1,0,0:0:0:0:
448,192,9655,1,0,0:0:0:0:
320,192,9989,1,0,0:0:0:0:
192,192,10211,1,0,0:0:0:0:
64,192,10433,1,0,0:0:0:0:
192,192,10655,1,0,0:0:0:0:
320,192,10878,1,0,0:0:0:0:
320,192,11100,1,0,0:0:0:0:
192,192,11211,1,0,0:0:0:0:
448,192,11433,1,0,0:0:0:0:
320,192,11766,1,0,0:0:0:0:
448,192,11989,1,0,0:0:0:0:
320,192,12211,1,0,0:0:0:0:
192,192,12433,1,0,0:0:0:0:
448,192,12433,1,0,0:0:0:0:
64,192,12655,1,0,0:0:0:0:
320,192,12655,1,0,0:0:0:0:
192,192,12878,1,0,0:0:0:0:
448,192,12878,1,0,0:0:0:0:
64,192,13100,1,0,0:0:0:0:
320,192,13100,1,0,0:0:0:0:
448,192,13322,1,0,0:0:0:0:
192,192,13322,1,0,0:0:0:0:
320,192,13544,1,0,0:0:0:0:
448,192,13766,1,0,0:0:0:0:
192,192,13878,1,0,0:0:0:0:
64,192,13989,1,0,0:0:0:0:
320,192,13989,1,0,0:0:0:0:
192,192,14100,1,0,0:0:0:0:
320,192,14211,1,0,0:0:0:0:
192,192,14322,1,0,0:0:0:0:
320,192,14433,1,0,0:0:0:0:
448,192,14544,1,0,0:0:0:0:
64,192,14544,1,0,0:0:0:0:
192,192,14655,1,0,0:0:0:0:
320,192,14766,1,0,0:0:0:0:
192,192,14878,128,0,15100:0:0:0:0:
64,192,15100,1,0,0:0:0:0:
192,192,15322,1,0,0:0:0:0:
64,192,15544,1,0,0:0:0:0:
320,192,15766,1,0,0:0:0:0:
448,192,15989,1,0,0:0:0:0:
320,192,16211,1,0,0:0:0:0:
192,192,16433,1,0,0:0:0:0:
192,192,16878,1,0,0:0:0:0:
448,192,17322,1,0,0:0:0:0:
320,192,17766,1,0,0:0:0:0:
320,192,18211,1,0,0:0:0:0:
448,192,18433,1,0,0:0:0:0:
320,192,18655,1,0,0:0:0:0:
192,192,19100,1,0,0:0:0:0:
320,192,19100,1,0,0:0:0:0:
320,192,19544,128,0,19989:0:0:0:0:
448,192,19989,1,0,0:0:0:0:
192,192,20433,1,0,0:0:0:0:
320,192,20433,1,0,0:0:0:0:
192,192,20878,1,0,0:0:0:0:
320,192,20878,1,0,0:0:0:0:
64,192,21322,1,0,0:0:0:0:
320,192,21322,1,0,0:0:0:0:
192,192,21766,1,0,0:0:0:0:
320,192,21766,1,0,0:0:0:0:
320,192,22211,1,0,0:0:0:0:
320,192,22433,1,0,0:0:0:0:
64,192,22433,1,0,0:0:0:0:
192,192,22655,1,0,0:0:0:0:
448,192,22655,1,0,0:0:0:0:
192,192,22878,1,0,0:0:0:0:
320,192,22878,1,0,0:0:0:0:
64,192,23100,1,0,0:0:0:0:
448,192,23100,128,0,23544:0:0:0:0:
192,192,23322,1,0,0:0:0:0:
320,192,23544,128,0,24211:0:0:0:0:
64,192,23766,1,0,0:0:0:0:
192,192,23989,1,0,0:0:0:0:
64,192,24211,1,0,0:0:0:0:
320,192,24433,1,0,0:0:0:0:
448,192,24655,1,0,0:0:0:0:
320,192,24878,1,0,0:0:0:0:
192,192,25100,1,0,0:0:0:0:
64,192,25322,1,0,0:0:0:0:
192,192,25544,1,0,0:0:0:0:
320,192,25766,1,0,0:0:0:0:
448,192,25989,1,0,0:0:0:0:
320,192,26211,1,0,0:0:0:0:
448,192,26211,1,0,0:0:0:0:
320,192,26433,1,0,0:0:0:0:
448,192,26655,128,0,27322:0:0:0:0:
192,192,26878,1,0,0:0:0:0:
64,192,27100,1,0,0:0:0:0:
192,192,27322,1,0,0:0:0:0:
320,192,27544,128,0,27989:0:0:0:0:
192,192,27766,1,0,0:0:0:0:
64,192,27989,1,0,0:0:0:0:
448,192,28211,1,0,0:0:0:0:
320,192,28433,128,0,29544:0:0:0:0:
64,192,28655,1,0,0:0:0:0:
192,192,28878,1,0,0:0:0:0:
64,192,29100,1,0,0:0:0:0:
192,192,29322,1,0,0:0:0:0:
448,192,29544,128,0,30211:0:0:0:0:
64,192,29766,1,0,0:0:0:0:
192,192,29989,1,0,0:0:0:0:
192,192,30211,1,0,0:0:0:0:
320,192,30211,1,0,0:0:0:0:
64,192,30878,1,0,0:0:0:0:
448,192,30878,128,0,31322:0:0:0:0:
192,192,31100,1,0,0:0:0:0:
64,192,31211,1,0,0:0:0:0:
320,192,31211,128,0,31989:0:0:0:0:
192,192,31433,128,0,31989:0:0:0:0:
64,192,31989,1,0,0:0:0:0:
320,192,32655,1,0,0:0:0:0:
448,192,32878,1,0,0:0:0:0:
320,192,32989,1,0,0:0:0:0:
448,192,33211,128,0,33544:0:0:0:0:
64,192,33544,1,0,0:0:0:0:
448,192,33766,1,0,0:0:0:0:
192,192,33766,1,0,0:0:0:0:
320,192,33989,128,0,34655:0:0:0:0:
64,192,34211,1,0,0:0:0:0:
192,192,34433,1,0,0:0:0:0:
64,192,34655,1,0,0:0:0:0:
320,192,34878,1,0,0:0:0:0:
192,192,35100,1,0,0:0:0:0:
192,192,35322,1,0,0:0:0:0:
64,192,35544,1,0,0:0:0:0:
448,192,35544,1,0,0:0:0:0:
192,192,35766,1,0,0:0:0:0:
192,192,35989,1,0,0:0:0:0:
448,192,35989,128,0,36433:0:0:0:0:
192,192,36211,1,0,0:0:0:0:
320,192,36433,128,0,36878:0:0:0:0:
64,192,36655,1,0,0:0:0:0:
192,192,36878,1,0,0:0:0:0:
320,192,37100,1,0,0:0:0:0:
64,192,37322,1,0,0:0:0:0:
320,192,37322,1,0,0:0:0:0:
320,192,37989,1,0,0:0:0:0:
192,192,38211,1,0,0:0:0:0:
448,192,38322,1,0,0:0:0:0:
64,192,38544,128,0,39100:0:0:0:0:
320,192,39100,1,0,0:0:0:0:
448,192,39766,1,0,0:0:0:0:
192,192,39989,1,0,0:0:0:0:
320,192,39989,128,0,40655:0:0:0:0:
448,192,40100,1,0,0:0:0:0:
64,192,40322,1,0,0:0:0:0:
192,192,40655,1,0,0:0:0:0:
320,192,40878,1,0,0:0:0:0:
448,192,41100,1,0,0:0:0:0:
320,192,41322,1,0,0:0:0:0:
192,192,41544,1,0,0:0:0:0:
64,192,41766,1,0,0:0:0:0:
192,192,41989,1,0,0:0:0:0:
64,192,42211,1,0,0:0:0:0:
192,192,42433,1,0,0:0:0:0:
320,192,42655,1,0,0:0:0:0:
320,192,42878,1,0,0:0:0:0:
320,192,43100,1,0,0:0:0:0:
448,192,43322,1,0,0:0:0:0:
448,192,43544,1,0,0:0:0:0:
448,192,43766,1,0,0:0:0:0:
448,192,43878,1,0,0:0:0:0:
448,192,43989,1,0,0:0:0:0:
320,192,44211,1,0,0:0:0:0:
320,192,44433,1,0,0:0:0:0:
64,192,44433,1,0,0:0:0:0:
192,192,44655,1,0,0:0:0:0:
64,192,44878,1,0,0:0:0:0:
448,192,44878,1,0,0:0:0:0:
192,192,45100,1,0,0:0:0:0:
320,192,45322,1,0,0:0:0:0:
64,192,45322,1,0,0:0:0:0:
448,192,45544,1,0,0:0:0:0:
320,192,45766,1,0,0:0:0:0:
448,192,45766,1,0,0:0:0:0:
448,192,45989,1,0,0:0:0:0:
320,192,46211,128,0,46655:0:0:0:0:
192,192,46655,1,0,0:0:0:0:
448,192,46655,128,0,47100:0:0:0:0:
64,192,47100,1,0,0:0:0:0:
320,192,47100,128,0,47544:0:0:0:0:
192,192,47544,1,0,0:0:0:0:
192,192,47989,1,0,0:0:0:0:
64,192,47989,1,0,0:0:0:0:
320,192,48211,1,0,0:0:0:0:
448,192,48433,1,0,0:0:0:0:
192,192,48433,1,0,0:0:0:0:
320,192,48655,1,0,0:0:0:0:
448,192,48878,1,0,0:0:0:0:
320,192,48878,1,0,0:0:0:0:
192,192,49100,1,0,0:0:0:0:
320,192,49322,1,0,0:0:0:0:
64,192,49322,1,0,0:0:0:0:
448,192,49544,128,0,50433:0:0:0:0:
192,192,49766,1,0,0:0:0:0:
64,192,49989,1,0,0:0:0:0:
192,192,50211,1,0,0:0:0:0:
320,192,50433,128,0,51544:0:0:0:0:
64,192,50655,1,0,0:0:0:0:
64,192,50878,1,0,0:0:0:0:
64,192,51100,1,0,0:0:0:0:
192,192,51322,1,0,0:0:0:0:
64,192,51544,1,0,0:0:0:0:
320,192,51766,128,0,52211:0:0:0:0:
192,192,51989,1,0,0:0:0:0:
64,192,52211,1,0,0:0:0:0:
448,192,52433,128,0,53100:0:0:0:0:
64,192,52655,1,0,0:0:0:0:
192,192,52878,1,0,0:0:0:0:
64,192,53100,1,0,0:0:0:0:
320,192,53322,128,0,54211:0:0:0:0:
448,192,53544,1,0,0:0:0:0:
64,192,53766,1,0,0:0:0:0:
192,192,53989,1,0,0:0:0:0:
448,192,54211,1,0,0:0:0:0:
320,192,54433,1,0,0:0:0:0:
192,192,54655,1,0,0:0:0:0:
64,192,54655,1,0,0:0:0:0:
448,192,54878,1,0,0:0:0:0:
320,192,55100,1,0,0:0:0:0:
448,192,55100,1,0,0:0:0:0:
64,192,55322,1,0,0:0:0:0:
192,192,55544,1,0,0:0:0:0:
448,192,55544,1,0,0:0:0:0:
64,192,55766,1,0,0:0:0:0:
320,192,55989,1,0,0:0:0:0:
192,192,55989,1,0,0:0:0:0:
192,192,56211,1,0,0:0:0:0:
320,192,56433,1,0,0:0:0:0:
64,192,56433,1,0,0:0:0:0:
448,192,56655,1,0,0:0:0:0:
320,192,56878,1,0,0:0:0:0:
192,192,56878,1,0,0:0:0:0:
448,192,57100,1,0,0:0:0:0:
320,192,57322,1,0,0:0:0:0:
64,192,57322,1,0,0:0:0:0:
320,192,57544,1,0,0:0:0:0:
448,192,57766,128,0,58211:0:0:0:0:
320,192,57989,1,0,0:0:0:0:
320,192,58211,1,0,0:0:0:0:
64,192,58433,1,0,0:0:0:0:
64,192,58655,1,0,0:0:0:0:
320,192,58655,1,0,0:0:0:0:
192,192,58878,1,0,0:0:0:0:
448,192,58878,1,0,0:0:0:0:
64,192,59100,1,0,0:0:0:0:
192,192,59322,1,0,0:0:0:0:
320,192,59544,1,0,0:0:0:0:
64,192,59544,1,0,0:0:0:0:
448,192,59766,1,0,0:0:0:0:
320,192,59989,1,0,0:0:0:0:
192,192,59989,1,0,0:0:0:0:
448,192,60211,128,0,60878:0:0:0:0:
192,192,60433,1,0,0:0:0:0:
64,192,60433,1,0,0:0:0:0:
64,192,60655,1,0,0:0:0:0:
192,192,60878,1,0,0:0:0:0:
320,192,61100,128,0,62211:0:0:0:0:
64,192,61322,1,0,0:0:0:0:
448,192,61544,1,0,0:0:0:0:
64,192,61766,1,0,0:0:0:0:
192,192,61989,1,0,0:0:0:0:
448,192,62211,1,0,0:0:0:0:
64,192,62433,1,0,0:0:0:0:
448,192,62655,128,0,63544:0:0:0:0:
192,192,62878,1,0,0:0:0:0:
64,192,63100,1,0,0:0:0:0:
192,192,63322,1,0,0:0:0:0:
320,192,63544,128,0,63989:0:0:0:0:
64,192,63766,1,0,0:0:0:0:
192,192,63989,1,0,0:0:0:0:
64,192,64211,1,0,0:0:0:0:
320,192,64433,128,0,65322:0:0:0:0:
192,192,64655,1,0,0:0:0:0:
448,192,64878,1,0,0:0:0:0:
192,192,65100,1,0,0:0:0:0:
64,192,65322,1,0,0:0:0:0:
320,192,65544,1,0,0:0:0:0:
448,192,65766,1,0,0:0:0:0:
64,192,66211,1,0,0:0:0:0:
320,192,66433,1,0,0:0:0:0:
192,192,66655,1,0,0:0:0:0:
320,192,66655,128,0,67544:0:0:0:0:
448,192,66878,1,0,0:0:0:0:
64,192,67100,1,0,0:0:0:0:
192,192,67322,1,0,0:0:0:0:
64,192,67544,1,0,0:0:0:0:
192,192,67989,1,0,0:0:0:0:
320,192,68211,1,0,0:0:0:0:
192,192,68433,1,0,0:0:0:0:
448,192,68433,128,0,69322:0:0:0:0:
320,192,68655,1,0,0:0:0:0:
64,192,68878,1,0,0:0:0:0:
192,192,69100,1,0,0:0:0:0:
64,192,69322,1,0,0:0:0:0:
192,192,69322,128,0,69544:0:0:0:0:
320,192,69544,1,0,0:0:0:0:
448,192,69544,128,0,69989:0:0:0:0:
192,192,69766,1,0,0:0:0:0:
320,192,69989,1,0,0:0:0:0:
192,192,69989,128,0,70433:0:0:0:0:
64,192,70211,1,0,0:0:0:0:
320,192,70433,1,0,0:0:0:0:
192,192,70655,1,0,0:0:0:0:
320,192,70655,128,0,71100:0:0:0:0:
448,192,70878,1,0,0:0:0:0:
64,192,71100,1,0,0:0:0:0:
192,192,71322,1,0,0:0:0:0:
320,192,71544,1,0,0:0:0:0:
64,192,71766,1,0,0:0:0:0:
64,192,71989,128,0,72544:0:0:0:0:
320,192,72433,1,0,0:0:0:0:
448,192,72655,1,0,0:0:0:0:
320,192,72878,128,0,73433:0:0:0:0:
192,192,73100,1,0,0:0:0:0:
64,192,73322,1,0,0:0:0:0:
320,192,73544,128,0,74211:0:0:0:0:
448,192,73766,1,0,0:0:0:0:
192,192,73989,1,0,0:0:0:0:
64,192,74211,1,0,0:0:0:0:
320,192,74433,128,0,75100:0:0:0:0:
448,192,74655,1,0,0:0:0:0:
192,192,74878,1,0,0:0:0:0:
64,192,75100,1,0,0:0:0:0:
320,192,75322,128,0,75989:0:0:0:0:
448,192,75544,1,0,0:0:0:0:
192,192,75766,1,0,0:0:0:0:
448,192,75989,1,0,0:0:0:0:
64,192,76211,1,0,0:0:0:0:
320,192,76433,128,0,77100:0:0:0:0:
448,192,76655,1,0,0:0:0:0:
192,192,76878,1,0,0:0:0:0:
64,192,77100,1,0,0:0:0:0:
448,192,77322,128,0,77989:0:0:0:0:
320,192,77544,1,0,0:0:0:0:
192,192,77766,1,0,0:0:0:0:
320,192,77989,1,0,0:0:0:0:
64,192,78211,1,0,0:0:0:0:
448,192,78433,1,0,0:0:0:0:
192,192,78655,1,0,0:0:0:0:
320,192,78878,128,0,79211:0:0:0:0:
192,192,79100,1,0,0:0:0:0:
448,192,79322,128,0,79766:0:0:0:0:
64,192,79544,1,0,0:0:0:0:
320,192,79766,1,0,0:0:0:0:
192,192,79989,1,0,0:0:0:0:
320,192,79989,1,0,0:0:0:0:
448,192,80211,1,0,0:0:0:0:
192,192,80433,1,0,0:0:0:0:
64,192,80433,1,0,0:0:0:0:
320,192,80655,128,0,81433:0:0:0:0:
64,192,80878,1,0,0:0:0:0:
448,192,81100,1,0,0:0:0:0:
64,192,81322,1,0,0:0:0:0:
320,192,81544,128,0,81766:0:0:0:0:
192,192,81766,1,0,0:0:0:0:
448,192,81989,128,0,82322:0:0:0:0:
192,192,82211,1,0,0:0:0:0:
320,192,82433,128,0,83322:0:0:0:0:
64,192,82655,1,0,0:0:0:0:
192,192,82878,1,0,0:0:0:0:
64,192,83100,1,0,0:0:0:0:
448,192,83322,1,0,0:0:0:0:
192,192,83544,1,0,0:0:0:0:
448,192,83766,1,0,0:0:0:0:
192,192,83989,1,0,0:0:0:0:
320,192,84211,128,0,85100:0:0:0:0:
64,192,84433,1,0,0:0:0:0:
448,192,84655,1,0,0:0:0:0:
64,192,84878,1,0,0:0:0:0:
192,192,85322,1,0,0:0:0:0:
320,192,85322,128,0,85766:0:0:0:0:
448,192,85544,1,0,0:0:0:0:
192,192,85766,1,0,0:0:0:0:
64,192,85989,1,0,0:0:0:0:
448,192,85989,128,0,87100:0:0:0:0:
192,192,86211,1,0,0:0:0:0:
320,192,86433,128,0,87100:0:0:0:0:
64,192,86655,1,0,0:0:0:0:
192,192,86878,1,0,0:0:0:0:
64,192,87100,1,0,0:0:0:0:
192,192,87544,1,0,0:0:0:0:
448,192,87544,128,0,87989:0:0:0:0:
320,192,87989,128,0,88433:0:0:0:0:
64,192,88433,1,0,0:0:0:0:
192,192,88655,1,0,0:0:0:0:
64,192,88878,128,0,89322:0:0:0:0:
320,192,89100,1,0,0:0:0:0:
320,192,89322,128,0,89766:0:0:0:0:
64,192,89544,1,0,0:0:0:0:
192,192,89766,128,0,90211:0:0:0:0:
448,192,89989,1,0,0:0:0:0:
448,192,90211,1,0,0:0:0:0:
320,192,90655,128,0,91100:0:0:0:0:
64,192,90878,1,0,0:0:0:0:
192,192,91100,1,0,0:0:0:0:
64,192,91544,128,0,91989:0:0:0:0:
448,192,91766,1,0,0:0:0:0:
320,192,91989,1,0,0:0:0:0:
192,192,92433,128,0,92878:0:0:0:0:
448,192,92655,1,0,0:0:0:0:
320,192,92878,1,0,0:0:0:0:
448,192,93322,128,0,93766:0:0:0:0:
320,192,93544,1,0,0:0:0:0:
320,192,93766,1,0,0:0:0:0:
192,192,93989,1,0,0:0:0:0:
192,192,94211,128,0,94655:0:0:0:0:
448,192,94433,1,0,0:0:0:0:
448,192,94655,1,0,0:0:0:0:
64,192,94878,1,0,0:0:0:0:
320,192,95100,128,0,95544:0:0:0:0:
448,192,95322,1,0,0:0:0:0:
64,192,95544,1,0,0:0:0:0:
448,192,95766,1,0,0:0:0:0:
192,192,95989,128,0,96433:0:0:0:0:
320,192,96211,1,0,0:0:0:0:
448,192,96433,1,0,0:0:0:0:
320,192,96655,1,0,0:0:0:0:
320,192,96878,128,0,97322:0:0:0:0:
448,192,97100,1,0,0:0:0:0:
192,192,97322,1,0,0:0:0:0:
192,192,97544,1,0,0:0:0:0:
64,192,97766,128,0,98211:0:0:0:0:
320,192,97989,1,0,0:0:0:0:
448,192,98211,1,0,0:0:0:0:
320,192,98433,1,0,0:0:0:0:
320,192,98655,128,0,99100:0:0:0:0:
64,192,98878,1,0,0:0:0:0:
192,192,99100,1,0,0:0:0:0:
448,192,99322,1,0,0:0:0:0:
64,192,99544,128,0,99989:0:0:0:0:
448,192,99766,1,0,0:0:0:0:
192,192,99989,1,0,0:0:0:0:
192,192,100211,1,0,0:0:0:0:
320,192,100433,1,0,0:0:0:0:
320,192,100655,1,0,0:0:0:0:
448,192,100878,128,0,101322:0:0:0:0:
192,192,101322,1,0,0:0:0:0:
320,192,101322,1,0,0:0:0:0:
320,192,102766,128,0,103100:0:0:0:0:
448,192,102766,128,0,103100:0:0:0:0:
64,192,103100,1,0,0:0:0:0:
192,192,103100,1,0,0:0:0:0:
64,192,104544,128,0,104878:0:0:0:0:
192,192,104544,128,0,104878:0:0:0:0:
448,192,104878,1,0,0:0:0:0:
320,192,104878,1,0,0:0:0:0:
320,192,105100,1,0,0:0:0:0:
448,192,105322,1,0,0:0:0:0:
320,192,105544,1,0,0:0:0:0:
320,192,105766,128,0,106211:0:0:0:0:
192,192,105989,1,0,0:0:0:0:
192,192,106211,1,0,0:0:0:0:
448,192,106433,1,0,0:0:0:0:
64,192,106655,1,0,0:0:0:0:
192,192,106878,1,0,0:0:0:0:
320,192,107100,1,0,0:0:0:0:
448,192,107322,1,0,0:0:0:0:
320,192,107544,1,0,0:0:0:0:
448,192,107766,1,0,0:0:0:0:
320,192,107989,1,0,0:0:0:0:
192,192,108211,1,0,0:0:0:0:
448,192,108433,1,0,0:0:0:0:
64,192,108433,1,0,0:0:0:0:
192,192,109878,128,0,110211:0:0:0:0:
320,192,109878,128,0,110211:0:0:0:0:
64,192,110211,1,0,0:0:0:0:
448,192,110211,1,0,0:0:0:0:
64,192,111655,128,0,111989:0:0:0:0:
448,192,111655,128,0,111989:0:0:0:0:
192,192,111989,1,0,0:0:0:0:
320,192,111989,1,0,0:0:0:0:
192,192,112211,1,0,0:0:0:0:
448,192,112433,1,0,0:0:0:0:
448,192,112655,1,0,0:0:0:0:
64,192,112878,1,0,0:0:0:0:
192,192,112878,1,0,0:0:0:0:
192,192,113100,1,0,0:0:0:0:
448,192,113322,1,0,0:0:0:0:
448,192,113544,1,0,0:0:0:0:
64,192,113766,1,0,0:0:0:0:
320,192,113766,1,0,0:0:0:0:
192,192,113989,1,0,0:0:0:0:
320,192,114211,1,0,0:0:0:0:
448,192,114433,1,0,0:0:0:0:
320,192,114655,1,0,0:0:0:0:
64,192,114766,1,0,0:0:0:0:
192,192,114878,1,0,0:0:0:0:
320,192,114989,1,0,0:0:0:0:
448,192,115100,1,0,0:0:0:0:
64,192,115100,1,0,0:0:0:0:
192,192,115211,1,0,0:0:0:0:
320,192,115322,1,0,0:0:0:0:
448,192,115322,1,0,0:0:0:0:
64,192,115433,1,0,0:0:0:0:
192,192,115544,1,0,0:0:0:0:
320,192,115544,1,0,0:0:0:0:
448,192,115766,1,0,0:0:0:0:
320,192,115989,128,0,116433:0:0:0:0:
192,192,116211,1,0,0:0:0:0:
64,192,116433,1,0,0:0:0:0:
192,192,116655,1,0,0:0:0:0:
448,192,116878,1,0,0:0:0:0:
192,192,116878,1,0,0:0:0:0:
320,192,117100,1,0,0:0:0:0:
64,192,117322,1,0,0:0:0:0:
320,192,117322,1,0,0:0:0:0:
192,192,117544,1,0,0:0:0:0:
64,192,117766,1,0,0:0:0:0:
448,192,117766,1,0,0:0:0:0:
192,192,117989,1,0,0:0:0:0:
64,192,118211,1,0,0:0:0:0:
192,192,118211,1,0,0:0:0:0:
64,192,118433,1,0,0:0:0:0:
448,192,118655,1,0,0:0:0:0:
320,192,118655,1,0,0:0:0:0:
448,192,118878,1,0,0:0:0:0:
320,192,119100,1,0,0:0:0:0:
64,192,119100,1,0,0:0:0:0:
192,192,119211,1,0,0:0:0:0:
448,192,119322,1,0,0:0:0:0:
64,192,119433,1,0,0:0:0:0:
192,192,119544,1,0,0:0:0:0:
192,192,119655,1,0,0:0:0:0:
320,192,119766,1,0,0:0:0:0:
320,192,119878,1,0,0:0:0:0:
448,192,119989,1,0,0:0:0:0:
192,192,120100,1,0,0:0:0:0:
320,192,120211,1,0,0:0:0:0:
320,192,120322,1,0,0:0:0:0:
448,192,120433,1,0,0:0:0:0:
320,192,120655,1,0,0:0:0:0:
448,192,120655,1,0,0:0:0:0:
448,192,120878,1,0,0:0:0:0:
192,192,121100,1,0,0:0:0:0:
448,192,121322,1,0,0:0:0:0:
320,192,121433,1,0,0:0:0:0:
192,192,121544,1,0,0:0:0:0:
448,192,121766,1,0,0:0:0:0:
192,192,121989,1,0,0:0:0:0:
320,192,122211,1,0,0:0:0:0:
192,192,122322,1,0,0:0:0:0:
64,192,122433,1,0,0:0:0:0:
320,192,122655,1,0,0:0:0:0:
448,192,122655,128,0,122878:0:0:0:0:
192,192,122878,1,0,0:0:0:0:
64,192,123100,1,0,0:0:0:0:
192,192,123100,128,0,123322:0:0:0:0:
448,192,123322,1,0,0:0:0:0:
64,192,123544,1,0,0:0:0:0:
320,192,123766,128,0,123989:0:0:0:0:
192,192,123989,1,0,0:0:0:0:
448,192,124211,1,0,0:0:0:0:
64,192,124211,1,0,0:0:0:0:
320,192,124433,128,0,124878:0:0:0:0:
192,192,124655,1,0,0:0:0:0:
448,192,124878,128,0,125322:0:0:0:0:
320,192,125100,1,0,0:0:0:0:
192,192,125322,1,0,0:0:0:0:
192,192,125544,1,0,0:0:0:0:
448,192,125544,128,0,125766:0:0:0:0:
64,192,125766,1,0,0:0:0:0:
448,192,125989,1,0,0:0:0:0:
320,192,126211,128,0,126433:0:0:0:0:
64,192,126211,1,0,0:0:0:0:
192,192,126433,1,0,0:0:0:0:
192,192,126655,1,0,0:0:0:0:
192,192,126878,1,0,0:0:0:0:
64,192,126878,128,0,127100:0:0:0:0:
320,192,127100,1,0,0:0:0:0:
64,192,127322,1,0,0:0:0:0:
320,192,127544,1,0,0:0:0:0:
448,192,127544,128,0,127766:0:0:0:0:
192,192,127766,1,0,0:0:0:0:
64,192,127989,1,0,0:0:0:0:
448,192,128211,1,0,0:0:0:0:
320,192,128433,1,0,0:0:0:0:
64,192,128433,1,0,0:0:0:0:
320,192,128655,1,0,0:0:0:0:
192,192,128878,1,0,0:0:0:0:
320,192,128878,1,0,0:0:0:0:
64,192,129100,1,0,0:0:0:0:
448,192,129322,1,0,0:0:0:0:
192,192,129322,1,0,0:0:0:0:
320,192,129544,1,0,0:0:0:0:
448,192,129544,1,0,0:0:0:0:
320,192,129766,1,0,0:0:0:0:
448,192,129766,1,0,0:0:0:0:
64,192,129766,1,0,0:0:0:0:
192,192,129766,1,0,0:0:0:0:
192,192,130211,1,0,0:0:0:0:
64,192,130211,1,0,0:0:0:0:
448,192,130433,128,0,130655:0:0:0:0:
320,192,130655,1,0,0:0:0:0:
64,192,130655,128,0,130878:0:0:0:0:
192,192,130878,1,0,0:0:0:0:
448,192,130878,128,0,131544:0:0:0:0:
64,192,131100,128,0,131544:0:0:0:0:
192,192,131544,1,0,0:0:0:0:
320,192,131544,1,0,0:0:0:0:
64,192,131766,1,0,0:0:0:0:
448,192,131766,128,0,131989:0:0:0:0:
192,192,131989,1,0,0:0:0:0:
320,192,132211,1,0,0:0:0:0:
64,192,132211,128,0,132433:0:0:0:0:
192,192,132433,1,0,0:0:0:0:
448,192,132655,1,0,0:0:0:0:
192,192,132655,128,0,132878:0:0:0:0:
320,192,132878,1,0,0:0:0:0:
448,192,133100,1,0,0:0:0:0:
320,192,133322,1,0,0:0:0:0:
448,192,133544,1,0,0:0:0:0:
320,192,133544,1,0,0:0:0:0:
64,192,133655,1,0,0:0:0:0:
320,192,133766,1,0,0:0:0:0:
448,192,133989,1,0,0:0:0:0:
320,192,134100,1,0,0:0:0:0:
192,192,134211,1,0,0:0:0:0:
320,192,134433,1,0,0:0:0:0:
64,192,134544,1,0,0:0:0:0:
320,192,134544,1,0,0:0:0:0:
192,192,134655,1,0,0:0:0:0:
320,192,134878,1,0,0:0:0:0:
448,192,135100,1,0,0:0:0:0:
320,192,135322,1,0,0:0:0:0:
192,192,135433,1,0,0:0:0:0:
448,192,135544,1,0,0:0:0:0:
320,192,135766,1,0,0:0:0:0:
192,192,135878,1,0,0:0:0:0:
320,192,135989,1,0,0:0:0:0:
448,192,136211,1,0,0:0:0:0:
192,192,136322,1,0,0:0:0:0:
64,192,136433,1,0,0:0:0:0:
320,192,136655,1,0,0:0:0:0:
320,192,136878,1,0,0:0:0:0:
64,192,137100,1,0,0:0:0:0:
320,192,137322,1,0,0:0:0:0:
320,192,137544,1,0,0:0:0:0:
448,192,137766,1,0,0:0:0:0:
320,192,137989,1,0,0:0:0:0:
64,192,138211,1,0,0:0:0:0:
448,192,138211,1,0,0:0:0:0:
320,192,138433,1,0,0:0:0:0:
64,192,138655,1,0,0:0:0:0:
320,192,138878,1,0,0:0:0:0:
64,192,139100,1,0,0:0:0:0:
320,192,139322,1,0,0:0:0:0:
448,192,139544,1,0,0:0:0:0:
320,192,139766,1,0,0:0:0:0:
320,192,139989,1,0,0:0:0:0:
64,192,139989,1,0,0:0:0:0:
448,192,140211,1,0,0:0:0:0:
320,192,140433,1,0,0:0:0:0:
448,192,140655,1,0,0:0:0:0:
192,192,140878,1,0,0:0:0:0:
320,192,141100,1,0,0:0:0:0:
448,192,141322,1,0,0:0:0:0:
320,192,141544,1,0,0:0:0:0:
448,192,141766,1,0,0:0:0:0:
192,192,141766,1,0,0:0:0:0:
320,192,141989,1,0,0:0:0:0:
64,192,142211,1,0,0:0:0:0:
192,192,142433,1,0,0:0:0:0:
320,192,142433,1,0,0:0:0:0:
64,192,142655,1,0,0:0:0:0:
192,192,142878,1,0,0:0:0:0:
448,192,142878,1,0,0:0:0:0:
320,192,143100,1,0,0:0:0:0:
192,192,143100,1,0,0:0:0:0:
448,192,143322,1,0,0:0:0:0:
320,192,143544,1,0,0:0:0:0:
64,192,143544,1,0,0:0:0:0:
448,192,143766,1,0,0:0:0:0:
320,192,143989,1,0,0:0:0:0:
192,192,143989,1,0,0:0:0:0:
448,192,144211,1,0,0:0:0:0:
64,192,144211,1,0,0:0:0:0:
192,192,144433,1,0,0:0:0:0:
320,192,144433,128,0,145766:0:0:0:0:
192,192,144655,1,0,0:0:0:0:
64,192,144878,1,0,0:0:0:0:
192,192,145100,1,0,0:0:0:0:
448,192,145322,1,0,0:0:0:0:
64,192,145544,1,0,0:0:0:0:
192,192,145766,1,0,0:0:0:0:
320,192,145989,128,0,147544:0:0:0:0:
192,192,146211,1,0,0:0:0:0:
448,192,146433,1,0,0:0:0:0:
64,192,146655,1,0,0:0:0:0:
192,192,146878,1,0,0:0:0:0:
448,192,147100,1,0,0:0:0:0:
192,192,147322,1,0,0:0:0:0:
192,192,147544,128,0,148878:0:0:0:0:
448,192,147766,1,0,0:0:0:0:
320,192,147989,1,0,0:0:0:0:
64,192,148211,1,0,0:0:0:0:
320,192,148433,1,0,0:0:0:0:
448,192,148655,1,0,0:0:0:0:
64,192,148878,1,0,0:0:0:0:
448,192,149100,1,0,0:0:0:0:
64,192,149322,1,0,0:0:0:0:
320,192,149544,128,0,151100:0:0:0:0:
192,192,149766,1,0,0:0:0:0:
448,192,149989,1,0,0:0:0:0:
64,192,150211,1,0,0:0:0:0:
192,192,150433,1,0,0:0:0:0:
64,192,150655,1,0,0:0:0:0:
192,192,150878,1,0,0:0:0:0:
448,192,151100,128,0,152655:0:0:0:0:
64,192,151322,1,0,0:0:0:0:
320,192,151544,1,0,0:0:0:0:
192,192,151766,1,0,0:0:0:0:
64,192,151989,1,0,0:0:0:0:
192,192,152211,1,0,0:0:0:0:
64,192,152433,1,0,0:0:0:0:
192,192,152655,1,0,0:0:0:0:
192,192,152878,1,0,0:0:0:0:
320,192,153100,1,0,0:0:0:0:
448,192,153322,1,0,0:0:0:0:
192,192,153322,128,0,154211:0:0:0:0:
64,192,153544,1,0,0:0:0:0:
448,192,153766,1,0,0:0:0:0:
64,192,153989,1,0,0:0:0:0:
448,192,154211,1,0,0:0:0:0:
64,192,154433,1,0,0:0:0:0:
192,192,154655,128,0,156211:0:0:0:0:
320,192,154878,1,0,0:0:0:0:
448,192,155100,1,0,0:0:0:0:
320,192,155322,1,0,0:0:0:0:
64,192,155544,1,0,0:0:0:0:
320,192,155766,1,0,0:0:0:0:
64,192,155989,1,0,0:0:0:0:
448,192,156211,1,0,0:0:0:0:
320,192,156433,128,0,157766:0:0:0:0:
192,192,156655,1,0,0:0:0:0:
64,192,156878,1,0,0:0:0:0:
192,192,157100,1,0,0:0:0:0:
64,192,157322,1,0,0:0:0:0:
192,192,157544,1,0,0:0:0:0:
448,192,157766,1,0,0:0:0:0:
192,192,157989,1,0,0:0:0:0:
448,192,158211,1,0,0:0:0:0:
320,192,158211,1,0,0:0:0:0:
192,192,158433,1,0,0:0:0:0:
64,192,158655,1,0,0:0:0:0:
448,192,158655,128,0,158878:0:0:0:0:
320,192,158878,1,0,0:0:0:0:
448,192,159100,1,0,0:0:0:0:
320,192,159322,1,0,0:0:0:0:
64,192,159322,128,0,159544:0:0:0:0:
448,192,159544,1,0,0:0:0:0:
320,192,159766,1,0,0:0:0:0:
448,192,159989,1,0,0:0:0:0:
64,192,159989,1,0,0:0:0:0:
192,192,160211,1,0,0:0:0:0:
448,192,160211,128,0,160433:0:0:0:0:
64,192,160433,1,0,0:0:0:0:
192,192,160655,1,0,0:0:0:0:
64,192,160878,1,0,0:0:0:0:
320,192,160878,1,0,0:0:0:0:
192,192,161100,1,0,0:0:0:0:
448,192,161100,128,0,161322:0:0:0:0:
64,192,161322,1,0,0:0:0:0:
192,192,161544,1,0,0:0:0:0:
320,192,161766,1,0,0:0:0:0:
64,192,161766,128,0,161989:0:0:0:0:
448,192,161989,1,0,0:0:0:0:
192,192,162211,1,0,0:0:0:0:
320,192,162211,1,0,0:0:0:0:
320,192,162433,1,0,0:0:0:0:
448,192,162655,1,0,0:0:0:0:
320,192,162655,1,0,0:0:0:0:
64,192,162878,1,0,0:0:0:0:
448,192,163100,1,0,0:0:0:0:
64,192,163100,1,0,0:0:0:0:
64,192,163322,1,0,0:0:0:0:
192,192,163544,1,0,0:0:0:0:
320,192,163544,1,0,0:0:0:0:
192,192,163766,1,0,0:0:0:0:
448,192,163989,1,0,0:0:0:0:
320,192,163989,1,0,0:0:0:0:
192,192,164211,1,0,0:0:0:0:
320,192,164433,1,0,0:0:0:0:
448,192,164433,1,0,0:0:0:0:
64,192,164655,1,0,0:0:0:0:
192,192,164878,1,0,0:0:0:0:
64,192,164878,1,0,0:0:0:0:
192,192,165100,1,0,0:0:0:0:
448,192,165322,1,0,0:0:0:0:
320,192,165322,1,0,0:0:0:0:
320,192,165544,1,0,0:0:0:0:
64,192,165544,1,0,0:0:0:0:
448,192,165766,1,0,0:0:0:0:
192,192,165766,1,0,0:0:0:0:
64,192,165878,1,0,0:0:0:0:
320,192,165878,1,0,0:0:0:0:
192,192,166100,1,0,0:0:0:0:
448,192,166655,1,0,0:0:0:0:
192,192,166766,1,0,0:0:0:0:
64,192,166766,1,0,0:0:0:0:
192,192,166989,1,0,0:0:0:0:
448,192,166989,1,0,0:0:0:0:
320,192,167544,1,0,0:0:0:0:
192,192,167544,1,0,0:0:0:0:
64,192,167655,1,0,0:0:0:0:
320,192,167655,1,0,0:0:0:0:
192,192,167878,1,0,0:0:0:0:
448,192,167878,128,0,168433:0:0:0:0:
192,192,168211,1,0,0:0:0:0:
320,192,168433,128,0,169989:0:0:0:0:
64,192,168655,1,0,0:0:0:0:
192,192,168878,1,0,0:0:0:0:
448,192,169100,1,0,0:0:0:0:
192,192,169322,1,0,0:0:0:0:
448,192,169544,1,0,0:0:0:0:
192,192,169766,1,0,0:0:0:0:
448,192,169989,1,0,0:0:0:0:
320,192,170211,1,0,0:0:0:0:
64,192,170322,1,0,0:0:0:0:
320,192,170433,1,0,0:0:0:0:
448,192,170544,1,0,0:0:0:0:
192,192,170655,1,0,0:0:0:0:
448,192,170766,1,0,0:0:0:0:
64,192,170878,1,0,0:0:0:0:
448,192,170989,1,0,0:0:0:0:
192,192,171100,1,0,0:0:0:0:
448,192,171211,1,0,0:0:0:0:
64,192,171322,1,0,0:0:0:0:
320,192,171433,1,0,0:0:0:0:
448,192,171544,1,0,0:0:0:0:
192,192,171655,1,0,0:0:0:0:
64,192,171766,1,0,0:0:0:0:
320,192,171878,1,0,0:0:0:0:
64,192,171989,1,0,0:0:0:0:
192,192,171989,1,0,0:0:0:0:
320,192,172211,1,0,0:0:0:0:
448,192,172433,1,0,0:0:0:0:
64,192,172433,128,0,172655:0:0:0:0:
320,192,172655,1,0,0:0:0:0:
192,192,172878,1,0,0:0:0:0:
64,192,173100,1,0,0:0:0:0:
320,192,173100,128,0,173322:0:0:0:0:
192,192,173322,1,0,0:0:0:0:
64,192,173544,1,0,0:0:0:0:
192,192,173766,1,0,0:0:0:0:
448,192,173766,128,0,173989:0:0:0:0:
64,192,173989,1,0,0:0:0:0:
320,192,174211,128,0,174655:0:0:0:0:
64,192,174211,1,0,0:0:0:0:
64,192,174433,1,0,0:0:0:0:
448,192,174655,128,0,175100:0:0:0:0:
64,192,174655,1,0,0:0:0:0:
192,192,174878,1,0,0:0:0:0:
320,192,175100,128,0,175544:0:0:0:0:
448,192,175322,1,0,0:0:0:0:
192,192,175544,1,0,0:0:0:0:
64,192,175766,1,0,0:0:0:0:
192,192,175989,1,0,0:0:0:0:
320,192,176211,128,0,176655:0:0:0:0:
64,192,176433,1,0,0:0:0:0:
448,192,176655,1,0,0:0:0:0:
192,192,176878,128,0,177322:0:0:0:0:
64,192,177100,1,0,0:0:0:0:
448,192,177322,128,0,177766:0:0:0:0:
320,192,177544,1,0,0:0:0:0:
192,192,177766,1,0,0:0:0:0:
64,192,177766,128,0,177989:0:0:0:0:
192,192,177989,128,0,178433:0:0:0:0:
320,192,178211,128,0,178655:0:0:0:0:
448,192,178433,128,0,179211:0:0:0:0:
64,192,178655,1,0,0:0:0:0:
320,192,178878,1,0,0:0:0:0:
192,192,179100,128,0,179766:0:0:0:0:
320,192,179322,128,0,179766:0:0:0:0:
448,192,179544,128,0,180100:0:0:0:0:
64,192,179766,128,0,180211:0:0:0:0:
320,192,179989,128,0,180544:0:0:0:0:
192,192,180211,128,0,181100:0:0:0:0:
448,192,180433,128,0,181100:0:0:0:0:
320,192,180655,1,0,0:0:0:0:
320,192,180878,1,0,0:0:0:0:
320,192,181100,128,0,181544:0:0:0:0:
192,192,181322,128,0,182211:0:0:0:0:
448,192,181544,1,0,0:0:0:0:
320,192,181766,128,0,182655:0:0:0:0:
64,192,181989,1,0,0:0:0:0:
64,192,182211,128,0,183100:0:0:0:0:
448,192,182433,1,0,0:0:0:0:
448,192,182655,128,0,183322:0:0:0:0:
192,192,182878,1,0,0:0:0:0:
320,192,183100,128,0,183766:0:0:0:0:
192,192,183322,1,0,0:0:0:0:
192,192,183544,128,0,184211:0:0:0:0:
64,192,183766,1,0,0:0:0:0:
448,192,183989,128,0,184433:0:0:0:0:
320,192,184211,1,0,0:0:0:0:
320,192,184433,128,0,184878:0:0:0:0:
448,192,184655,1,0,0:0:0:0:
192,192,184878,128,0,185322:0:0:0:0:
64,192,185100,1,0,0:0:0:0:
64,192,185322,128,0,185766:0:0:0:0:
448,192,185544,1,0,0:0:0:0:
320,192,185766,128,0,186211:0:0:0:0:
192,192,185989,1,0,0:0:0:0:
448,192,186211,128,0,186655:0:0:0:0:
320,192,186433,1,0,0:0:0:0:
192,192,186655,1,0,0:0:0:0:
320,192,186655,128,0,187766:0:0:0:0:
448,192,186878,1,0,0:0:0:0:
64,192,187100,1,0,0:0:0:0:
192,192,187322,1,0,0:0:0:0:
64,192,187544,1,0,0:0:0:0:
448,192,187766,128,0,188433:0:0:0:0:
192,192,187989,1,0,0:0:0:0:
192,192,188211,1,0,0:0:0:0:
320,192,188433,128,0,189544:0:0:0:0:
64,192,188655,1,0,0:0:0:0:
448,192,188878,1,0,0:0:0:0:
64,192,189100,1,0,0:0:0:0:
192,192,189322,1,0,0:0:0:0:
448,192,189544,1,0,0:0:0:0:
192,192,189766,1,0,0:0:0:0:
320,192,189989,1,0,0:0:0:0:
448,192,190211,1,0,0:0:0:0:
320,192,190433,128,0,191100:0:0:0:0:
192,192,190655,1,0,0:0:0:0:
192,192,190878,1,0,0:0:0:0:
64,192,191100,128,0,191544:0:0:0:0:
448,192,191100,128,0,191544:0:0:0:0:
192,192,191322,1,0,0:0:0:0:
320,192,191322,1,0,0:0:0:0:
192,192,191544,128,0,191989:0:0:0:0:
320,192,191544,128,0,191989:0:0:0:0:
64,192,191766,1,0,0:0:0:0:
448,192,191766,1,0,0:0:0:0:
448,192,191989,1,0,0:0:0:0:
64,192,191989,1,0,0:0:0:0:
320,192,192211,1,0,0:0:0:0:
192,192,192433,1,0,0:0:0:0:
64,192,192433,1,0,0:0:0:0:
448,192,192655,1,0,0:0:0:0:
320,192,192878,1,0,0:0:0:0:
448,192,192878,1,0,0:0:0:0:
64,192,193100,1,0,0:0:0:0:
192,192,193322,1,0,0:0:0:0:
64,192,193544,1,0,0:0:0:0:
320,192,193544,1,0,0:0:0:0:
192,192,193766,1,0,0:0:0:0:
320,192,193989,1,0,0:0:0:0:
64,192,193989,128,0,194211:0:0:0:0:
448,192,194211,1,0,0:0:0:0:
320,192,194433,1,0,0:0:0:0:
448,192,194655,1,0,0:0:0:0:
192,192,194655,128,0,194878:0:0:0:0:
320,192,194878,1,0,0:0:0:0:
448,192,195100,1,0,0:0:0:0:
320,192,195322,1,0,0:0:0:0:
448,192,195322,128,0,195544:0:0:0:0:
192,192,195544,1,0,0:0:0:0:
64,192,195766,1,0,0:0:0:0:
192,192,195989,1,0,0:0:0:0:
64,192,196211,1,0,0:0:0:0:
192,192,196433,128,0,196878:0:0:0:0:
448,192,196655,1,0,0:0:0:0:
320,192,196878,128,0,197322:0:0:0:0:
64,192,197100,1,0,0:0:0:0:
448,192,197322,1,0,0:0:0:0:
320,192,197544,1,0,0:0:0:0:
448,192,197766,1,0,0:0:0:0:
192,192,197989,1,0,0:0:0:0:
320,192,198211,1,0,0:0:0:0:
448,192,198211,1,0,0:0:0:0:
64,192,198433,1,0,0:0:0:0:
192,192,198655,1,0,0:0:0:0:
448,192,198655,1,0,0:0:0:0:
64,192,198878,1,0,0:0:0:0:
192,192,199100,1,0,0:0:0:0:
192,192,199322,1,0,0:0:0:0:
192,192,199544,1,0,0:0:0:0:
320,192,199544,1,0,0:0:0:0:
448,192,199766,1,0,0:0:0:0:
448,192,199989,1,0,0:0:0:0:
448,192,200100,1,0,0:0:0:0:
448,192,200211,1,0,0:0:0:0:
448,192,200322,1,0,0:0:0:0:
192,192,200433,1,0,0:0:0:0:
320,192,200433,1,0,0:0:0:0:
320,192,200655,1,0,0:0:0:0:
192,192,200655,1,0,0:0:0:0:
448,192,200655,1,0,0:0:0:0:
448,192,200878,128,0,202211:0:0:0:0:
320,192,200878,128,0,201766:0:0:0:0:
192,192,200878,128,0,201322:0:0:0:0:
64,192,200878,128,0,201100:0:0:0:0:
