osu file format v14

[General]
AudioFilename: audio.mp3
AudioLeadIn: 0
PreviewTime: -1
Countdown: 0
SampleSet: Normal
StackLeniency: 0.7
Mode: 0
LetterboxInBreaks: 0
WidescreenStoryboard: 0

[Editor]
DistanceSpacing: 1.5
BeatDivisor: 4
GridSize: 32
TimelineZoom: 1

[Metadata]
Title:Heartseeker
TitleUnicode:Heartseeker
Artist:Miraie & iMeiden
ArtistUnicode:Miraie & iMeiden
Creator:kjasony
Version:Heartseeker
Source:
Tags:
BeatmapID:1449678
BeatmapSetID:685022

[Difficulty]
HPDrainRate:6
CircleSize:4
OverallDifficulty:5
ApproachRate:9
SliderMultiplier:1.4
SliderTickRate:1

[Events]
//Background and Video events
0,0,"heartseeker.jpg",0,0
//Break Periods
2,119456,131406
2,179831,215406
//Storyboard Layer 0 (Background)
//Storyboard Layer 1 (Fail)
//Storyboard Layer 2 (Pass)
//Storyboard Layer 3 (Foreground)
//Storyboard Sound Samples

[TimingPoints]
381.723404255319,375,4,1,0,60,1,0
11370,-100,4,2,0,60,0,0
12100,-100,4,2,0,40,0,0
12662,-100,4,2,0,60,0,0
12850,-100,4,2,0,40,0,0
13600,-100,4,2,0,60,0,0
14350,-100,4,2,0,40,0,0
14537,-100,4,2,0,60,0,0
15100,-100,4,2,0,40,0,0
15475,-100,4,2,0,60,0,0
15850,-100,4,2,0,40,0,0
16037,-100,4,2,0,60,0,0
16412,-100,4,2,0,40,0,0
16600,-100,4,2,0,60,0,0
16787,-100,4,2,0,40,0,0
16975,-100,4,2,0,60,0,0
18100,-100,4,2,0,40,0,0
18475,-100,4,2,0,60,0,0
19225,-100,4,2,0,40,0,0
19600,-100,4,2,0,60,0,0
20350,-100,4,2,0,40,0,0
20912,-100,4,2,0,60,0,0
21287,-100,4,2,0,40,0,0
21475,-100,4,2,0,60,0,0
22037,-100,4,2,0,40,0,0
22787,-100,4,2,0,60,0,0
22975,-100,4,2,0,69,0,0
24287,-100,4,2,0,40,0,0
24662,-100,4,2,0,60,0,0
25319,-66.6666666666667,4,3,0,70,0,0
25600,-100,4,2,0,60,0,0
27006,-66.6666666666667,4,3,0,70,0,0
27194,-100,4,2,0,60,0,0
29631,-66.6666666666667,4,3,0,70,0,0
29819,-100,4,2,0,60,0,0
34694,-66.6666666666667,4,3,0,60,0,0
34975,-100,4,2,0,60,0,0
35162,-100,4,2,0,50,0,0
35350,-100,4,2,0,40,0,0
35537,-100,4,2,0,30,0,0
35725,-100,4,2,0,20,0,0
35912,-100,4,3,0,60,0,0
38819,-50,4,3,0,60,0,0
39100,-100,4,3,0,60,0,0
41162,-66.6666666666667,4,3,0,60,0,0
41912,-100,4,3,0,60,0,0
44725,-66.6666666666667,4,3,0,60,0,0
45100,-100,4,3,0,60,0,0
46412,-66.6666666666667,4,3,0,60,0,0
48100,-66.6666666666667,4,3,0,60,0,0
58319,-50,4,2,0,76,0,0
59725,-50,4,2,0,95,0,1
60944,-50,4,3,0,95,0,1
61225,-50,4,2,0,95,0,1
70600,-50,4,3,0,95,0,1
71537,-29.4117647058824,4,2,0,95,0,1
72006,-50,4,2,0,95,0,1
82225,-50,4,3,0,95,0,1
83725,-50,4,2,0,95,0,1
95162,-50,4,1,0,95,0,1
95966,-50,4,2,0,95,0,1
106600,-50,4,3,0,95,0,1
108006,-100,4,2,0,60,0,0
131912,-100,4,3,0,70,0,0
134725,-100,4,3,0,70,0,0
142412,-100,4,3,0,60,0,0
143537,-100,4,3,0,70,0,0
143725,-100,4,3,0,80,0,0
143912,-100,4,3,0,90,0,0
144100,-66.6666666666667,4,3,0,60,0,0
156006,-50,4,2,0,95,0,1
156850,-50,4,3,0,95,0,1
157225,-50,4,2,0,95,0,1
166600,-50,4,3,0,95,0,1
167631,-29.4117647058824,4,2,0,95,0,1
167912,-50,4,2,0,95,0,1
178225,-50,4,3,0,95,0,1
178225,-66.6666666666667,4,3,0,70,0,0
179725,-50,4,2,0,95,0,1
204100,-100,4,2,0,60,0,0
215912,-100,4,2,0,40,0,0

[HitObjects]
256,192,9662,12,0,11579,0:0:0:0:
47,128,12006,5,2,0:0:0:0:
107,41,12194,1,0,0:0:0:0:
209,64,12381,2,0,L|278:116,1,70,0|2,0:0|0:0,0:0:0:0:
362,67,12756,1,0,0:0:0:0:
345,241,12944,1,0,0:0:0:0:
469,118,13131,1,2,0:0:0:0:
301,171,13319,1,0,0:0:0:0:
474,149,13506,5,2,0:0:0:0:
405,255,13694,1,0,0:0:0:0:
315,309,13881,2,0,L|243:335,1,70,0|2,0:0|0:0,0:0:0:0:
144,322,14256,1,0,0:0:0:0:
47,280,14444,1,0,0:0:0:0:
120,205,14631,2,0,L|59:137,1,81.6666666666667
24,66,15006,5,2,0:0:0:0:
122,29,15194,1,0,0:0:0:0:
224,50,15381,2,0,L|324:68,1,70,0|2,0:0|0:0,0:0:0:0:
392,80,15749,1,0,0:0:0:0:
472,153,15944,1,2,0:0:0:0:
448,255,16131,2,0,L|367:311,1,70
313,223,16506,5,2,0:0:0:0:
228,285,16694,1,0,0:0:0:0:
134,236,16881,1,0,0:0:0:0:
54,166,17069,2,0,P|45:122|54:70,1,70
156,51,17444,1,2,0:0:0:0:
274,49,17631,1,2,0:0:0:0:
326,156,17819,1,2,0:0:0:0:
433,77,18006,6,0,L|428:164,1,70
419,265,18381,1,0,0:0:0:0:
308,309,18569,1,2,0:0:0:0:
200,257,18756,1,0,0:0:0:0:
98,194,18944,2,2,L|90:111,1,70,0|2,0:0|0:0,0:0:0:0:
169,34,19319,1,0,0:0:0:0:
286,18,19506,1,0,0:0:0:0:
391,73,19694,1,2,0:0:0:0:
448,176,19881,2,0,L|405:262,1,70
321,310,20256,1,2,0:0:0:0:
240,222,20444,1,0,0:0:0:0:
140,286,20631,1,2,0:0:0:0:
60,197,20819,1,0,0:0:0:0:
95,113,21006,6,0,L|180:85,1,70
266,90,21381,1,0,0:0:0:0:
367,117,21569,1,2,0:0:0:0:
448,183,21756,2,0,L|397:260,1,70
327,307,22131,1,2,0:0:0:0:
222,317,22319,1,0,0:0:0:0:
152,238,22506,1,0,0:0:0:0:
72,168,22694,2,0,L|100:88,1,70
228,57,23069,1,2,0:0:0:0:
327,94,23256,1,0,0:0:0:0:
375,144,23444,1,2,0:0:0:0:
395,196,23631,1,2,0:0:0:0:
391,237,23819,1,2,0:0:0:0:
97,96,24006,6,0,L|72:196,1,70
184,173,24381,2,0,L|195:259,1,70
303,124,24756,2,0,L|275:213,1,70
340,303,25131,1,0,0:0:0:0:
421,204,25319,2,0,L|472:161,2,52.5000020027161
333,85,25694,1,2,0:0:0:0:
194,35,25881,1,0,0:0:0:0:
71,117,26069,2,0,L|81:196,1,70
148,284,26444,1,2,0:0:0:0:
265,271,26631,1,0,0:0:0:0:
316,163,26819,1,0,0:0:0:0:
404,73,27006,6,0,L|453:46,2,52.5000020027161
272,83,27381,1,0,0:0:0:0:
42,137,27569,2,0,L|77:225,1,70
121,286,27944,2,0,L|222:266,1,70
215,157,28319,2,0,L|302:197,1,70
348,263,28694,2,0,L|411:201,1,70
420,111,29069,1,2,0:0:0:0:
351,32,29256,1,0,0:0:0:0:
249,58,29444,1,2,0:0:0:0:
141,123,29631,2,0,L|97:78,2,52.5000020027161
251,183,30006,5,0,0:0:0:0:
328,122,30194,1,0,0:0:0:0:
406,180,30381,1,2,0:0:0:0:
383,275,30569,2,0,L|319:307,1,70
216,324,30944,1,0,0:0:0:0:
113,303,31131,1,2,0:0:0:0:
147,203,31319,1,0,0:0:0:0:
45,230,31506,1,0,0:0:0:0:
60,125,31694,2,2,L|145:90,1,70,0|2,0:0|0:0,0:0:0:0:
228,115,32069,2,0,L|324:115,1,70
398,145,32444,1,0,0:0:0:0:
454,56,32631,1,2,0:0:0:0:
493,183,32819,1,0,0:0:0:0:
468,277,33006,1,2,0:0:0:0:
357,294,33194,5,0,0:0:0:0:
267,227,33381,1,0,0:0:0:0:
184,303,33569,1,2,0:0:0:0:
81,258,33756,2,0,L|-12:213,1,70
26,129,34131,1,2,0:0:0:0:
107,74,34319,1,2,0:0:0:0:
197,109,34506,1,0,0:0:0:0:
317,92,34694,2,0,L|359:51,2,52.5000020027161
432,152,35069,1,2,0:0:0:0:
428,235,35256,1,2,0:0:0:0:
376,282,35444,1,2,0:0:0:0:
324,304,35631,1,2,0:0:0:0:
281,301,35819,1,0,0:0:0:0:
54,77,36006,6,0,L|28:159,1,70
209,67,36381,2,0,L|169:147,1,70
307,88,36756,2,0,L|347:171,1,70
440,87,37131,1,0,0:0:0:0:
486,219,37319,1,0,0:0:0:0:
377,267,37506,1,2,0:0:0:0:
257,262,37694,2,0,L|222:342,1,70
112,300,38069,1,0,0:0:0:0:
128,182,38256,1,2,0:0:0:0:
18,134,38444,1,0,0:0:0:0:
109,58,38631,1,0,0:0:0:0:
222,73,38819,2,0,L|268:18,2,70
341,70,39194,5,0,0:0:0:0:
320,186,39381,1,0,0:0:0:0:
202,204,39569,1,2,0:0:0:0:
301,268,39756,2,0,L|209:297,1,70,0|2,0:0|0:0,0:0:0:0:
115,304,40131,1,0,0:0:0:0:
20,231,40319,1,2,0:0:0:0:
43,114,40506,1,0,0:0:0:0:
136,40,40694,2,0,L|223:27,1,70
315,74,41069,1,2,0:0:0:0:
344,173,41256,2,0,L|416:128,2,52.5000020027161
448,224,41631,2,0,L|512:192,2,52.5000020027161
346,286,42006,5,0,0:0:0:0:
235,329,42194,1,2,0:0:0:0:
130,272,42381,1,0,0:0:0:0:
59,175,42569,2,0,L|53:102,1,70,2|0,0:0|0:0,0:0:0:0:
145,29,42944,1,0,0:0:0:0:
207,129,43131,1,2,0:0:0:0:
304,60,43319,1,0,0:0:0:0:
418,140,43506,2,0,L|429:216,1,70
324,293,43881,1,2,0:0:0:0:
192,273,44069,1,0,0:0:0:0:
91,186,44256,2,0,L|118:88,1,70
220,45,44631,1,2,0:0:0:0:
315,117,44819,2,0,L|366:73,2,52.5000020027161
441,158,45194,5,0,0:0:0:0:
380,276,45381,1,0,0:0:0:0:
248,299,45569,1,2,0:0:0:0:
129,240,45756,2,0,L|80:159,1,70
155,62,46131,1,2,0:0:0:0:
288,71,46319,1,0,0:0:0:0:
411,100,46506,2,0,L|467:68,2,52.5000020027161
371,210,46881,2,0,L|434:185,2,52.5000020027161
286,276,47256,2,0,L|358:279,2,52.5000020027161
149,276,47631,1,0,0:0:0:0:
70,205,47819,1,0,0:0:0:0:
79,100,48006,1,4,0:0:0:0:
176,60,48194,6,0,L|214:158,1,105.000004005432,8|0,0:0|0:0,0:0:0:0:
337,103,48569,2,0,L|268:193,1,105.000004005432,8|0,0:0|0:0,0:0:0:0:
462,189,48944,2,0,L|390:164,1,52.5000020027161,10|0,0:0|0:0,0:0:0:0:
462,189,49131,2,0,L|404:294,1,105.000004005432,8|0,0:0|0:0,0:0:0:0:
283,159,49506,1,0,0:0:0:0:
144,195,49694,2,0,L|209:200,1,52.5000020027161,10|0,0:0|0:0,0:0:0:0:
144,195,49882,2,0,L|185:325,1,105.000004005432,8|0,0:0|0:0,0:0:0:0:
286,274,50256,2,0,L|366:205,1,105.000004005432
434,125,50631,1,0,0:0:0:0:
371,59,50819,2,0,L|323:38,2,52.5000020027161,8|0|8,0:0|0:0|0:0,0:0:0:0:
239,59,51194,6,0,L|163:140,1,105.000004005432,8|0,0:0|0:0,0:0:0:0:
41,105,51569,2,0,L|93:206,1,105.000004005432,8|0,0:0|0:0,0:0:0:0:
179,213,51944,2,0,L|236:190,1,52.5000020027161,10|0,0:0|0:0,0:0:0:0:
179,213,52131,2,0,L|290:322,1,105.000004005432,8|0,0:0|0:0,0:0:0:0:
399,85,52506,2,0,L|404:197,1,105.000004005432,8|0,0:0|0:0,0:0:0:0:
419,293,52881,1,0,0:0:0:0:
317,321,53069,2,0,L|203:313,1,105.000004005432,8|0,0:0|0:0,0:0:0:0:
108,332,53444,1,0,0:0:0:0:
17,280,53631,1,8,0:0:0:0:
46,178,53819,1,0,0:0:0:0:
114,97,54006,5,8,0:0:0:0:
308,143,54194,1,8,0:0:0:0:
162,203,54381,1,0,0:0:0:0:
251,72,54569,1,8,0:0:0:0:
388,148,54756,2,0,L|395:284,1,105.000004005432,0|8,0:0|0:0,0:0:0:0:
285,137,55131,1,0,0:0:0:0:
200,180,55319,2,0,L|135:172,1,52.5000020027161,10|0,0:0|0:0,0:0:0:0:
200,180,55507,2,0,L|215:293,1,105.000004005432,8|0,0:0|0:0,0:0:0:0:
318,311,55881,1,0,0:0:0:0:
403,258,56069,1,8,0:0:0:0:
424,155,56256,1,0,0:0:0:0:
387,56,56444,2,0,P|303:21|256:45,1,105.000004005432,0|8,0:0|0:0,0:0:0:0:
192,50,56819,1,0,0:0:0:0:
84,88,57006,5,0,0:0:0:0:
66,114,57100,1,0,0:0:0:0:
53,142,57194,1,0,0:0:0:0:
50,173,57287,1,0,0:0:0:0:
54,204,57381,1,0,0:0:0:0:
68,231,57475,1,0,0:0:0:0:
86,256,57569,1,0,0:0:0:0:
109,277,57662,1,0,0:0:0:0:
135,294,57756,1,0,0:0:0:0:
162,309,57850,1,0,0:0:0:0:
192,316,57944,1,0,0:0:0:0:
223,319,58038,1,0,0:0:0:0:
254,319,58131,1,0,0:0:0:0:
335,296,58319,6,2,P|411:234|408:183,1,140
252,41,58694,1,0,0:0:0:0:
98,162,58881,1,0,0:0:0:0:
320,192,59069,2,2,L|376:132,3,70
235,242,59444,2,2,L|284:297,2,70
175,113,59819,6,0,L|41:231,1,140
199,260,60194,1,0,0:0:0:0:
378,286,60381,1,8,0:0:0:0:
204,343,60569,1,0,0:0:0:0:
321,204,60756,1,0,0:0:0:0:
372,82,60944,2,0,L|415:126,3,52.5000020027161
220,57,61319,1,8,0:0:0:0:
97,90,61506,1,0,0:0:0:0:
262,155,61694,1,0,0:0:0:0:
426,135,61881,6,0,L|332:262,1,140,0|8,0:0|0:0,0:0:0:0:
245,328,62256,1,0,0:0:0:0:
43,228,62444,1,8,0:0:0:0:
204,182,62631,1,0,0:0:0:0:
75,291,62819,1,0,0:0:0:0:
30,129,63006,2,0,P|60:59|125:58,1,140,8|0,0:0|0:0,0:0:0:0:
284,67,63381,1,0,0:0:0:0:
442,124,63569,1,0,0:0:0:0:
299,212,63756,1,8,0:0:0:0:
446,253,63944,2,0,P|423:321|337:316,1,140
210,306,64319,5,8,0:0:0:0:
82,220,64506,1,0,0:0:0:0:
82,93,64694,2,0,P|108:37|214:74,1,140,8|0,0:0|0:0,0:0:0:0:
284,109,65069,1,0,0:0:0:0:
453,174,65256,1,8,0:0:0:0:
350,22,65444,1,0,0:0:0:0:
334,202,65631,1,8,0:0:0:0:
452,63,65819,1,0,0:0:0:0:
160,66,66006,6,0,P|98:129|123:192,1,140
186,245,66381,1,0,0:0:0:0:
339,313,66569,1,8,0:0:0:0:
176,353,66756,1,0,0:0:0:0:
295,234,66944,1,8,0:0:0:0:
419,136,67131,2,0,P|411:60|336:42,1,140
243,65,67506,1,0,0:0:0:0:
82,178,67694,1,8,0:0:0:0:
272,223,67881,1,0,0:0:0:0:
115,104,68069,1,8,0:0:0:0:
310,112,68256,1,0,0:0:0:0:
421,237,68444,6,0,P|424:309|365:341,1,140
245,328,68819,1,8,0:0:0:0:
120,313,69006,2,0,B|101:264|101:264|109:237|109:237|84:164,1,140
69,85,69381,1,0,0:0:0:0:
193,37,69569,1,8,0:0:0:0:
300,63,69756,2,0,L|449:101,1,140
453,187,70131,2,0,L|294:257,1,140
150,213,70506,1,0,0:0:0:0:
111,92,70694,1,8,0:0:0:0:
111,92,70787,1,8,0:0:0:0:
111,92,70881,1,8,0:0:0:0:
230,51,71069,1,0,0:0:0:0:
348,91,71256,1,0,0:0:0:0:
398,158,71444,1,0,0:0:0:0:
345,223,71631,2,0,B|320:229|246:240|192:160|288:128|352:160|333:218|268:242|186:262,1,238.00000453949,4|0,0:0|0:0,0:0:0:0:
60,193,72006,6,0,P|66:109|121:60,1,140
225,44,72381,1,8,0:0:0:0:
405,125,72569,1,0,0:0:0:0:
319,32,72756,1,8,0:0:0:0:
314,158,72944,1,0,0:0:0:0:
422,263,73131,2,0,P|360:326|283:339,1,140,0|8,0:0|0:0,0:0:0:0:
186,329,73506,1,0,0:0:0:0:
67,284,73694,1,8,0:0:0:0:
180,230,73881,1,0,0:0:0:0:
114,338,74069,1,8,0:0:0:0:
101,212,74256,1,0,0:0:0:0:
83,108,74444,2,0,P|106:59|201:55,1,140,0|8,0:0|0:0,0:0:0:0:
291,51,74819,1,0,0:0:0:0:
401,70,75006,6,0,P|427:112|452:223,1,140,0|8,0:0|0:0,0:0:0:0:
345,257,75381,1,0,0:0:0:0:
172,315,75569,1,8,0:0:0:0:
347,362,75756,1,0,0:0:0:0:
238,214,75944,1,8,0:0:0:0:
395,175,76131,2,0,P|392:105|320:83,1,140
207,65,76506,1,0,0:0:0:0:
58,170,76694,1,8,0:0:0:0:
82,32,76881,1,0,0:0:0:0:
204,166,77069,1,0,0:0:0:0:
68,271,77256,2,0,P|145:328|207:336,1,140,0|8,0:0|0:0,0:0:0:0:
365,298,77631,2,0,P|438:207|320:137,1,280,0|12,0:0|0:0,0:0:0:0:
91,102,78194,5,0,0:0:0:0:
184,257,78381,1,0,0:0:0:0:
220,78,78569,1,8,0:0:0:0:
85,199,78756,1,0,0:0:0:0:
96,297,78944,2,0,P|176:340|250:343,1,140
333,324,79319,1,8,0:0:0:0:
437,253,79506,2,0,P|458:163|383:142,1,140,0|8,0:0|0:0,0:0:0:0:
334,80,79881,1,0,0:0:0:0:
156,39,80069,1,8,0:0:0:0:
290,160,80256,1,0,0:0:0:0:
241,12,80444,1,8,0:0:0:0:
123,150,80631,1,8,0:0:0:0:
92,240,80819,2,0,B|149:266|149:266|175:261|175:261|246:298,1,140,8|0,0:0|0:0,0:0:0:0:
357,315,81194,5,0,0:0:0:0:
470,232,81381,1,0,0:0:0:0:
329,238,81569,1,8,0:0:0:0:
450,169,81756,1,0,0:0:0:0:
363,99,81944,1,8,0:0:0:0:
234,154,82131,1,0,0:0:0:0:
165,97,82319,2,0,P|134:59|85:132,1,140,0|8,0:0|0:0,0:0:0:0:
107,257,82694,1,0,0:0:0:0:
250,305,82881,2,0,L|303:350,2,70
427,253,83256,1,0,0:0:0:0:
319,71,83444,1,0,0:0:0:0:
146,189,83631,1,4,0:0:0:0:
319,47,84006,5,0,0:0:0:0:
184,86,84194,1,8,0:0:0:0:
52,132,84381,2,0,P|67:207|117:243,1,140
389,103,84944,1,8,0:0:0:0:
399,214,85131,2,0,P|368:291|292:314,1,140
208,327,85506,1,8,0:0:0:0:
63,272,85694,1,0,0:0:0:0:
208,223,85881,1,8,0:0:0:0:
98,331,86069,1,0,0:0:0:0:
123,179,86256,1,8,0:0:0:0:
261,202,86444,1,0,0:0:0:0:
191,97,86631,1,8,0:0:0:0:
302,110,86819,1,0,0:0:0:0:
386,60,87006,6,0,P|442:114|413:206,1,140
361,139,87381,1,8,0:0:0:0:
284,102,87569,2,0,P|340:156|311:248,1,140
259,181,87944,1,8,0:0:0:0:
182,146,88131,2,0,P|238:200|209:292,1,140
62,117,88506,2,0,P|33:186|89:263,1,140
114,179,88881,1,8,0:0:0:0:
160,299,89069,2,0,P|220:330|335:299,1,140,0|8,0:0|0:0,0:0:0:0:
378,247,89537,1,8,0:0:0:0:
450,111,89819,1,4,0:0:0:0:
299,47,90006,5,0,0:0:0:0:
205,75,90194,1,8,0:0:0:0:
110,101,90381,2,0,P|50:163|77:226,1,140
317,68,90944,1,8,0:0:0:0:
370,149,91131,2,0,P|404:222|367:288,1,140
285,283,91506,1,8,0:0:0:0:
130,283,91694,1,0,0:0:0:0:
263,359,91881,1,8,0:0:0:0:
191,222,92069,1,0,0:0:0:0:
168,373,92256,1,8,0:0:0:0:
270,257,92444,1,0,0:0:0:0:
224,140,92631,1,8,0:0:0:0:
350,145,92819,1,0,0:0:0:0:
407,52,93006,6,0,P|495:129|478:193,1,140
469,232,93381,1,8,0:0:0:0:
443,305,93569,2,0,P|339:337|287:318,1,140
141,316,93944,2,0,P|94:241|107:166,1,140,0|8,0:0|0:0,0:0:0:0:
138,103,94319,1,0,0:0:0:0:
315,63,94506,1,8,0:0:0:0:
199,204,94694,1,0,0:0:0:0:
225,24,94881,1,8,0:0:0:0:
304,188,95069,1,0,0:0:0:0:
403,93,95256,2,0,B|419:132|419:132|406:181,1,70
233,122,95537,2,0,B|214:153|214:153|218:204,1,70
388,251,95819,2,0,B|374:294|374:294|334:328,1,70,0|4,0:0|0:0,0:0:0:0:
264,317,96006,5,0,0:0:0:0:
137,311,96194,1,8,0:0:0:0:
69,204,96381,2,0,B|54:130|147:97|166:95,1,140
331,71,96944,1,8,0:0:0:0:
398,122,97131,2,0,P|408:236|360:254,1,140
311,301,97506,1,8,0:0:0:0:
128,305,97694,1,0,0:0:0:0:
259,179,97881,1,8,0:0:0:0:
220,357,98069,1,0,0:0:0:0:
120,205,98256,1,8,0:0:0:0:
297,248,98444,1,0,0:0:0:0:
308,122,98631,1,8,0:0:0:0:
421,177,98819,1,0,0:0:0:0:
393,52,99006,6,0,P|459:79|461:185,1,140
395,132,99381,1,8,0:0:0:0:
285,105,99569,2,0,P|223:145|248:243,1,140
284,180,99944,1,8,0:0:0:0:
361,260,100131,2,0,B|371:338|287:368|249:349,1,140
284,284,100506,1,8,0:0:0:0:
163,166,100694,2,0,P|114:195|125:285,1,140
290,314,101069,2,0,P|381:269|389:220,1,140,0|8,0:0|0:0,0:0:0:0:
426,119,101537,1,8,0:0:0:0:
315,58,101819,1,4,0:0:0:0:
197,70,102006,5,0,0:0:0:0:
90,105,102194,1,8,0:0:0:0:
35,202,102381,2,0,P|72:259|146:300,1,140
278,125,102944,1,8,0:0:0:0:
387,146,103131,2,0,P|397:251|373:283,1,140
276,316,103506,1,8,0:0:0:0:
120,252,103694,1,0,0:0:0:0:
193,370,103881,1,8,0:0:0:0:
224,231,104069,1,0,0:0:0:0:
127,332,104256,1,8,0:0:0:0:
164,196,104444,1,0,0:0:0:0:
65,143,104631,1,8,0:0:0:0:
156,77,104819,1,0,0:0:0:0:
249,81,105006,6,0,L|327:213,1,140
458,144,105381,2,0,L|354:279,1,140
226,297,105944,1,8,0:0:0:0:
88,323,106131,1,0,0:0:0:0:
126,188,106319,1,8,0:0:0:0:
262,216,106506,1,0,0:0:0:0:
321,120,106694,1,8,0:0:0:0:
321,120,106787,1,8,0:0:0:0:
321,120,106881,1,8,0:0:0:0:
415,181,107069,1,0,0:0:0:0:
372,268,107256,1,0,0:0:0:0:
292,296,107537,1,0,0:0:0:0:
208,289,107818,1,0,0:0:0:0:
167,53,108006,6,0,B|94:100|71:181,1,140
92,256,108569,1,2,0:0:0:0:
169,315,108756,1,0,0:0:0:0:
275,286,109131,2,0,L|371:162,1,140
347,77,109694,1,2,0:0:0:0:
221,33,109881,1,0,0:0:0:0:
237,165,110069,1,2,0:0:0:0:
365,198,110256,2,0,P|412:258|369:302,1,140
139,72,111006,6,0,P|105:120|78:217,1,140
104,327,111569,1,2,0:0:0:0:
230,287,111756,2,0,P|334:275|367:231,1,140
400,151,112506,1,2,0:0:0:0:
266,48,112694,1,0,0:0:0:0:
433,51,112881,1,2,0:0:0:0:
286,134,113069,1,0,0:0:0:0:
370,244,113256,1,2,0:0:0:0:
253,218,113444,1,2,0:0:0:0:
250,315,113631,1,2,0:0:0:0:
103,312,114006,6,0,P|91:252|112:172,1,140
160,92,114569,1,2,0:0:0:0:
245,45,114756,2,0,P|289:47|393:88,1,140
473,191,115506,1,2,0:0:0:0:
349,294,115694,1,0,0:0:0:0:
358,133,115881,1,2,0:0:0:0:
104,182,116257,1,2,0:0:0:0:
231,279,116444,1,0,0:0:0:0:
299,133,116631,1,2,0:0:0:0:
368,47,117006,6,0,P|448:150|448:168,1,140
438,241,117569,1,2,0:0:0:0:
366,316,117756,2,0,P|277:324|216:317,1,140
105,184,118881,1,2,0:0:0:0:
327,113,119256,1,6,0:0:0:0:
152,92,132006,5,0,0:0:0:0:
72,207,132194,2,0,L|120:283,1,70
237,323,132569,1,2,0:0:0:0:
369,278,132756,1,0,0:0:0:0:
432,152,132944,2,0,L|347:160,1,70,0|2,0:0|0:0,0:0:0:0:
244,44,133319,1,0,0:0:0:0:
140,145,133506,1,0,0:0:0:0:
280,137,133694,1,0,0:0:0:0:
186,240,133881,1,2,0:0:0:0:
216,103,134069,5,0,0:0:0:0:
353,129,134256,1,0,0:0:0:0:
443,236,134444,2,0,L|386:295,1,70,0|2,0:0|0:0,0:0:0:0:
256,311,134819,2,0,L|230:354,2,35
124,261,135194,1,0,0:0:0:0:
86,126,135381,1,0,0:0:0:0:
202,193,135569,1,2,0:0:0:0:
263,67,135756,1,0,0:0:0:0:
403,64,135944,6,0,L|440:128,1,70,0|2,0:0|0:0,0:0:0:0:
411,262,136319,1,0,0:0:0:0:
269,320,136506,1,0,0:0:0:0:
326,176,136694,1,0,0:0:0:0:
375,321,136881,1,0,0:0:0:0:
248,231,137069,1,2,0:0:0:0:
149,132,137256,2,0,L|99:103,2,35
271,63,137631,2,0,L|257:17,2,35
411,71,138006,5,0,0:0:0:0:
488,187,138194,1,0,0:0:0:0:
434,315,138381,2,0,L|355:348,1,70,0|2,0:0|0:0,0:0:0:0:
231,332,138756,1,0,0:0:0:0:
92,262,138944,1,2,0:0:0:0:
244,243,139131,1,2,0:0:0:0:
116,330,139319,1,0,0:0:0:0:
199,200,139506,1,0,0:0:0:0:
122,65,139694,5,0,0:0:0:0:
42,179,139881,1,0,0:0:0:0:
147,272,140069,2,0,L|221:309,1,70,2|0,0:0|0:0,0:0:0:0:
349,306,140444,1,2,0:0:0:0:
455,215,140631,1,0,0:0:0:0:
355,116,140819,2,0,L|368:60,2,35
233,46,141194,5,0,0:0:0:0:
134,111,141381,1,0,0:0:0:0:
148,229,141569,1,2,0:0:0:0:
253,284,141756,2,0,L|333:235,1,70
407,175,142131,1,0,0:0:0:0:
349,70,142319,1,0,0:0:0:0:
219,79,142506,2,0,L|175:29,2,35
114,172,142881,2,0,L|59:156,2,35
186,292,143256,2,0,L|126:308,2,35
326,282,143631,1,0,0:0:0:0:
388,215,143819,1,0,0:0:0:0:
368,61,144006,1,0,0:0:0:0:
114,78,144194,6,8,L|72:181,1,105.000004005432
194,108,144569,2,8,L|230:233,1,105.000004005432
351,164,144944,2,8,L|405:191,1,52.5000020027161
351,164,145131,2,0,L|316:278,1,105.000004005432,8|0,0:0|0:0,0:0:0:0:
207,186,145506,1,0,0:0:0:0:
70,191,145694,2,0,L|24:228,1,52.5000020027161,8|0,0:0|0:0,0:0:0:0:
70,191,145881,2,0,L|96:297,1,105.000004005432,8|0,0:0|0:0,0:0:0:0:
230,309,146256,2,0,L|352:265,1,105.000004005432,0|8,0:0|0:0,0:0:0:0:
380,181,146631,1,0,0:0:0:0:
349,80,146819,2,0,L|400:43,2,52.5000020027161,8|0|8,0:0|0:0|0:0,0:0:0:0:
161,55,147194,5,0,0:0:0:0:
49,149,147381,2,0,P|55:216|113:251,1,105.000004005432,8|0,0:0|0:0,0:0:0:0:
182,135,147756,2,0,P|216:177|210:235,1,105.000004005432,8|0,0:0|0:0,0:0:0:0:
78,282,148131,2,0,P|104:329|191:346,1,105.000004005432,8|0,0:0|0:0,0:0:0:0:
295,331,148506,1,8,0:0:0:0:
424,260,148694,1,0,0:0:0:0:
401,115,148881,2,0,P|369:77|302:84,1,105.000004005432,8|8,0:0|0:0,0:0:0:0:
261,211,149256,1,0,0:0:0:0:
147,116,149444,6,0,B|112:231,1,105.000004005432,8|8,0:0|0:0,0:0:0:0:
196,340,149819,1,0,0:0:0:0:
342,334,150006,2,0,P|382:286|382:231,1,105.000004005432,0|8,0:0|0:0,0:0:0:0:
242,210,150381,1,0,0:0:0:0:
375,146,150569,1,8,0:0:0:0:
274,39,150756,1,0,0:0:0:0:
142,104,150944,2,0,L|92:149,1,52.5000020027161,10|0,0:0|0:0,0:0:0:0:
142,104,151132,2,0,L|195:206,1,105.000004005432,8|0,0:0|0:0,0:0:0:0:
311,114,151506,1,0,0:0:0:0:
410,222,151694,2,0,L|479:196,1,52.5000020027161,10|0,0:0|0:0,0:0:0:0:
410,222,151881,2,0,L|383:328,1,105.000004005432,8|0,0:0|0:0,0:0:0:0:
224,270,152256,1,0,0:0:0:0:
170,110,152444,1,0,0:0:0:0:
324,175,152631,1,0,0:0:0:0:
155,178,152819,1,0,0:0:0:0:
51,196,153006,5,0,0:0:0:0:
61,220,153100,1,0,0:0:0:0:
77,240,153194,1,0,0:0:0:0:
97,255,153287,1,0,0:0:0:0:
120,267,153381,1,0,0:0:0:0:
144,276,153475,1,0,0:0:0:0:
169,283,153569,1,0,0:0:0:0:
194,287,153662,1,0,0:0:0:0:
220,289,153756,1,0,0:0:0:0:
246,290,153850,1,0,0:0:0:0:
272,287,153944,1,0,0:0:0:0:
297,279,154037,1,0,0:0:0:0:
320,266,154131,1,0,0:0:0:0:
383,225,154319,6,0,P|428:184|439:128,1,105.000004005432,0|8,0:0|0:0,0:0:0:0:
373,51,154694,1,8,0:0:0:0:
262,229,154881,1,8,0:0:0:0:
418,209,155069,2,0,L|480:255,3,52.5000020027161
199,231,155444,2,0,L|157:262,2,52.5000020027161
318,53,155819,6,0,L|375:159,1,105.000004005432,8|4,0:0|0:0,0:0:0:0:
394,322,156193,1,0,0:0:0:0:
157,301,156380,1,8,0:0:0:0:
285,192,156568,1,0,0:0:0:0:
320,356,156756,1,0,0:0:0:0:
416,217,156944,2,0,L|453:149,2,70
257,160,157319,1,8,0:0:0:0:
128,32,157506,2,0,P|64:96|64:160,1,140,0|4,0:0|0:0,0:0:0:0:
102,290,157881,1,0,0:0:0:0:
253,318,158069,1,8,0:0:0:0:
373,222,158256,5,0,0:0:0:0:
404,70,158444,2,0,P|447:88|476:180,1,140,0|8,0:0|0:0,0:0:0:0:
381,291,158819,1,8,0:0:0:0:
229,318,159006,1,0,0:0:0:0:
81,273,159194,1,0,0:0:0:0:
54,122,159381,2,0,P|80:61|169:82,1,140,0|8,0:0|0:0,0:0:0:0:
300,54,159756,1,0,0:0:0:0:
421,148,159944,6,8,B|407:218|407:218|314:261,1,140
156,290,160319,1,0,0:0:0:0:
34,195,160506,1,0,0:0:0:0:
181,148,160694,1,8,0:0:0:0:
84,267,160881,1,0,0:0:0:0:
114,115,161069,1,0,0:0:0:0:
238,205,161256,2,0,P|205:289|143:283,1,140
32,225,161631,1,8,0:0:0:0:
117,96,161819,1,12,0:0:0:0:
268,69,162006,6,0,P|364:105|363:159,1,140
385,282,162381,1,0,0:0:0:0:
238,329,162569,2,0,P|175:308|121:255,1,140,0|8,0:0|0:0,0:0:0:0:
62,115,162944,1,0,0:0:0:0:
195,39,163131,1,0,0:0:0:0:
210,192,163319,1,8,0:0:0:0:
59,159,163506,2,0,P|97:92|158:81,1,140,0|8,0:0|0:0,0:0:0:0:
306,104,163881,1,0,0:0:0:0:
426,201,164069,1,8,0:0:0:0:
272,198,164256,1,0,0:0:0:0:
384,92,164444,1,0,0:0:0:0:
266,46,164631,5,8,0:0:0:0:
146,86,164819,1,8,0:0:0:0:
91,199,165006,2,0,B|107:247|107:247|139:268|139:268|156:316,1,140,0|8,0:0|0:0,0:0:0:0:
272,365,165381,1,0,0:0:0:0:
373,290,165568,1,0,0:0:0:0:
277,196,165756,2,0,L|437:184,1,140,8|0,0:0|0:0,0:0:0:0:
430,102,166131,2,0,L|281:71,1,140,8|0,0:0|0:0,0:0:0:0:
168,52,166506,1,0,0:0:0:0:
64,124,166694,1,8,0:0:0:0:
64,124,166787,1,8,0:0:0:0:
64,124,166881,1,8,0:0:0:0:
35,247,167069,1,0,0:0:0:0:
110,347,167256,1,0,0:0:0:0:
191,250,167444,1,0,0:0:0:0:
300,295,167631,2,0,B|318:295|383:271|402:213|338:181|242:213|296:293|370:282|395:276,1,238.00000453949,4|0,0:0|0:0,0:0:0:0:
459,191,168006,6,0,P|468:101|429:69,1,140
298,47,168381,1,8,0:0:0:0:
189,135,168569,1,0,0:0:0:0:
326,113,168756,1,8,0:0:0:0:
192,68,168944,1,0,0:0:0:0:
68,85,169131,2,0,P|30:161|55:212,1,140,0|8,0:0|0:0,0:0:0:0:
148,305,169506,1,0,0:0:0:0:
279,255,169694,1,8,0:0:0:0:
152,195,169881,1,0,0:0:0:0:
227,313,170069,1,8,0:0:0:0:
266,178,170256,1,0,0:0:0:0:
295,70,170444,2,0,P|383:75|399:119,1,140,0|8,0:0|0:0,0:0:0:0:
400,233,170819,1,0,0:0:0:0:
282,308,171006,6,0,L|142:332,1,140,0|8,0:0|0:0,0:0:0:0:
34,243,171381,1,0,0:0:0:0:
114,128,171569,1,8,0:0:0:0:
168,256,171756,1,0,0:0:0:0:
57,169,171944,1,8,0:0:0:0:
83,60,172131,2,0,P|163:27|201:59,1,140
342,109,172506,1,0,0:0:0:0:
232,218,172694,1,8,0:0:0:0:
252,65,172881,1,0,0:0:0:0:
346,187,173069,1,8,0:0:0:0:
431,229,173256,2,0,P|351:324|302:323,1,140
190,334,173631,2,0,P|93:288|168:153,1,280,0|12,0:0|0:0,0:0:0:0:
277,67,174194,5,0,0:0:0:0:
434,156,174381,1,0,0:0:0:0:
431,44,174569,1,8,0:0:0:0:
320,128,174756,1,0,0:0:0:0:
119,202,174944,2,0,P|161:305|224:317,1,140,0|8,0:0|0:0,0:0:0:0:
320,321,175319,1,0,0:0:0:0:
416,224,175506,2,0,P|384:128|320:96,1,140
224,64,175881,1,0,0:0:0:0:
96,128,176069,1,0,0:0:0:0:
224,160,176256,1,0,0:0:0:0:
128,64,176444,1,0,0:0:0:0:
64,192,176631,1,0,0:0:0:0:
128,320,176819,2,0,P|224:352|288:320,1,140
384,288,177194,5,0,0:0:0:0:
448,160,177381,1,0,0:0:0:0:
320,224,177569,1,0,0:0:0:0:
448,224,177756,1,0,0:0:0:0:
384,96,177944,1,0,0:0:0:0:
256,160,178131,1,0,0:0:0:0:
192,288,178319,2,0,P|128:320|96:256,1,140,0|8,0:0|0:0,0:0:0:0:
64,128,178694,1,0,0:0:0:0:
192,64,178881,2,0,L|256:32,2,70
352,192,179256,1,2,0:0:0:0:
189,326,179444,1,2,0:0:0:0:
59,161,179631,1,6,0:0:0:0:
82,94,216006,6,0,B|44:172|44:172|165:175|165:175|62:238|170:352|246:239,1,455
241,115,217506,2,0,B|350:102|316:161|415:156|415:156|312:236|312:236|320:292|320:292|262:343,1,420
254,94,219006,2,0,B|166:11|21:60|88:244|148:298|258:354,1,490
254,94,220506,2,0,B|327:14|509:47|430:242|340:303|254:363,1,490
103,107,222006,2,0,B|179:192|179:192|146:251|143:342|215:373|320:360|355:301|336:215|266:199,1,490
231,124,223506,2,0,B|272:69|272:69|326:126|374:67|374:67|453:117|491:208|459:271|401:331,1,490
321,208,225006,2,0,B|273:292|273:292|244:245|244:245|196:290|196:290|109:278|123:159,1,385
174,103,226506,2,0,B|181:58|181:58|250:55|250:55|309:137|309:137|378:105|378:105|448:211|446:320|375:333,1,525
