osu file format v14

[General]
AudioFilename: audioshort.mp3
AudioLeadIn: 0
PreviewTime: 37855
Countdown: 0
SampleSet: Normal
StackLeniency: 0.7
Mode: 0
LetterboxInBreaks: 0
WidescreenStoryboard: 1

[Editor]
Bookmarks: 26669,37968,49257,60551,71845,83139,94438,105707,117002,139590,162178,173472,184766,196060
DistanceSpacing: 1.7
BeatDivisor: 4
GridSize: 16
TimelineZoom: 1

[Metadata]
Title:i like cute girls (short ver.)
TitleUnicode:i like cute girls (short ver.)
Artist:Miraie & cute girls doing cute things
ArtistUnicode:Miraie & cute girls doing cute things
Creator:NotABox
Version:kawaii
Source:
Tags:
BeatmapID:1627024
BeatmapSetID:773289

[Difficulty]
HPDrainRate:7
CircleSize:3.7
OverallDifficulty:8
ApproachRate:9
SliderMultiplier:1.4
SliderTickRate:1

[Events]
//Background and Video events
0,0,"ilikecutegirls.jpg",0,0
//Break Periods
//Storyboard Layer 0 (Background)
//Storyboard Layer 1 (Fail)
//Storyboard Layer 2 (Pass)
//Storyboard Layer 3 (Foreground)
//Storyboard Sound Samples

[TimingPoints]
15380,352.941176470588,4,1,0,100,1,0
37968,-83.3333333333333,4,1,0,100,0,1
38321,-52.6315789473684,4,1,0,100,0,1
38409,-83.3333333333333,4,1,0,100,0,1
38850,-52.6315789473684,4,1,0,100,0,1
40968,-83.3333333333333,4,1,0,100,0,1
42203,-52.6315789473684,4,1,0,100,0,1
43791,-83.3333333333333,4,1,0,100,0,1
45556,-52.6315789473684,4,1,0,100,0,1
45644,-83.3333333333333,4,1,0,100,0,1
46968,-52.6315789473684,4,1,0,100,0,1
47144,-83.3333333333333,4,1,0,100,0,1
49615,-52.6315789473684,4,1,0,100,0,1
49703,-83.3333333333333,4,1,0,100,0,1
50056,-52.6315789473684,4,1,0,100,0,1
50321,-83.3333333333333,4,1,0,100,0,1
50674,-52.6315789473684,4,1,0,100,0,1
52262,-83.3333333333333,4,1,0,100,0,1
53497,-52.6315789473684,4,1,0,100,0,1
55085,-83.3333333333333,4,1,0,100,0,1
56850,-52.6315789473684,4,1,0,100,0,1
56938,-83.3333333333333,4,1,0,100,0,1
58262,-52.6315789473684,4,1,0,100,0,1
58350,-83.3333333333333,4,1,0,100,0,1
60556,-125,4,1,0,100,0,0
70438,-200,4,1,0,100,0,0
71850,-83.3333333333333,4,1,0,100,0,1
72203,-52.6315789473684,4,1,0,100,0,1
72291,-83.3333333333333,4,1,0,100,0,1
72732,-52.6315789473684,4,1,0,100,0,1
72821,-83.3333333333333,4,1,0,100,0,1
73262,-52.6315789473684,4,1,0,100,0,1
74850,-83.3333333333333,4,1,0,100,0,1
75203,-83.3333333333333,4,1,0,100,0,1
76791,-52.6315789473684,4,1,0,100,0,1
76879,-83.3333333333333,4,1,0,100,0,1
77497,-52.6315789473684,4,1,0,100,0,1
77674,-83.3333333333333,4,1,0,100,0,1
79350,-52.6315789473684,4,1,0,100,0,1
80144,-83.3333333333333,4,1,0,100,0,1
80850,-52.6315789473684,4,1,0,100,0,1
81027,-83.3333333333333,4,1,0,100,0,1
83497,-52.6315789473684,4,1,0,100,0,1
83585,-83.3333333333333,4,1,0,100,0,1
84027,-52.6315789473684,4,1,0,100,0,1
86144,-83.3333333333333,4,1,0,100,0,1
88791,-52.6315789473684,4,1,0,100,0,1
88968,-83.3333333333333,4,1,0,100,0,1
90732,-52.6315789473684,4,1,0,100,0,1
90909,-83.3333333333333,4,1,0,100,0,1
92144,-52.6315789473684,4,1,0,100,0,1
92321,-83.3333333333333,4,1,0,100,0,1
94438,-83.3333333333333,4,1,0,100,0,0

[HitObjects]
152,106,15380,5,4,0:0:0:0:
217,188,15732,1,8,0:0:0:0:
380,135,15909,1,0,0:0:0:0:
305,217,16261,1,0,0:0:0:0:
252,54,16438,1,8,0:0:0:0:
122,282,16791,5,4,0:0:0:0:
271,230,17056,2,0,L|251:200,1,35,0|8,0:0|0:0,0:0:0:0:
163,67,17321,1,0,0:0:0:0:
110,230,17497,5,4,0:0:0:0:
202,101,17762,2,0,L|162:87,1,35,0|8,0:0|0:0,0:0:0:0:
51,54,18027,1,0,0:0:0:0:
104,217,18203,5,4,0:0:0:0:
165,145,18556,1,8,0:0:0:0:
218,308,18733,1,0,0:0:0:0:
61,234,19085,1,0,0:0:0:0:
224,181,19262,1,8,0:0:0:0:
107,330,19615,6,0,P|167:315|196:291,1,70,4|0,0:0|0:0,0:0:0:0:
374,264,19968,2,8,P|319:233|298:203,1,70
157,198,20321,2,0,P|188:144|192:107,1,70
332,102,20674,2,8,P|300:48|296:11,1,70,8|0,0:0|0:0,0:0:0:0:
443,70,21027,5,4,0:0:0:0:
454,158,21380,1,8,0:0:0:0:
291,105,21557,1,0,0:0:0:0:
257,34,21909,1,0,0:0:0:0:
204,197,22086,1,8,0:0:0:0:
257,316,22438,5,4,0:0:0:0:
406,264,22703,2,0,L|377:238,1,35,0|8,0:0|0:0,0:0:0:0:
286,160,22968,1,0,0:0:0:0:
131,300,23144,5,4,0:0:0:0:
282,233,23409,2,0,L|239:218,1,35,0|8,0:0|0:0,0:0:0:0:
102,174,23674,1,0,0:0:0:0:
273,307,23850,5,4,0:0:0:0:
365,222,24203,1,8,0:0:0:0:
202,169,24380,1,0,0:0:0:0:
241,248,24732,1,0,0:0:0:0:
294,85,24909,1,8,0:0:0:0:
335,170,25262,6,0,P|254:170|206:126,1,140,4|0,0:0|0:0,0:0:0:0:
87,69,25968,2,0,L|136:204,1,140
279,282,26674,5,4,0:0:0:0:
439,181,26850,2,0,P|447:144|434:107,2,70,0|8|0,0:0|0:0|0:0,0:0:0:0:
178,265,27556,1,0,0:0:0:0:
132,160,27732,2,0,P|102:135|57:113,2,70,8|0|0,0:0|0:0|0:0,0:0:0:0:
231,283,28350,6,0,L|257:247,1,35,0|8,0:0|0:0,0:0:0:0:
338,117,28615,1,0,0:0:0:0:
175,170,28792,5,0,0:0:0:0:
379,220,29056,2,0,L|354:188,1,35,0|8,0:0|0:0,0:0:0:0:
263,74,29321,1,0,0:0:0:0:
236,284,29497,6,0,P|218:208|152:187,1,140,4|8,0:0|0:0,0:0:0:0:
31,308,30027,2,0,L|166:258,1,140
300,214,30556,1,8,0:0:0:0:
161,164,30732,1,0,0:0:0:0:
312,314,30909,5,0,0:0:0:0:
312,314,31085,1,0,0:0:0:0:
188,231,31262,5,8,0:0:0:0:
188,231,31438,1,8,0:0:0:0:
359,135,31615,5,0,0:0:0:0:
359,135,31791,1,0,0:0:0:0:
150,65,31968,5,8,0:0:0:0:
150,65,32144,1,0,0:0:0:0:
150,154,32321,6,4,P|206:136|231:109,1,70,4|0,0:0|0:0,0:0:0:0:
290,41,32674,1,8,0:0:0:0:
95,97,32850,2,0,P|77:126|72:161,1,70
137,285,33203,1,0,0:0:0:0:
253,147,33380,1,8,0:0:0:0:
121,201,33556,1,0,0:0:0:0:
340,210,33732,5,4,0:0:0:0:
288,61,33997,2,0,L|252:94,1,35,0|8,0:0|0:0,0:0:0:0:
180,177,34262,1,0,0:0:0:0:
227,291,34438,5,4,0:0:0:0:
316,130,34703,2,0,L|278:142,1,35,0|8,0:0|0:0,0:0:0:0:
122,183,34968,1,0,0:0:0:0:
81,318,35144,6,0,L|146:293,1,70,4|0,0:0|0:0,0:0:0:0:
265,216,35497,1,8,0:0:0:0:
265,216,35674,2,0,P|238:180|232:140,1,70
233,66,36027,2,0,L|298:36,2,70,0|8|0,0:0|0:0|0:0,0:0:0:0:
97,127,36556,5,0,0:0:0:0:
59,240,36733,1,4,0:0:0:0:
183,136,36909,5,0,0:0:0:0:
174,281,37086,1,4,0:0:0:0:
275,107,37262,5,4,0:0:0:0:
309,274,37439,1,4,0:0:0:0:
364,53,37615,5,4,0:0:0:0:
451,227,37792,1,4,0:0:0:0:
222,63,37968,6,0,P|252:123|324:152,1,125.999996154785,4|0,1:0|1:0,1:0:0:0:
397,137,38321,2,0,L|365:221,1,66.4999982242585,0|0,1:0|1:0,1:0:0:0:
270,258,38497,2,0,L|301:173,1,83.9999974365235,0|0,1:0|1:0,1:0:0:0:
349,43,38850,2,0,P|390:61|417:98,1,66.4999982242585,0|0,1:0|1:0,1:0:0:0:
427,105,39027,1,0,1:0:0:0:
427,105,39203,1,0,1:0:0:0:
305,236,39380,6,0,P|272:300|286:231,1,199.499994672775,0|0,1:0|1:0,1:0:0:0:
411,72,39909,1,0,1:0:0:0:
241,111,40085,2,0,P|169:101|239:91,1,199.499994672775,0|0,1:0|1:0,1:0:0:0:
412,157,40615,1,0,1:0:0:0:
330,318,40791,6,0,P|275:303|240:227,1,132.999996448517,0|0,1:0|1:0,1:0:0:0:
313,79,41144,1,0,1:0:0:0:
408,124,41321,2,0,P|359:164|321:177,1,83.9999974365235,0|0,1:0|1:0,1:0:0:0:
200,177,41674,1,0,1:0:0:0:
298,69,41850,1,0,1:0:0:0:
343,206,42027,1,0,1:0:0:0:
214,286,42203,6,0,L|183:166,1,66.4999982242585,0|0,1:0|1:0,1:0:0:0:
171,64,42379,1,0,1:0:0:0:
117,177,42556,2,0,L|130:230,4,33.2499991121292,0|0|0|0|0,1:0|1:0|1:0|1:0|1:0,1:0:0:0:
346,266,42909,2,0,P|398:193|385:152,1,132.999996448517,0|0,1:0|1:0,1:0:0:0:
284,41,43262,1,0,1:0:0:0:
375,187,43438,1,0,1:0:0:0:
454,75,43615,6,0,L|272:121,1,132.999996448517,0|0,1:0|1:0,1:0:0:0:
184,172,43968,1,0,1:0:0:0:
376,191,44144,2,0,P|387:132|367:91,1,83.9999974365235,0|0,1:0|1:0,1:0:0:0:
219,66,44497,1,0,1:0:0:0:
228,211,44674,1,0,1:0:0:0:
316,47,44850,1,0,1:0:0:0:
108,133,45027,6,0,P|169:197|203:195,1,125.999996154785,0|0,1:0|1:0,1:0:0:0:
193,114,45556,2,0,L|268:128,1,66.4999982242585,0|0,1:0|1:0,1:0:0:0:
365,144,45732,2,0,P|405:230|388:260,2,125.999996154785,0|0|0,1:0|1:0|1:0,1:0:0:0:
307,50,46438,6,0,L|270:247,1,167.999994873047,0|0,1:0|1:0,1:0:0:0:
226,301,46968,2,0,P|180:318|214:291,1,132.999996448517,0|0,1:0|1:0,1:0:0:0:
328,224,47321,1,0,0:0:0:0:
283,335,47497,1,0,0:0:0:0:
173,227,47674,1,0,0:0:0:0:
402,152,47850,5,0,0:0:0:0:
255,201,48027,1,0,0:0:0:0:
386,278,48203,5,0,0:0:0:0:
327,102,48380,1,0,0:0:0:0:
214,218,48556,5,0,0:0:0:0:
426,147,48733,1,0,0:0:0:0:
272,318,48909,5,0,0:0:0:0:
356,64,49086,1,0,0:0:0:0:
148,175,49262,6,0,L|289:201,1,125.999996154785
376,143,49615,2,0,L|310:130,1,66.4999982242585
168,146,49791,2,0,P|157:233|199:264,1,125.999996154785
271,280,50144,2,0,L|336:292,2,66.4999982242585
175,218,50497,1,0,0:0:0:0:
323,136,50674,6,0,P|389:160|319:162,2,199.499994672775
182,125,51379,2,0,P|140:67|158:136,2,199.499994672775
266,225,52085,6,0,L|331:237,2,66.4999982242585
143,146,52438,1,0,0:0:0:0:
327,61,52615,2,0,L|307:167,1,83.9999974365235
314,326,52968,1,0,0:0:0:0:
168,158,53144,1,0,0:0:0:0:
400,164,53321,1,0,0:0:0:0:
229,291,53497,6,0,L|243:216,1,66.4999982242585
231,102,53674,1,0,0:0:0:0:
131,286,53850,1,0,0:0:0:0:
294,164,54027,1,0,0:0:0:0:
98,122,54203,2,0,P|83:75|116:111,1,132.999996448517
114,283,54556,1,0,0:0:0:0:
207,70,54732,1,0,0:0:0:0:
349,192,54909,6,0,L|208:217,1,132.999996448517
59,146,55262,1,0,0:0:0:0:
243,93,55438,2,0,P|238:151|206:190,1,83.9999974365235
54,195,55791,2,0,P|85:121|173:119,1,167.999994873047
283,193,56321,5,0,0:0:0:0:
170,307,56585,1,0,0:0:0:0:
69,148,56850,2,0,L|176:128,1,66.4999982242585
312,106,57027,5,0,0:0:0:0:
310,296,57291,1,0,0:0:0:0:
186,209,57556,1,0,0:0:0:0:
322,74,57732,6,0,P|413:147|405:212,1,167.999994873047
316,338,58262,2,0,L|296:230,1,66.4999982242585
310,120,58438,1,0,0:0:0:0:
184,198,58615,2,0,L|101:213,2,83.9999974365235
370,98,59144,5,0,0:0:0:0:
404,265,59321,1,0,0:0:0:0:
278,127,59497,5,0,0:0:0:0:
269,272,59674,1,0,0:0:0:0:
192,118,59850,5,0,0:0:0:0:
154,231,60027,1,0,0:0:0:0:
278,127,60203,5,0,0:0:0:0:
269,272,60380,1,0,0:0:0:0:
370,98,60556,5,0,0:0:0:0:
189,227,60909,2,0,L|268:212,1,56
444,223,61438,2,0,P|440:253|420:286,2,56
390,83,61968,5,0,0:0:0:0:
344,200,62232,1,0,0:0:0:0:
213,166,62497,1,0,0:0:0:0:
326,83,62674,5,0,0:0:0:0:
263,261,62939,1,0,0:0:0:0:
210,118,63203,1,0,0:0:0:0:
396,167,63379,5,0,0:0:0:0:
225,288,63732,2,0,L|235:233,1,56
361,102,64262,2,0,L|352:46,2,56
397,318,64791,5,0,0:0:0:0:
420,238,64968,1,0,0:0:0:0:
259,276,65144,5,0,0:0:0:0:
320,194,65321,1,0,0:0:0:0:
151,206,65497,5,0,0:0:0:0:
250,140,65674,1,0,0:0:0:0:
68,87,65850,5,0,0:0:0:0:
200,55,66027,1,0,0:0:0:0:
39,156,66203,5,0,0:0:0:0:
224,226,66556,1,0,0:0:0:0:
151,97,66732,1,0,0:0:0:0:
137,258,67085,2,0,P|109:256|82:246,2,56
313,267,67615,5,0,0:0:0:0:
245,141,67879,1,0,0:0:0:0:
367,214,68144,1,0,0:0:0:0:
228,287,68321,5,0,0:0:0:0:
332,118,68585,1,0,0:0:0:0:
347,300,68850,1,0,0:0:0:0:
176,272,69027,5,0,0:0:0:0:
238,89,69379,1,0,0:0:0:0:
362,192,69556,1,0,0:0:0:0:
263,186,69909,1,0,0:0:0:0:
405,123,70085,2,0,P|416:161|403:198,1,56
292,277,70438,6,0,B|274:261|274:261|243:277|205:268|190:251,1,105
242,193,71144,5,0,0:0:0:0:
389,65,71409,5,0,0:0:0:0:
423,257,71674,5,0,0:0:0:0:
229,195,71850,6,0,P|257:157|358:160,1,125.999996154785
440,117,72203,2,0,L|425:199,1,66.4999982242585
461,257,72379,2,0,P|412:264|372:238,1,83.9999974365235
282,226,72732,2,0,P|307:179|302:148,1,66.4999982242585
292,79,72909,1,0,0:0:0:0:
145,191,73085,1,0,0:0:0:0:
255,297,73262,6,0,P|325:298|260:274,2,199.499994672775
213,163,73967,2,0,P|253:104|238:174,2,199.499994672775
110,115,74674,6,0,P|112:174|167:251,1,132.999996448517
182,257,74938,6,0,P|234:227|279:226,1,83.9999974365235
298,233,75203,6,0,L|382:249,1,83.9999974365235
416,245,75468,6,0,P|438:188|378:132,1,125.999996154785
240,74,75909,1,0,0:0:0:0:
124,204,76085,6,0,P|169:223|218:220,1,83.9999974365235
420,264,76438,2,0,P|398:209|360:182,1,83.9999974365235
197,79,76791,2,0,L|181:163,1,66.4999982242585
175,235,76968,1,0,0:0:0:0:
394,209,77144,2,0,P|381:147|334:118,1,83.9999974365235
290,51,77497,6,0,L|264:192,1,132.999996448517
221,290,77850,1,0,0:0:0:0:
134,217,78027,2,0,P|174:182|220:178,1,83.9999974365235
419,209,78379,1,0,0:0:0:0:
381,84,78556,1,0,0:0:0:0:
293,269,78732,1,0,0:0:0:0:
221,133,78909,6,0,P|147:149|113:217,1,125.999996154785
187,277,79438,2,0,L|199:209,1,66.4999982242585
275,104,79615,2,0,P|332:63|294:122,2,199.499994672775
295,216,80321,6,0,P|267:267|205:299,1,125.999996154785
167,305,80674,1,0,0:0:0:0:
129,178,80850,2,0,P|83:163|118:198,1,132.999996448517
288,230,81203,1,0,0:0:0:0:
245,113,81379,1,0,0:0:0:0:
186,290,81556,1,0,0:0:0:0:
360,265,81732,5,0,0:0:0:0:
360,265,81909,1,0,0:0:0:0:
298,141,82085,5,0,0:0:0:0:
298,141,82262,1,0,0:0:0:0:
223,311,82438,5,0,0:0:0:0:
223,311,82615,1,0,0:0:0:0:
438,198,82791,5,0,0:0:0:0:
438,198,82968,1,0,0:0:0:0:
245,86,83144,6,0,P|201:134|194:169,1,83.9999974365235
138,246,83497,2,0,L|206:234,1,66.4999982242585
308,234,83674,2,0,P|277:178|285:120,1,83.9999974365235
336,40,84027,2,0,L|361:186,1,132.999996448517
298,317,84379,1,0,0:0:0:0:
208,174,84556,6,0,P|137:175|203:199,1,199.499994672775
303,42,85085,1,0,0:0:0:0:
408,144,85262,2,0,P|477:158|417:119,1,199.499994672775
244,243,85791,1,0,0:0:0:0:
245,76,85968,6,0,P|316:87|352:200,1,199.499994672775
337,236,86321,1,0,0:0:0:0:
153,176,86497,2,0,L|293:151,1,125.999996154785
310,147,86850,1,0,0:0:0:0:
449,193,87027,1,0,0:0:0:0:
296,278,87203,1,0,0:0:0:0:
341,83,87379,5,0,0:0:0:0:
399,259,87556,1,0,0:0:0:0:
426,114,87732,5,0,0:0:0:0:
214,184,87909,1,0,0:0:0:0:
372,176,88085,5,0,0:0:0:0:
117,91,88262,1,0,0:0:0:0:
165,310,88438,5,0,0:0:0:0:
249,51,88615,1,0,0:0:0:0:
398,225,88791,6,0,L|257:200,1,132.999996448517
264,59,89144,1,0,0:0:0:0:
359,249,89320,2,0,P|315:248|266:213,1,83.9999974365235
196,97,89674,1,0,0:0:0:0:
303,48,89850,2,0,L|288:130,2,83.9999974365235
441,189,90467,5,0,0:0:0:0:
253,279,90732,2,0,P|213:295|146:299,2,66.4999982242585
388,128,91173,1,0,0:0:0:0:
189,186,91438,1,0,0:0:0:0:
343,317,91615,6,0,L|368:176,1,125.999996154785
383,89,91968,1,0,0:0:0:0:
175,195,92144,2,0,P|126:187|172:171,1,132.999996448517
320,247,92497,1,0,0:0:0:0:
412,155,92674,2,0,P|362:131|332:131,1,83.9999974365235
97,127,93027,5,0,0:0:0:0:
59,240,93204,1,0,0:0:0:0:
183,136,93380,5,0,0:0:0:0:
174,281,93557,1,0,0:0:0:0:
275,107,93733,5,0,0:0:0:0:
309,274,93910,1,0,0:0:0:0:
364,53,94086,5,0,0:0:0:0:
451,227,94263,1,0,0:0:0:0:
205,86,94438,5,0,0:0:0:0:
205,86,95144,1,0,0:0:0:0:
205,86,95850,1,0,0:0:0:0:
