osu file format v14

[General]
AudioFilename: audio.mp3
AudioLeadIn: 0
PreviewTime: 18000
Countdown: 0
SampleSet: Normal
StackLeniency: 0.7
Mode: 3
LetterboxInBreaks: 0
SpecialStyle: 0
WidescreenStoryboard: 1

[Editor]
Bookmarks: 19200,38400,57600,76800,96000,115200,134400,153600,172800
DistanceSpacing: 0.8
BeatDivisor: 4
GridSize: 4
TimelineZoom: 2.6

[Metadata]
Title:Tsundere Love
TitleUnicode:Tsundere Love
Artist:Miraie & ayiko
ArtistUnicode:Miraie & ayiko
Creator:Meeoro
Version:Insane
Source:Miraie
Tags:Miraie, Tsundere Love
BeatmapID:2750090
BeatmapSetID:828713

[Difficulty]
HPDrainRate:8
CircleSize:4
OverallDifficulty:8
ApproachRate:5
SliderMultiplier:1.4
SliderTickRate:1

[Events]
//Background and Video events
0,0,"Tsundere_Love.jpg",0,0
//Break Periods
//Storyboard Layer 0 (Background)
//Storyboard Layer 1 (Fail)
//Storyboard Layer 2 (Pass)
//Storyboard Layer 3 (Foreground)
//Storyboard Layer 4 (Overlay)
//Storyboard Sound Samples

[TimingPoints]
9620,300,4,1,0,80,1,0

[HitObjects]
448,192,9620,5,0,0:0:0:0:
320,192,9620,1,0,0:0:0:0:
64,192,9920,1,0,0:0:0:0:
192,192,9920,1,0,0:0:0:0:
320,192,10220,1,0,0:0:0:0:
448,192,10220,1,0,0:0:0:0:
64,192,10520,1,0,0:0:0:0:
192,192,10520,1,0,0:0:0:0:
192,192,10820,1,0,0:0:0:0:
320,192,10820,1,0,0:0:0:0:
64,192,11120,1,0,0:0:0:0:
192,192,11120,1,0,0:0:0:0:
320,192,11420,1,0,0:0:0:0:
448,192,11420,1,0,0:0:0:0:
192,192,11720,1,0,0:0:0:0:
320,192,11720,1,0,0:0:0:0:
64,192,12020,1,0,0:0:0:0:
192,192,12020,1,0,0:0:0:0:
320,192,12320,1,0,0:0:0:0:
448,192,12320,1,0,0:0:0:0:
64,192,12620,1,0,0:0:0:0:
192,192,12620,1,0,0:0:0:0:
320,192,12920,1,0,0:0:0:0:
448,192,12920,1,0,0:0:0:0:
64,192,13220,1,0,0:0:0:0:
448,192,13220,1,0,0:0:0:0:
192,192,13520,1,0,0:0:0:0:
320,192,13520,1,0,0:0:0:0:
448,192,13820,1,0,0:0:0:0:
320,192,13820,1,0,0:0:0:0:
192,192,14120,1,0,0:0:0:0:
64,192,14120,1,0,0:0:0:0:
192,192,14420,1,0,0:0:0:0:
320,192,14420,1,0,0:0:0:0:
192,192,14720,1,0,0:0:0:0:
320,192,14720,1,0,0:0:0:0:
64,192,15020,1,0,0:0:0:0:
448,192,15020,1,0,0:0:0:0:
64,192,15320,1,0,0:0:0:0:
448,192,15320,1,0,0:0:0:0:
192,192,15620,1,0,0:0:0:0:
320,192,15620,1,0,0:0:0:0:
192,192,15920,1,0,0:0:0:0:
320,192,15920,1,0,0:0:0:0:
64,192,16220,1,0,0:0:0:0:
448,192,16220,1,0,0:0:0:0:
64,192,16520,1,0,0:0:0:0:
448,192,16520,1,0,0:0:0:0:
64,192,16820,1,0,0:0:0:0:
192,192,16820,1,0,0:0:0:0:
320,192,16895,1,0,0:0:0:0:
448,192,16895,1,0,0:0:0:0:
64,192,16970,1,0,0:0:0:0:
192,192,16970,1,0,0:0:0:0:
320,192,17045,1,0,0:0:0:0:
448,192,17045,1,0,0:0:0:0:
192,192,17120,1,0,0:0:0:0:
64,192,17120,1,0,0:0:0:0:
320,192,17195,1,0,0:0:0:0:
448,192,17195,1,0,0:0:0:0:
192,192,17270,1,0,0:0:0:0:
64,192,17270,1,0,0:0:0:0:
448,192,17345,1,0,0:0:0:0:
320,192,17345,1,0,0:0:0:0:
192,192,17420,1,0,0:0:0:0:
64,192,17420,1,0,0:0:0:0:
448,192,17495,1,0,0:0:0:0:
320,192,17495,1,0,0:0:0:0:
192,192,17570,1,0,0:0:0:0:
64,192,17570,1,0,0:0:0:0:
448,192,17645,1,0,0:0:0:0:
320,192,17645,1,0,0:0:0:0:
192,192,17720,1,0,0:0:0:0:
64,192,17720,1,0,0:0:0:0:
320,192,17795,1,0,0:0:0:0:
448,192,17795,1,0,0:0:0:0:
192,192,17870,1,0,0:0:0:0:
64,192,17870,1,0,0:0:0:0:
320,192,17945,1,0,0:0:0:0:
448,192,17945,1,0,0:0:0:0:
64,192,19220,1,0,0:0:0:0:
192,192,19220,1,0,0:0:0:0:
320,192,19220,1,0,0:0:0:0:
320,192,19370,1,0,0:0:0:0:
448,192,19370,1,0,0:0:0:0:
192,192,19520,1,0,0:0:0:0:
320,192,19520,1,0,0:0:0:0:
64,192,19670,1,0,0:0:0:0:
192,192,19670,1,0,0:0:0:0:
64,192,19820,1,0,0:0:0:0:
320,192,19820,1,0,0:0:0:0:
448,192,19820,1,0,0:0:0:0:
192,192,19970,1,0,0:0:0:0:
320,192,19970,1,0,0:0:0:0:
192,192,20120,1,0,0:0:0:0:
64,192,20120,1,0,0:0:0:0:
320,192,20270,1,0,0:0:0:0:
448,192,20270,1,0,0:0:0:0:
64,192,20270,1,0,0:0:0:0:
192,192,20420,1,0,0:0:0:0:
320,192,20420,1,0,0:0:0:0:
448,192,20420,1,0,0:0:0:0:
64,192,20570,1,0,0:0:0:0:
192,192,20570,1,0,0:0:0:0:
192,192,20720,1,0,0:0:0:0:
448,192,20720,1,0,0:0:0:0:
320,192,20870,1,0,0:0:0:0:
448,192,20870,1,0,0:0:0:0:
192,192,21020,1,0,0:0:0:0:
320,192,21020,1,0,0:0:0:0:
448,192,21020,1,0,0:0:0:0:
64,192,21170,1,0,0:0:0:0:
192,192,21170,1,0,0:0:0:0:
64,192,21320,1,0,0:0:0:0:
448,192,21320,1,0,0:0:0:0:
320,192,21320,1,0,0:0:0:0:
64,192,21470,1,0,0:0:0:0:
320,192,21470,1,0,0:0:0:0:
64,192,21620,1,0,0:0:0:0:
192,192,21620,1,0,0:0:0:0:
320,192,21620,1,0,0:0:0:0:
192,192,21770,1,0,0:0:0:0:
320,192,21770,1,0,0:0:0:0:
64,192,21920,1,0,0:0:0:0:
192,192,21920,1,0,0:0:0:0:
448,192,21920,1,0,0:0:0:0:
320,192,22070,1,0,0:0:0:0:
448,192,22070,1,0,0:0:0:0:
192,192,22220,1,0,0:0:0:0:
320,192,22220,1,0,0:0:0:0:
448,192,22220,1,0,0:0:0:0:
64,192,22370,1,0,0:0:0:0:
320,192,22370,1,0,0:0:0:0:
448,192,22370,1,0,0:0:0:0:
192,192,22520,1,0,0:0:0:0:
64,192,22520,1,0,0:0:0:0:
448,192,22670,1,0,0:0:0:0:
64,192,22670,1,0,0:0:0:0:
64,192,22820,1,0,0:0:0:0:
192,192,22820,1,0,0:0:0:0:
448,192,22820,1,0,0:0:0:0:
192,192,22970,1,0,0:0:0:0:
320,192,22970,1,0,0:0:0:0:
64,192,23120,1,0,0:0:0:0:
192,192,23120,1,0,0:0:0:0:
64,192,23270,1,0,0:0:0:0:
320,192,23270,1,0,0:0:0:0:
448,192,23420,1,0,0:0:0:0:
64,192,23420,1,0,0:0:0:0:
320,192,23420,1,0,0:0:0:0:
192,192,23495,1,0,0:0:0:0:
64,192,23570,1,0,0:0:0:0:
192,192,23645,1,0,0:0:0:0:
320,192,23720,1,0,0:0:0:0:
192,192,23795,1,0,0:0:0:0:
320,192,23870,1,0,0:0:0:0:
448,192,23945,1,0,0:0:0:0:
320,192,24020,1,0,0:0:0:0:
192,192,24020,1,0,0:0:0:0:
64,192,24020,1,0,0:0:0:0:
192,192,24170,1,0,0:0:0:0:
448,192,24170,1,0,0:0:0:0:
320,192,24320,1,0,0:0:0:0:
448,192,24320,1,0,0:0:0:0:
448,192,24470,1,0,0:0:0:0:
192,192,24470,1,0,0:0:0:0:
192,192,24620,1,0,0:0:0:0:
448,192,24620,1,0,0:0:0:0:
64,192,24620,1,0,0:0:0:0:
192,192,24770,1,0,0:0:0:0:
64,192,24770,1,0,0:0:0:0:
192,192,24920,1,0,0:0:0:0:
448,192,24920,1,0,0:0:0:0:
64,192,25070,1,0,0:0:0:0:
320,192,25070,1,0,0:0:0:0:
192,192,25220,1,0,0:0:0:0:
320,192,25220,1,0,0:0:0:0:
448,192,25220,1,0,0:0:0:0:
320,192,25370,1,0,0:0:0:0:
448,192,25370,1,0,0:0:0:0:
64,192,25520,1,0,0:0:0:0:
192,192,25520,1,0,0:0:0:0:
448,192,25670,1,0,0:0:0:0:
192,192,25670,1,0,0:0:0:0:
64,192,25820,1,0,0:0:0:0:
192,192,25820,1,0,0:0:0:0:
320,192,25820,1,0,0:0:0:0:
320,192,25970,1,0,0:0:0:0:
192,192,25970,1,0,0:0:0:0:
192,192,26120,1,0,0:0:0:0:
448,192,26120,1,0,0:0:0:0:
192,192,26270,1,0,0:0:0:0:
448,192,26270,1,0,0:0:0:0:
64,192,26420,128,0,26720:0:0:0:0:
320,192,26420,1,0,0:0:0:0:
448,192,26420,1,0,0:0:0:0:
192,192,26720,128,0,26870:0:0:0:0:
320,192,26870,128,0,27020:0:0:0:0:
448,192,27020,128,0,27320:0:0:0:0:
64,192,27020,1,0,0:0:0:0:
320,192,27320,128,0,27470:0:0:0:0:
192,192,27470,128,0,27620:0:0:0:0:
320,192,27620,128,0,27920:0:0:0:0:
448,192,27620,1,0,0:0:0:0:
64,192,27920,128,0,28070:0:0:0:0:
448,192,28070,128,0,28220:0:0:0:0:
192,192,28220,128,0,28520:0:0:0:0:
64,192,28520,128,0,28820:0:0:0:0:
320,192,28595,1,0,0:0:0:0:
448,192,28670,1,0,0:0:0:0:
320,192,28820,1,0,0:0:0:0:
448,192,28820,1,0,0:0:0:0:
192,192,28970,1,0,0:0:0:0:
320,192,28970,1,0,0:0:0:0:
64,192,29120,1,0,0:0:0:0:
192,192,29120,1,0,0:0:0:0:
320,192,29270,1,0,0:0:0:0:
448,192,29270,1,0,0:0:0:0:
64,192,29420,1,0,0:0:0:0:
192,192,29420,1,0,0:0:0:0:
320,192,29420,1,0,0:0:0:0:
192,192,29570,1,0,0:0:0:0:
448,192,29570,1,0,0:0:0:0:
64,192,29720,1,0,0:0:0:0:
320,192,29720,1,0,0:0:0:0:
192,192,29870,1,0,0:0:0:0:
320,192,29870,1,0,0:0:0:0:
448,192,29870,1,0,0:0:0:0:
64,192,30020,1,0,0:0:0:0:
320,192,30020,1,0,0:0:0:0:
448,192,30020,1,0,0:0:0:0:
192,192,30170,1,0,0:0:0:0:
448,192,30170,1,0,0:0:0:0:
64,192,30320,1,0,0:0:0:0:
192,192,30320,1,0,0:0:0:0:
192,192,30470,1,0,0:0:0:0:
320,192,30470,1,0,0:0:0:0:
448,192,30620,1,0,0:0:0:0:
320,192,30620,1,0,0:0:0:0:
192,192,30620,1,0,0:0:0:0:
64,192,30770,1,0,0:0:0:0:
192,192,30770,1,0,0:0:0:0:
448,192,30920,1,0,0:0:0:0:
192,192,30920,1,0,0:0:0:0:
64,192,31070,1,0,0:0:0:0:
448,192,31070,1,0,0:0:0:0:
64,192,31220,1,0,0:0:0:0:
192,192,31220,1,0,0:0:0:0:
448,192,31220,1,0,0:0:0:0:
64,192,31370,1,0,0:0:0:0:
448,192,31370,1,0,0:0:0:0:
320,192,31520,1,0,0:0:0:0:
192,192,31520,1,0,0:0:0:0:
448,192,31670,1,0,0:0:0:0:
192,192,31670,1,0,0:0:0:0:
192,192,31820,1,0,0:0:0:0:
320,192,31820,1,0,0:0:0:0:
64,192,31820,1,0,0:0:0:0:
192,192,31970,1,0,0:0:0:0:
320,192,31970,1,0,0:0:0:0:
64,192,32120,1,0,0:0:0:0:
448,192,32120,1,0,0:0:0:0:
192,192,32270,1,0,0:0:0:0:
320,192,32270,1,0,0:0:0:0:
192,192,32420,1,0,0:0:0:0:
320,192,32420,1,0,0:0:0:0:
448,192,32420,1,0,0:0:0:0:
192,192,32570,1,0,0:0:0:0:
64,192,32570,1,0,0:0:0:0:
320,192,32720,1,0,0:0:0:0:
448,192,32720,1,0,0:0:0:0:
192,192,32870,1,0,0:0:0:0:
448,192,32870,1,0,0:0:0:0:
64,192,33020,1,0,0:0:0:0:
320,192,33020,1,0,0:0:0:0:
448,192,33020,1,0,0:0:0:0:
192,192,33095,1,0,0:0:0:0:
448,192,33170,1,0,0:0:0:0:
320,192,33245,1,0,0:0:0:0:
192,192,33320,1,0,0:0:0:0:
320,192,33395,1,0,0:0:0:0:
192,192,33470,1,0,0:0:0:0:
64,192,33545,1,0,0:0:0:0:
192,192,33620,1,0,0:0:0:0:
320,192,33620,1,0,0:0:0:0:
448,192,33620,1,0,0:0:0:0:
64,192,33770,1,0,0:0:0:0:
192,192,33770,1,0,0:0:0:0:
320,192,33920,1,0,0:0:0:0:
448,192,33920,1,0,0:0:0:0:
448,192,34070,1,0,0:0:0:0:
192,192,34070,1,0,0:0:0:0:
448,192,34220,1,0,0:0:0:0:
64,192,34220,1,0,0:0:0:0:
192,192,34220,1,0,0:0:0:0:
64,192,34370,1,0,0:0:0:0:
320,192,34370,1,0,0:0:0:0:
64,192,34520,1,0,0:0:0:0:
192,192,34520,1,0,0:0:0:0:
320,192,34670,1,0,0:0:0:0:
192,192,34670,1,0,0:0:0:0:
448,192,34670,1,0,0:0:0:0:
64,192,34820,1,0,0:0:0:0:
320,192,34820,1,0,0:0:0:0:
448,192,34820,1,0,0:0:0:0:
64,192,34970,1,0,0:0:0:0:
192,192,34970,1,0,0:0:0:0:
448,192,35120,1,0,0:0:0:0:
320,192,35120,1,0,0:0:0:0:
64,192,35270,1,0,0:0:0:0:
320,192,35270,1,0,0:0:0:0:
448,192,35420,1,0,0:0:0:0:
64,192,35420,1,0,0:0:0:0:
192,192,35420,1,0,0:0:0:0:
448,192,35570,1,0,0:0:0:0:
320,192,35570,1,0,0:0:0:0:
64,192,35720,1,0,0:0:0:0:
192,192,35720,1,0,0:0:0:0:
192,192,35870,1,0,0:0:0:0:
448,192,35870,1,0,0:0:0:0:
448,192,36020,128,0,36320:0:0:0:0:
192,192,36020,1,0,0:0:0:0:
64,192,36020,1,0,0:0:0:0:
320,192,36320,128,0,36470:0:0:0:0:
192,192,36470,128,0,36620:0:0:0:0:
64,192,36620,128,0,36920:0:0:0:0:
448,192,36620,1,0,0:0:0:0:
192,192,36920,128,0,37070:0:0:0:0:
320,192,37070,128,0,37220:0:0:0:0:
192,192,37220,128,0,37520:0:0:0:0:
64,192,37220,1,0,0:0:0:0:
448,192,37520,128,0,37670:0:0:0:0:
64,192,37670,128,0,37820:0:0:0:0:
320,192,37820,128,0,38120:0:0:0:0:
64,192,38120,1,0,0:0:0:0:
448,192,38120,128,0,38420:0:0:0:0:
192,192,38195,1,0,0:0:0:0:
192,192,38420,1,0,0:0:0:0:
64,192,38420,1,0,0:0:0:0:
192,192,38570,1,0,0:0:0:0:
320,192,38720,1,0,0:0:0:0:
64,192,38795,1,0,0:0:0:0:
448,192,38945,128,0,39095:0:0:0:0:
64,192,39020,1,0,0:0:0:0:
320,192,39095,1,0,0:0:0:0:
192,192,39170,1,0,0:0:0:0:
192,192,39245,1,0,0:0:0:0:
320,192,39395,1,0,0:0:0:0:
448,192,39470,1,0,0:0:0:0:
64,192,39470,128,0,39620:0:0:0:0:
448,192,39620,1,0,0:0:0:0:
320,192,39620,1,0,0:0:0:0:
64,192,39770,1,0,0:0:0:0:
448,192,39920,1,0,0:0:0:0:
320,192,39995,1,0,0:0:0:0:
64,192,40145,128,0,40295:0:0:0:0:
320,192,40295,1,0,0:0:0:0:
448,192,40445,1,0,0:0:0:0:
64,192,40520,1,0,0:0:0:0:
192,192,40520,1,0,0:0:0:0:
320,192,40595,1,0,0:0:0:0:
64,192,40670,128,0,40820:0:0:0:0:
192,192,40820,1,0,0:0:0:0:
320,192,40820,1,0,0:0:0:0:
448,192,40970,1,0,0:0:0:0:
192,192,41120,1,0,0:0:0:0:
320,192,41120,1,0,0:0:0:0:
64,192,41270,1,0,0:0:0:0:
448,192,41345,128,0,41495:0:0:0:0:
320,192,41495,1,0,0:0:0:0:
192,192,41570,1,0,0:0:0:0:
64,192,41570,1,0,0:0:0:0:
192,192,41720,1,0,0:0:0:0:
320,192,41870,1,0,0:0:0:0:
192,192,41945,1,0,0:0:0:0:
64,192,42020,1,0,0:0:0:0:
448,192,42020,1,0,0:0:0:0:
320,192,42170,1,0,0:0:0:0:
192,192,42320,1,0,0:0:0:0:
448,192,42470,1,0,0:0:0:0:
64,192,42545,1,0,0:0:0:0:
448,192,42695,1,0,0:0:0:0:
320,192,42770,1,0,0:0:0:0:
192,192,42845,1,0,0:0:0:0:
448,192,42920,1,0,0:0:0:0:
320,192,42995,1,0,0:0:0:0:
192,192,43070,1,0,0:0:0:0:
64,192,43145,1,0,0:0:0:0:
448,192,43220,1,0,0:0:0:0:
192,192,43220,1,0,0:0:0:0:
64,192,43370,1,0,0:0:0:0:
320,192,43520,1,0,0:0:0:0:
64,192,43595,1,0,0:0:0:0:
448,192,43745,128,0,43895:0:0:0:0:
320,192,43895,1,0,0:0:0:0:
192,192,43970,1,0,0:0:0:0:
192,192,44045,1,0,0:0:0:0:
320,192,44195,1,0,0:0:0:0:
64,192,44270,128,0,44420:0:0:0:0:
448,192,44420,1,0,0:0:0:0:
320,192,44420,1,0,0:0:0:0:
320,192,44570,1,0,0:0:0:0:
192,192,44720,1,0,0:0:0:0:
320,192,44795,1,0,0:0:0:0:
448,192,44945,128,0,45095:0:0:0:0:
64,192,45020,1,0,0:0:0:0:
320,192,45020,1,0,0:0:0:0:
192,192,45095,1,0,0:0:0:0:
320,192,45245,1,0,0:0:0:0:
448,192,45395,1,0,0:0:0:0:
320,192,45470,1,0,0:0:0:0:
192,192,45545,1,0,0:0:0:0:
64,192,45620,128,0,45920:0:0:0:0:
320,192,45620,1,0,0:0:0:0:
448,192,45620,1,0,0:0:0:0:
192,192,45920,128,0,46070:0:0:0:0:
320,192,46070,128,0,46220:0:0:0:0:
448,192,46220,128,0,46520:0:0:0:0:
64,192,46220,1,0,0:0:0:0:
320,192,46520,128,0,46670:0:0:0:0:
192,192,46670,128,0,46820:0:0:0:0:
320,192,46820,128,0,47120:0:0:0:0:
448,192,46820,1,0,0:0:0:0:
64,192,47120,128,0,47270:0:0:0:0:
448,192,47270,128,0,47420:0:0:0:0:
192,192,47420,128,0,47720:0:0:0:0:
64,192,47720,128,0,48020:0:0:0:0:
320,192,47795,1,0,0:0:0:0:
448,192,47870,1,0,0:0:0:0:
320,192,48020,1,0,0:0:0:0:
448,192,48020,1,0,0:0:0:0:
320,192,48170,1,0,0:0:0:0:
192,192,48320,1,0,0:0:0:0:
448,192,48395,1,0,0:0:0:0:
64,192,48545,128,0,48695:0:0:0:0:
448,192,48620,1,0,0:0:0:0:
192,192,48695,1,0,0:0:0:0:
320,192,48770,1,0,0:0:0:0:
320,192,48845,1,0,0:0:0:0:
192,192,48995,1,0,0:0:0:0:
64,192,49070,1,0,0:0:0:0:
448,192,49070,128,0,49220:0:0:0:0:
64,192,49220,1,0,0:0:0:0:
192,192,49220,1,0,0:0:0:0:
448,192,49370,1,0,0:0:0:0:
64,192,49520,1,0,0:0:0:0:
192,192,49595,1,0,0:0:0:0:
448,192,49745,128,0,49895:0:0:0:0:
192,192,49895,1,0,0:0:0:0:
64,192,50045,1,0,0:0:0:0:
192,192,50195,1,0,0:0:0:0:
320,192,50270,1,0,0:0:0:0:
448,192,50345,1,0,0:0:0:0:
320,192,50420,1,0,0:0:0:0:
192,192,50420,1,0,0:0:0:0:
64,192,50570,1,0,0:0:0:0:
320,192,50720,1,0,0:0:0:0:
448,192,50870,1,0,0:0:0:0:
320,192,50945,128,0,51095:0:0:0:0:
192,192,51095,1,0,0:0:0:0:
448,192,51170,1,0,0:0:0:0:
320,192,51320,1,0,0:0:0:0:
64,192,51395,1,0,0:0:0:0:
192,192,51470,1,0,0:0:0:0:
320,192,51545,1,0,0:0:0:0:
448,192,51620,1,0,0:0:0:0:
64,192,51620,1,0,0:0:0:0:
192,192,51770,1,0,0:0:0:0:
320,192,51920,1,0,0:0:0:0:
64,192,52070,1,0,0:0:0:0:
448,192,52145,128,0,52295:0:0:0:0:
64,192,52295,1,0,0:0:0:0:
192,192,52370,1,0,0:0:0:0:
320,192,52445,1,0,0:0:0:0:
64,192,52520,1,0,0:0:0:0:
192,192,52595,1,0,0:0:0:0:
320,192,52670,1,0,0:0:0:0:
448,192,52745,1,0,0:0:0:0:
64,192,52820,1,0,0:0:0:0:
320,192,52820,1,0,0:0:0:0:
448,192,52970,1,0,0:0:0:0:
192,192,53120,1,0,0:0:0:0:
448,192,53195,1,0,0:0:0:0:
64,192,53345,128,0,53495:0:0:0:0:
192,192,53495,1,0,0:0:0:0:
320,192,53570,1,0,0:0:0:0:
320,192,53645,1,0,0:0:0:0:
192,192,53795,1,0,0:0:0:0:
64,192,53870,1,0,0:0:0:0:
448,192,53870,128,0,54020:0:0:0:0:
64,192,54020,1,0,0:0:0:0:
192,192,54020,1,0,0:0:0:0:
192,192,54170,1,0,0:0:0:0:
320,192,54320,1,0,0:0:0:0:
192,192,54395,1,0,0:0:0:0:
64,192,54545,128,0,54695:0:0:0:0:
320,192,54695,1,0,0:0:0:0:
192,192,54845,1,0,0:0:0:0:
64,192,54995,1,0,0:0:0:0:
192,192,55070,1,0,0:0:0:0:
320,192,55145,1,0,0:0:0:0:
448,192,55220,128,0,55520:0:0:0:0:
192,192,55220,1,0,0:0:0:0:
64,192,55220,1,0,0:0:0:0:
320,192,55520,128,0,55670:0:0:0:0:
192,192,55670,128,0,55820:0:0:0:0:
64,192,55820,128,0,56120:0:0:0:0:
448,192,55820,1,0,0:0:0:0:
192,192,56120,128,0,56270:0:0:0:0:
320,192,56270,128,0,56420:0:0:0:0:
192,192,56420,128,0,56720:0:0:0:0:
64,192,56420,1,0,0:0:0:0:
448,192,56720,128,0,56870:0:0:0:0:
64,192,56870,128,0,57020:0:0:0:0:
320,192,57020,128,0,57320:0:0:0:0:
448,192,57320,128,0,57620:0:0:0:0:
192,192,57395,1,0,0:0:0:0:
64,192,57470,1,0,0:0:0:0:
192,192,57620,1,0,0:0:0:0:
64,192,57620,1,0,0:0:0:0:
320,192,58070,1,0,0:0:0:0:
192,192,58370,1,0,0:0:0:0:
192,192,58520,1,0,0:0:0:0:
64,192,58820,1,0,0:0:0:0:
320,192,58820,1,0,0:0:0:0:
448,192,58820,1,0,0:0:0:0:
448,192,59120,1,0,0:0:0:0:
192,192,59420,1,0,0:0:0:0:
320,192,59720,1,0,0:0:0:0:
192,192,60020,1,0,0:0:0:0:
320,192,60020,1,0,0:0:0:0:
448,192,60020,1,0,0:0:0:0:
64,192,60470,1,0,0:0:0:0:
320,192,60770,1,0,0:0:0:0:
64,192,60920,1,0,0:0:0:0:
64,192,61220,1,0,0:0:0:0:
192,192,61220,1,0,0:0:0:0:
320,192,61220,1,0,0:0:0:0:
192,192,61520,1,0,0:0:0:0:
448,192,61820,1,0,0:0:0:0:
64,192,62120,1,0,0:0:0:0:
192,192,62120,1,0,0:0:0:0:
192,192,62420,1,0,0:0:0:0:
448,192,62420,1,0,0:0:0:0:
64,192,62420,1,0,0:0:0:0:
192,192,62720,1,0,0:0:0:0:
192,192,62870,1,0,0:0:0:0:
320,192,63170,1,0,0:0:0:0:
448,192,63320,1,0,0:0:0:0:
64,192,63620,1,0,0:0:0:0:
448,192,63620,1,0,0:0:0:0:
320,192,63620,1,0,0:0:0:0:
192,192,63845,1,0,0:0:0:0:
448,192,63920,1,0,0:0:0:0:
192,192,64220,128,0,64520:0:0:0:0:
320,192,64220,128,0,64520:0:0:0:0:
448,192,64820,128,0,65120:0:0:0:0:
192,192,64820,1,0,0:0:0:0:
64,192,64820,1,0,0:0:0:0:
192,192,65120,128,0,65420:0:0:0:0:
64,192,65420,1,0,0:0:0:0:
320,192,65420,128,0,65720:0:0:0:0:
64,192,65720,128,0,66020:0:0:0:0:
320,192,66020,1,0,0:0:0:0:
192,192,66020,128,0,66320:0:0:0:0:
448,192,66320,128,0,66620:0:0:0:0:
320,192,66620,1,0,0:0:0:0:
64,192,66620,128,0,66920:0:0:0:0:
320,192,66920,128,0,67220:0:0:0:0:
192,192,67220,1,0,0:0:0:0:
64,192,67220,1,0,0:0:0:0:
192,192,67670,1,0,0:0:0:0:
64,192,67820,1,0,0:0:0:0:
448,192,67820,1,0,0:0:0:0:
320,192,67970,1,0,0:0:0:0:
320,192,68120,1,0,0:0:0:0:
448,192,68420,1,0,0:0:0:0:
192,192,68420,1,0,0:0:0:0:
64,192,68420,1,0,0:0:0:0:
64,192,68720,1,0,0:0:0:0:
320,192,69020,1,0,0:0:0:0:
64,192,69020,1,0,0:0:0:0:
192,192,69320,1,0,0:0:0:0:
320,192,69620,1,0,0:0:0:0:
192,192,69620,1,0,0:0:0:0:
64,192,69620,1,0,0:0:0:0:
448,192,70070,1,0,0:0:0:0:
192,192,70220,1,0,0:0:0:0:
320,192,70220,1,0,0:0:0:0:
192,192,70370,1,0,0:0:0:0:
448,192,70520,1,0,0:0:0:0:
448,192,70820,1,0,0:0:0:0:
320,192,70820,1,0,0:0:0:0:
192,192,70820,1,0,0:0:0:0:
320,192,71120,1,0,0:0:0:0:
64,192,71420,1,0,0:0:0:0:
448,192,71420,1,0,0:0:0:0:
320,192,71720,1,0,0:0:0:0:
320,192,72020,1,0,0:0:0:0:
64,192,72020,1,0,0:0:0:0:
448,192,72020,1,0,0:0:0:0:
320,192,72320,1,0,0:0:0:0:
320,192,72470,1,0,0:0:0:0:
448,192,72620,1,0,0:0:0:0:
64,192,72620,1,0,0:0:0:0:
192,192,72770,1,0,0:0:0:0:
64,192,72920,1,0,0:0:0:0:
448,192,73220,1,0,0:0:0:0:
64,192,73220,1,0,0:0:0:0:
192,192,73220,1,0,0:0:0:0:
320,192,73445,1,0,0:0:0:0:
64,192,73520,1,0,0:0:0:0:
320,192,73820,128,0,74120:0:0:0:0:
192,192,73820,128,0,74120:0:0:0:0:
448,192,73820,1,0,0:0:0:0:
64,192,74420,128,0,74720:0:0:0:0:
320,192,74420,1,0,0:0:0:0:
448,192,74420,1,0,0:0:0:0:
320,192,74720,128,0,75020:0:0:0:0:
448,192,75020,1,0,0:0:0:0:
192,192,75020,128,0,75320:0:0:0:0:
448,192,75320,128,0,75620:0:0:0:0:
192,192,75620,1,0,0:0:0:0:
320,192,75620,128,0,75920:0:0:0:0:
64,192,75920,128,0,76220:0:0:0:0:
192,192,76220,1,0,0:0:0:0:
448,192,76220,128,0,76520:0:0:0:0:
320,192,76520,128,0,76820:0:0:0:0:
192,192,76820,1,0,0:0:0:0:
64,192,77120,1,0,0:0:0:0:
320,192,77420,1,0,0:0:0:0:
192,192,77570,1,0,0:0:0:0:
64,192,77720,1,0,0:0:0:0:
320,192,77870,1,0,0:0:0:0:
64,192,78020,1,0,0:0:0:0:
448,192,78170,1,0,0:0:0:0:
320,192,78320,1,0,0:0:0:0:
448,192,78620,5,0,0:0:0:0:
320,192,78620,1,0,0:0:0:0:
192,192,78695,1,0,0:0:0:0:
64,192,78695,1,0,0:0:0:0:
448,192,78770,1,0,0:0:0:0:
320,192,78770,1,0,0:0:0:0:
64,192,78845,1,0,0:0:0:0:
192,192,78845,1,0,0:0:0:0:
448,192,78920,1,0,0:0:0:0:
320,192,78920,1,0,0:0:0:0:
64,192,78995,1,0,0:0:0:0:
192,192,78995,1,0,0:0:0:0:
448,192,79070,1,0,0:0:0:0:
320,192,79070,1,0,0:0:0:0:
64,192,79145,1,0,0:0:0:0:
192,192,79145,1,0,0:0:0:0:
320,192,79220,1,0,0:0:0:0:
448,192,79220,1,0,0:0:0:0:
448,192,79520,1,0,0:0:0:0:
64,192,79820,1,0,0:0:0:0:
192,192,79970,1,0,0:0:0:0:
320,192,80120,1,0,0:0:0:0:
448,192,80270,1,0,0:0:0:0:
192,192,80420,1,0,0:0:0:0:
64,192,80570,1,0,0:0:0:0:
448,192,80570,1,0,0:0:0:0:
64,192,80720,1,0,0:0:0:0:
448,192,80720,1,0,0:0:0:0:
64,192,81020,1,0,0:0:0:0:
192,192,81020,1,0,0:0:0:0:
320,192,81095,1,0,0:0:0:0:
448,192,81095,1,0,0:0:0:0:
64,192,81170,1,0,0:0:0:0:
192,192,81170,1,0,0:0:0:0:
320,192,81245,1,0,0:0:0:0:
448,192,81245,1,0,0:0:0:0:
64,192,81320,1,0,0:0:0:0:
192,192,81320,1,0,0:0:0:0:
320,192,81395,1,0,0:0:0:0:
448,192,81395,1,0,0:0:0:0:
64,192,81470,1,0,0:0:0:0:
192,192,81470,1,0,0:0:0:0:
320,192,81545,1,0,0:0:0:0:
448,192,81545,1,0,0:0:0:0:
64,192,81620,1,0,0:0:0:0:
192,192,81620,1,0,0:0:0:0:
448,192,81920,1,0,0:0:0:0:
320,192,82070,1,0,0:0:0:0:
192,192,82220,1,0,0:0:0:0:
448,192,82370,1,0,0:0:0:0:
320,192,82670,1,0,0:0:0:0:
320,192,82820,1,0,0:0:0:0:
192,192,83120,1,0,0:0:0:0:
320,192,83120,1,0,0:0:0:0:
64,192,83270,1,0,0:0:0:0:
448,192,83420,1,0,0:0:0:0:
320,192,83420,1,0,0:0:0:0:
192,192,83495,1,0,0:0:0:0:
64,192,83495,1,0,0:0:0:0:
320,192,83570,1,0,0:0:0:0:
448,192,83570,1,0,0:0:0:0:
64,192,83645,1,0,0:0:0:0:
192,192,83645,1,0,0:0:0:0:
448,192,83720,1,0,0:0:0:0:
320,192,83720,1,0,0:0:0:0:
192,192,83795,1,0,0:0:0:0:
64,192,83795,1,0,0:0:0:0:
320,192,83870,1,0,0:0:0:0:
448,192,83870,1,0,0:0:0:0:
64,192,83945,1,0,0:0:0:0:
192,192,83945,1,0,0:0:0:0:
320,192,84020,128,0,84320:0:0:0:0:
448,192,84020,128,0,84320:0:0:0:0:
192,192,84320,1,0,0:0:0:0:
64,192,84320,1,0,0:0:0:0:
192,192,84470,1,0,0:0:0:0:
64,192,84470,1,0,0:0:0:0:
64,192,84620,128,0,84920:0:0:0:0:
192,192,84620,128,0,84920:0:0:0:0:
448,192,84920,1,0,0:0:0:0:
320,192,84920,1,0,0:0:0:0:
448,192,85070,1,0,0:0:0:0:
320,192,85070,1,0,0:0:0:0:
448,192,85220,128,0,85520:0:0:0:0:
64,192,85220,128,0,85520:0:0:0:0:
192,192,85520,1,0,0:0:0:0:
320,192,85520,1,0,0:0:0:0:
192,192,85670,1,0,0:0:0:0:
320,192,85670,1,0,0:0:0:0:
320,192,85820,128,0,86120:0:0:0:0:
192,192,85820,128,0,86120:0:0:0:0:
64,192,86120,1,0,0:0:0:0:
448,192,86120,1,0,0:0:0:0:
64,192,86270,1,0,0:0:0:0:
448,192,86270,1,0,0:0:0:0:
320,192,86420,5,0,0:0:0:0:
192,192,86420,1,0,0:0:0:0:
448,192,86720,1,0,0:0:0:0:
192,192,87020,1,0,0:0:0:0:
320,192,87170,1,0,0:0:0:0:
448,192,87320,1,0,0:0:0:0:
192,192,87470,1,0,0:0:0:0:
448,192,87620,1,0,0:0:0:0:
64,192,87770,1,0,0:0:0:0:
192,192,87920,1,0,0:0:0:0:
64,192,88220,5,0,0:0:0:0:
192,192,88220,1,0,0:0:0:0:
320,192,88295,1,0,0:0:0:0:
448,192,88295,1,0,0:0:0:0:
64,192,88370,1,0,0:0:0:0:
192,192,88370,1,0,0:0:0:0:
448,192,88445,1,0,0:0:0:0:
320,192,88445,1,0,0:0:0:0:
64,192,88520,1,0,0:0:0:0:
192,192,88520,1,0,0:0:0:0:
448,192,88595,1,0,0:0:0:0:
320,192,88595,1,0,0:0:0:0:
64,192,88670,1,0,0:0:0:0:
192,192,88670,1,0,0:0:0:0:
448,192,88745,1,0,0:0:0:0:
320,192,88745,1,0,0:0:0:0:
192,192,88820,1,0,0:0:0:0:
64,192,88820,1,0,0:0:0:0:
64,192,89120,1,0,0:0:0:0:
448,192,89420,1,0,0:0:0:0:
320,192,89570,1,0,0:0:0:0:
192,192,89720,1,0,0:0:0:0:
64,192,89870,1,0,0:0:0:0:
320,192,90020,1,0,0:0:0:0:
448,192,90170,1,0,0:0:0:0:
64,192,90170,1,0,0:0:0:0:
448,192,90320,1,0,0:0:0:0:
64,192,90320,1,0,0:0:0:0:
448,192,90620,1,0,0:0:0:0:
320,192,90620,1,0,0:0:0:0:
192,192,90695,1,0,0:0:0:0:
64,192,90695,1,0,0:0:0:0:
448,192,90770,1,0,0:0:0:0:
320,192,90770,1,0,0:0:0:0:
192,192,90845,1,0,0:0:0:0:
64,192,90845,1,0,0:0:0:0:
448,192,90920,1,0,0:0:0:0:
320,192,90920,1,0,0:0:0:0:
192,192,90995,1,0,0:0:0:0:
64,192,90995,1,0,0:0:0:0:
448,192,91070,1,0,0:0:0:0:
320,192,91070,1,0,0:0:0:0:
192,192,91145,1,0,0:0:0:0:
64,192,91145,1,0,0:0:0:0:
448,192,91220,1,0,0:0:0:0:
320,192,91220,1,0,0:0:0:0:
64,192,91520,1,0,0:0:0:0:
192,192,91670,1,0,0:0:0:0:
320,192,91820,1,0,0:0:0:0:
64,192,91970,1,0,0:0:0:0:
192,192,92270,1,0,0:0:0:0:
192,192,92420,1,0,0:0:0:0:
320,192,92720,1,0,0:0:0:0:
192,192,92720,1,0,0:0:0:0:
448,192,92870,1,0,0:0:0:0:
64,192,93020,1,0,0:0:0:0:
192,192,93020,1,0,0:0:0:0:
320,192,93095,1,0,0:0:0:0:
448,192,93095,1,0,0:0:0:0:
192,192,93170,1,0,0:0:0:0:
64,192,93170,1,0,0:0:0:0:
448,192,93245,1,0,0:0:0:0:
320,192,93245,1,0,0:0:0:0:
64,192,93320,1,0,0:0:0:0:
192,192,93320,1,0,0:0:0:0:
320,192,93395,1,0,0:0:0:0:
448,192,93395,1,0,0:0:0:0:
192,192,93470,1,0,0:0:0:0:
64,192,93470,1,0,0:0:0:0:
448,192,93545,1,0,0:0:0:0:
320,192,93545,1,0,0:0:0:0:
192,192,93620,128,0,93920:0:0:0:0:
64,192,93620,128,0,93920:0:0:0:0:
448,192,93920,1,0,0:0:0:0:
320,192,93920,1,0,0:0:0:0:
448,192,94070,1,0,0:0:0:0:
320,192,94070,1,0,0:0:0:0:
320,192,94220,128,0,94520:0:0:0:0:
448,192,94220,128,0,94520:0:0:0:0:
192,192,94520,1,0,0:0:0:0:
64,192,94520,1,0,0:0:0:0:
192,192,94670,1,0,0:0:0:0:
64,192,94670,1,0,0:0:0:0:
64,192,94820,128,0,95120:0:0:0:0:
448,192,94820,128,0,95120:0:0:0:0:
320,192,95120,1,0,0:0:0:0:
192,192,95120,1,0,0:0:0:0:
320,192,95270,1,0,0:0:0:0:
192,192,95270,1,0,0:0:0:0:
192,192,95420,128,0,95720:0:0:0:0:
320,192,95420,128,0,95720:0:0:0:0:
448,192,95720,1,0,0:0:0:0:
64,192,95720,1,0,0:0:0:0:
448,192,95870,1,0,0:0:0:0:
64,192,95870,1,0,0:0:0:0:
192,192,96020,1,0,0:0:0:0:
64,192,96020,1,0,0:0:0:0:
448,192,96020,128,0,96620:0:0:0:0:
64,192,96320,1,0,0:0:0:0:
192,192,96620,1,0,0:0:0:0:
320,192,96770,1,0,0:0:0:0:
448,192,96920,1,0,0:0:0:0:
64,192,97070,1,0,0:0:0:0:
448,192,97220,1,0,0:0:0:0:
64,192,97220,1,0,0:0:0:0:
448,192,97520,1,0,0:0:0:0:
64,192,97820,1,0,0:0:0:0:
192,192,98120,1,0,0:0:0:0:
448,192,98420,1,0,0:0:0:0:
192,192,98420,1,0,0:0:0:0:
64,192,98420,128,0,99020:0:0:0:0:
320,192,98720,1,0,0:0:0:0:
192,192,99020,1,0,0:0:0:0:
448,192,99170,1,0,0:0:0:0:
192,192,99320,1,0,0:0:0:0:
320,192,99470,1,0,0:0:0:0:
64,192,99620,1,0,0:0:0:0:
448,192,99920,1,0,0:0:0:0:
320,192,100220,128,0,100820:0:0:0:0:
448,192,100520,1,0,0:0:0:0:
64,192,100520,1,0,0:0:0:0:
192,192,100820,1,0,0:0:0:0:
64,192,100820,128,0,101420:0:0:0:0:
320,192,101120,1,0,0:0:0:0:
448,192,101270,1,0,0:0:0:0:
192,192,101420,1,0,0:0:0:0:
320,192,101420,1,0,0:0:0:0:
192,192,101570,1,0,0:0:0:0:
320,192,101720,1,0,0:0:0:0:
448,192,101870,1,0,0:0:0:0:
448,192,102020,1,0,0:0:0:0:
448,192,102320,1,0,0:0:0:0:
64,192,102620,1,0,0:0:0:0:
192,192,102620,128,0,103220:0:0:0:0:
448,192,102920,1,0,0:0:0:0:
64,192,103220,1,0,0:0:0:0:
448,192,103220,1,0,0:0:0:0:
320,192,103220,128,0,103820:0:0:0:0:
448,192,103520,1,0,0:0:0:0:
64,192,103670,1,0,0:0:0:0:
192,192,103820,1,0,0:0:0:0:
320,192,103970,1,0,0:0:0:0:
448,192,104120,1,0,0:0:0:0:
320,192,104270,1,0,0:0:0:0:
192,192,104420,1,0,0:0:0:0:
64,192,104420,128,0,104870:0:0:0:0:
448,192,104720,1,0,0:0:0:0:
192,192,104870,1,0,0:0:0:0:
448,192,105020,128,0,105620:0:0:0:0:
320,192,105020,1,0,0:0:0:0:
64,192,105170,1,0,0:0:0:0:
192,192,105320,1,0,0:0:0:0:
192,192,105620,1,0,0:0:0:0:
320,192,105620,1,0,0:0:0:0:
64,192,105620,128,0,106820:0:0:0:0:
192,192,105770,1,0,0:0:0:0:
320,192,105920,1,0,0:0:0:0:
448,192,106070,1,0,0:0:0:0:
320,192,106220,1,0,0:0:0:0:
448,192,106220,1,0,0:0:0:0:
192,192,106370,1,0,0:0:0:0:
448,192,106520,1,0,0:0:0:0:
192,192,106670,1,0,0:0:0:0:
320,192,106820,128,0,108020:0:0:0:0:
448,192,106820,1,0,0:0:0:0:
192,192,106970,1,0,0:0:0:0:
64,192,107120,1,0,0:0:0:0:
448,192,107270,1,0,0:0:0:0:
192,192,107420,1,0,0:0:0:0:
64,192,107420,1,0,0:0:0:0:
192,192,107570,1,0,0:0:0:0:
448,192,107720,1,0,0:0:0:0:
192,192,107870,1,0,0:0:0:0:
448,192,108020,128,0,109220:0:0:0:0:
64,192,108020,1,0,0:0:0:0:
192,192,108170,1,0,0:0:0:0:
320,192,108320,1,0,0:0:0:0:
64,192,108470,1,0,0:0:0:0:
192,192,108620,1,0,0:0:0:0:
320,192,108620,1,0,0:0:0:0:
64,192,108770,1,0,0:0:0:0:
320,192,108920,1,0,0:0:0:0:
64,192,109070,1,0,0:0:0:0:
192,192,109220,128,0,110420:0:0:0:0:
320,192,109220,1,0,0:0:0:0:
320,192,109370,1,0,0:0:0:0:
448,192,109520,1,0,0:0:0:0:
64,192,109670,1,0,0:0:0:0:
320,192,109820,1,0,0:0:0:0:
448,192,109820,1,0,0:0:0:0:
64,192,109970,1,0,0:0:0:0:
320,192,110120,1,0,0:0:0:0:
448,192,110270,1,0,0:0:0:0:
320,192,110420,128,0,111620:0:0:0:0:
64,192,110420,1,0,0:0:0:0:
448,192,110570,1,0,0:0:0:0:
192,192,110720,1,0,0:0:0:0:
64,192,110720,1,0,0:0:0:0:
448,192,110870,1,0,0:0:0:0:
192,192,111020,1,0,0:0:0:0:
64,192,111020,1,0,0:0:0:0:
448,192,111170,1,0,0:0:0:0:
192,192,111320,1,0,0:0:0:0:
64,192,111320,1,0,0:0:0:0:
64,192,111620,128,0,112820:0:0:0:0:
448,192,111620,1,0,0:0:0:0:
192,192,111770,1,0,0:0:0:0:
320,192,111920,1,0,0:0:0:0:
448,192,111920,1,0,0:0:0:0:
192,192,112070,1,0,0:0:0:0:
320,192,112220,1,0,0:0:0:0:
448,192,112220,1,0,0:0:0:0:
192,192,112370,1,0,0:0:0:0:
320,192,112520,1,0,0:0:0:0:
448,192,112520,1,0,0:0:0:0:
192,192,112670,1,0,0:0:0:0:
448,192,112820,1,0,0:0:0:0:
192,192,112820,1,0,0:0:0:0:
64,192,112970,1,0,0:0:0:0:
320,192,112970,1,0,0:0:0:0:
192,192,113120,1,0,0:0:0:0:
448,192,113120,1,0,0:0:0:0:
64,192,113270,1,0,0:0:0:0:
320,192,113270,1,0,0:0:0:0:
448,192,113420,1,0,0:0:0:0:
192,192,113420,1,0,0:0:0:0:
320,192,113570,1,0,0:0:0:0:
64,192,113570,1,0,0:0:0:0:
448,192,113720,1,0,0:0:0:0:
192,192,113720,1,0,0:0:0:0:
64,192,113870,1,0,0:0:0:0:
320,192,113870,1,0,0:0:0:0:
64,192,114020,1,0,0:0:0:0:
192,192,114020,1,0,0:0:0:0:
320,192,114095,1,0,0:0:0:0:
448,192,114095,1,0,0:0:0:0:
64,192,114170,1,0,0:0:0:0:
192,192,114170,1,0,0:0:0:0:
320,192,114245,1,0,0:0:0:0:
448,192,114245,1,0,0:0:0:0:
64,192,114320,1,0,0:0:0:0:
192,192,114320,1,0,0:0:0:0:
320,192,114395,1,0,0:0:0:0:
448,192,114395,1,0,0:0:0:0:
64,192,114470,1,0,0:0:0:0:
192,192,114470,1,0,0:0:0:0:
320,192,114545,1,0,0:0:0:0:
448,192,114545,1,0,0:0:0:0:
64,192,115220,1,0,0:0:0:0:
192,192,115220,1,0,0:0:0:0:
320,192,115220,1,0,0:0:0:0:
320,192,115370,1,0,0:0:0:0:
448,192,115370,1,0,0:0:0:0:
64,192,115520,1,0,0:0:0:0:
448,192,115520,1,0,0:0:0:0:
192,192,115520,1,0,0:0:0:0:
192,192,115670,1,0,0:0:0:0:
320,192,115670,1,0,0:0:0:0:
64,192,115820,1,0,0:0:0:0:
320,192,115820,1,0,0:0:0:0:
448,192,115820,1,0,0:0:0:0:
192,192,115970,1,0,0:0:0:0:
320,192,115970,1,0,0:0:0:0:
448,192,115970,1,0,0:0:0:0:
192,192,116120,1,0,0:0:0:0:
64,192,116120,1,0,0:0:0:0:
448,192,116270,1,0,0:0:0:0:
64,192,116270,1,0,0:0:0:0:
192,192,116420,1,0,0:0:0:0:
320,192,116420,1,0,0:0:0:0:
448,192,116420,1,0,0:0:0:0:
64,192,116570,1,0,0:0:0:0:
192,192,116570,1,0,0:0:0:0:
192,192,116720,1,0,0:0:0:0:
448,192,116720,1,0,0:0:0:0:
320,192,116870,1,0,0:0:0:0:
448,192,116870,1,0,0:0:0:0:
192,192,117020,1,0,0:0:0:0:
320,192,117020,1,0,0:0:0:0:
448,192,117020,1,0,0:0:0:0:
64,192,117620,1,0,0:0:0:0:
192,192,117620,1,0,0:0:0:0:
320,192,117620,1,0,0:0:0:0:
192,192,117770,1,0,0:0:0:0:
320,192,117770,1,0,0:0:0:0:
64,192,117920,1,0,0:0:0:0:
192,192,117920,1,0,0:0:0:0:
320,192,118070,1,0,0:0:0:0:
448,192,118070,1,0,0:0:0:0:
192,192,118220,1,0,0:0:0:0:
320,192,118220,1,0,0:0:0:0:
448,192,118220,1,0,0:0:0:0:
192,192,118370,1,0,0:0:0:0:
64,192,118520,1,0,0:0:0:0:
448,192,118670,1,0,0:0:0:0:
192,192,118820,1,0,0:0:0:0:
448,192,118820,1,0,0:0:0:0:
192,192,118970,1,0,0:0:0:0:
320,192,118970,1,0,0:0:0:0:
64,192,119120,1,0,0:0:0:0:
192,192,119120,1,0,0:0:0:0:
64,192,119270,1,0,0:0:0:0:
320,192,119270,1,0,0:0:0:0:
448,192,119420,1,0,0:0:0:0:
64,192,119420,1,0,0:0:0:0:
320,192,119420,1,0,0:0:0:0:
64,192,119570,1,0,0:0:0:0:
192,192,119645,1,0,0:0:0:0:
320,192,119720,1,0,0:0:0:0:
448,192,119720,1,0,0:0:0:0:
192,192,119795,1,0,0:0:0:0:
64,192,119795,1,0,0:0:0:0:
320,192,119870,1,0,0:0:0:0:
448,192,119870,1,0,0:0:0:0:
320,192,120020,1,0,0:0:0:0:
192,192,120020,1,0,0:0:0:0:
64,192,120020,1,0,0:0:0:0:
192,192,120170,1,0,0:0:0:0:
448,192,120170,1,0,0:0:0:0:
320,192,120320,1,0,0:0:0:0:
448,192,120320,1,0,0:0:0:0:
448,192,120470,1,0,0:0:0:0:
192,192,120470,1,0,0:0:0:0:
192,192,120620,1,0,0:0:0:0:
448,192,120620,1,0,0:0:0:0:
64,192,120620,1,0,0:0:0:0:
192,192,120770,1,0,0:0:0:0:
64,192,120770,1,0,0:0:0:0:
192,192,120920,1,0,0:0:0:0:
448,192,120920,1,0,0:0:0:0:
64,192,121070,1,0,0:0:0:0:
320,192,121070,1,0,0:0:0:0:
192,192,121070,1,0,0:0:0:0:
192,192,121220,1,0,0:0:0:0:
320,192,121220,1,0,0:0:0:0:
448,192,121220,1,0,0:0:0:0:
320,192,121370,1,0,0:0:0:0:
448,192,121370,1,0,0:0:0:0:
64,192,121520,1,0,0:0:0:0:
192,192,121520,1,0,0:0:0:0:
448,192,121670,1,0,0:0:0:0:
192,192,121670,1,0,0:0:0:0:
64,192,121820,1,0,0:0:0:0:
192,192,121820,1,0,0:0:0:0:
320,192,121820,1,0,0:0:0:0:
64,192,122420,128,0,122720:0:0:0:0:
320,192,122420,1,0,0:0:0:0:
448,192,122420,1,0,0:0:0:0:
320,192,122570,1,0,0:0:0:0:
192,192,122720,128,0,122870:0:0:0:0:
320,192,122870,128,0,123020:0:0:0:0:
448,192,123020,128,0,123320:0:0:0:0:
64,192,123020,1,0,0:0:0:0:
192,192,123170,1,0,0:0:0:0:
320,192,123320,128,0,123470:0:0:0:0:
64,192,123320,1,0,0:0:0:0:
192,192,123470,128,0,123620:0:0:0:0:
320,192,123620,128,0,123920:0:0:0:0:
448,192,123620,1,0,0:0:0:0:
192,192,123770,1,0,0:0:0:0:
64,192,123920,128,0,124070:0:0:0:0:
448,192,124070,128,0,124220:0:0:0:0:
192,192,124220,128,0,124520:0:0:0:0:
320,192,124220,1,0,0:0:0:0:
64,192,124520,128,0,124820:0:0:0:0:
448,192,124520,1,0,0:0:0:0:
320,192,124670,1,0,0:0:0:0:
320,192,124820,1,0,0:0:0:0:
448,192,124820,1,0,0:0:0:0:
192,192,124970,1,0,0:0:0:0:
320,192,124970,1,0,0:0:0:0:
64,192,125120,1,0,0:0:0:0:
192,192,125120,1,0,0:0:0:0:
320,192,125270,1,0,0:0:0:0:
448,192,125270,1,0,0:0:0:0:
64,192,125420,1,0,0:0:0:0:
192,192,125420,1,0,0:0:0:0:
448,192,125420,1,0,0:0:0:0:
192,192,125570,1,0,0:0:0:0:
448,192,125570,1,0,0:0:0:0:
192,192,125720,1,0,0:0:0:0:
64,192,125720,1,0,0:0:0:0:
192,192,125870,1,0,0:0:0:0:
448,192,125870,1,0,0:0:0:0:
320,192,125870,1,0,0:0:0:0:
320,192,126020,1,0,0:0:0:0:
448,192,126020,1,0,0:0:0:0:
64,192,126020,1,0,0:0:0:0:
192,192,126170,1,0,0:0:0:0:
448,192,126170,1,0,0:0:0:0:
192,192,126320,1,0,0:0:0:0:
64,192,126320,1,0,0:0:0:0:
448,192,126470,1,0,0:0:0:0:
320,192,126470,1,0,0:0:0:0:
320,192,126620,1,0,0:0:0:0:
64,192,126770,1,0,0:0:0:0:
192,192,126920,1,0,0:0:0:0:
320,192,127070,1,0,0:0:0:0:
448,192,127220,1,0,0:0:0:0:
64,192,127220,1,0,0:0:0:0:
320,192,127220,1,0,0:0:0:0:
64,192,127370,1,0,0:0:0:0:
192,192,127520,1,0,0:0:0:0:
320,192,127520,1,0,0:0:0:0:
448,192,127670,1,0,0:0:0:0:
192,192,127820,1,0,0:0:0:0:
320,192,127820,1,0,0:0:0:0:
64,192,127820,1,0,0:0:0:0:
192,192,127970,1,0,0:0:0:0:
448,192,127970,1,0,0:0:0:0:
64,192,128120,1,0,0:0:0:0:
448,192,128120,1,0,0:0:0:0:
192,192,128270,1,0,0:0:0:0:
320,192,128270,1,0,0:0:0:0:
192,192,128420,1,0,0:0:0:0:
320,192,128420,1,0,0:0:0:0:
64,192,128420,1,0,0:0:0:0:
192,192,128570,1,0,0:0:0:0:
448,192,128570,1,0,0:0:0:0:
320,192,128720,1,0,0:0:0:0:
448,192,128720,1,0,0:0:0:0:
192,192,128870,1,0,0:0:0:0:
448,192,128870,1,0,0:0:0:0:
64,192,129020,1,0,0:0:0:0:
320,192,129020,1,0,0:0:0:0:
448,192,129020,1,0,0:0:0:0:
448,192,129170,1,0,0:0:0:0:
320,192,129245,1,0,0:0:0:0:
192,192,129320,1,0,0:0:0:0:
320,192,129395,1,0,0:0:0:0:
192,192,129470,1,0,0:0:0:0:
64,192,129545,1,0,0:0:0:0:
192,192,129620,1,0,0:0:0:0:
320,192,129620,1,0,0:0:0:0:
448,192,129620,1,0,0:0:0:0:
64,192,129770,1,0,0:0:0:0:
192,192,129770,1,0,0:0:0:0:
320,192,129920,1,0,0:0:0:0:
448,192,129920,1,0,0:0:0:0:
448,192,130070,1,0,0:0:0:0:
192,192,130070,1,0,0:0:0:0:
448,192,130220,1,0,0:0:0:0:
64,192,130220,1,0,0:0:0:0:
192,192,130220,1,0,0:0:0:0:
64,192,130370,1,0,0:0:0:0:
320,192,130370,1,0,0:0:0:0:
64,192,130520,1,0,0:0:0:0:
192,192,130520,1,0,0:0:0:0:
192,192,130670,1,0,0:0:0:0:
448,192,130670,1,0,0:0:0:0:
64,192,130820,1,0,0:0:0:0:
320,192,130820,1,0,0:0:0:0:
448,192,130820,1,0,0:0:0:0:
64,192,130970,1,0,0:0:0:0:
192,192,130970,1,0,0:0:0:0:
320,192,131120,1,0,0:0:0:0:
64,192,131270,1,0,0:0:0:0:
320,192,131270,1,0,0:0:0:0:
64,192,131420,1,0,0:0:0:0:
192,192,131420,1,0,0:0:0:0:
448,192,131420,1,0,0:0:0:0:
448,192,131570,1,0,0:0:0:0:
320,192,131570,1,0,0:0:0:0:
64,192,131720,1,0,0:0:0:0:
192,192,131720,1,0,0:0:0:0:
192,192,131870,1,0,0:0:0:0:
448,192,131870,1,0,0:0:0:0:
448,192,132020,128,0,132320:0:0:0:0:
192,192,132020,1,0,0:0:0:0:
64,192,132020,1,0,0:0:0:0:
320,192,132170,1,0,0:0:0:0:
192,192,132320,128,0,132620:0:0:0:0:
64,192,132320,1,0,0:0:0:0:
320,192,132470,1,0,0:0:0:0:
64,192,132620,128,0,132920:0:0:0:0:
448,192,132620,1,0,0:0:0:0:
192,192,132770,1,0,0:0:0:0:
320,192,132920,128,0,133220:0:0:0:0:
448,192,132920,1,0,0:0:0:0:
448,192,133070,1,0,0:0:0:0:
192,192,133220,128,0,133520:0:0:0:0:
64,192,133220,1,0,0:0:0:0:
320,192,133370,1,0,0:0:0:0:
448,192,133520,128,0,133820:0:0:0:0:
64,192,133520,1,0,0:0:0:0:
320,192,133670,1,0,0:0:0:0:
64,192,134120,1,0,0:0:0:0:
448,192,134120,128,0,134420:0:0:0:0:
192,192,134420,1,0,0:0:0:0:
64,192,134420,1,0,0:0:0:0:
320,192,134570,1,0,0:0:0:0:
64,192,134570,1,0,0:0:0:0:
192,192,134720,1,0,0:0:0:0:
320,192,134720,1,0,0:0:0:0:
448,192,134720,1,0,0:0:0:0:
192,192,134870,1,0,0:0:0:0:
320,192,134870,1,0,0:0:0:0:
64,192,135020,1,0,0:0:0:0:
192,192,135020,1,0,0:0:0:0:
320,192,135020,1,0,0:0:0:0:
448,192,135170,1,0,0:0:0:0:
192,192,135170,1,0,0:0:0:0:
192,192,135320,1,0,0:0:0:0:
320,192,135320,1,0,0:0:0:0:
448,192,135320,1,0,0:0:0:0:
192,192,135470,1,0,0:0:0:0:
320,192,135470,1,0,0:0:0:0:
64,192,135620,1,0,0:0:0:0:
192,192,135620,1,0,0:0:0:0:
448,192,135620,1,0,0:0:0:0:
64,192,135770,1,0,0:0:0:0:
448,192,135770,1,0,0:0:0:0:
448,192,135920,1,0,0:0:0:0:
64,192,135920,1,0,0:0:0:0:
320,192,135920,1,0,0:0:0:0:
192,192,136070,1,0,0:0:0:0:
320,192,136070,1,0,0:0:0:0:
192,192,136220,1,0,0:0:0:0:
64,192,136220,1,0,0:0:0:0:
448,192,136220,1,0,0:0:0:0:
64,192,136370,1,0,0:0:0:0:
192,192,136370,1,0,0:0:0:0:
448,192,136520,1,0,0:0:0:0:
320,192,136520,1,0,0:0:0:0:
64,192,136520,1,0,0:0:0:0:
320,192,136670,1,0,0:0:0:0:
448,192,136670,1,0,0:0:0:0:
192,192,136820,1,0,0:0:0:0:
320,192,136820,1,0,0:0:0:0:
448,192,136820,1,0,0:0:0:0:
192,192,136970,1,0,0:0:0:0:
320,192,136970,1,0,0:0:0:0:
320,192,137120,1,0,0:0:0:0:
448,192,137120,1,0,0:0:0:0:
64,192,137120,1,0,0:0:0:0:
448,192,137270,1,0,0:0:0:0:
64,192,137270,1,0,0:0:0:0:
64,192,137420,1,0,0:0:0:0:
192,192,137420,1,0,0:0:0:0:
320,192,137420,1,0,0:0:0:0:
192,192,137570,1,0,0:0:0:0:
320,192,137570,1,0,0:0:0:0:
64,192,137720,1,0,0:0:0:0:
192,192,137720,1,0,0:0:0:0:
448,192,137720,1,0,0:0:0:0:
448,192,137870,1,0,0:0:0:0:
64,192,137870,1,0,0:0:0:0:
192,192,138020,1,0,0:0:0:0:
320,192,138020,1,0,0:0:0:0:
448,192,138020,1,0,0:0:0:0:
448,192,138170,1,0,0:0:0:0:
320,192,138170,1,0,0:0:0:0:
192,192,138320,1,0,0:0:0:0:
320,192,138320,1,0,0:0:0:0:
448,192,138320,1,0,0:0:0:0:
192,192,138470,1,0,0:0:0:0:
320,192,138470,1,0,0:0:0:0:
64,192,138620,1,0,0:0:0:0:
192,192,138620,1,0,0:0:0:0:
320,192,138620,1,0,0:0:0:0:
64,192,138770,1,0,0:0:0:0:
192,192,138770,1,0,0:0:0:0:
64,192,138920,1,0,0:0:0:0:
192,192,138920,1,0,0:0:0:0:
320,192,138920,1,0,0:0:0:0:
192,192,139070,1,0,0:0:0:0:
320,192,139070,1,0,0:0:0:0:
64,192,139220,1,0,0:0:0:0:
192,192,139220,1,0,0:0:0:0:
320,192,139220,1,0,0:0:0:0:
192,192,139370,1,0,0:0:0:0:
448,192,139370,1,0,0:0:0:0:
192,192,139520,1,0,0:0:0:0:
320,192,139520,1,0,0:0:0:0:
448,192,139520,1,0,0:0:0:0:
64,192,139670,1,0,0:0:0:0:
320,192,139670,1,0,0:0:0:0:
64,192,139820,1,0,0:0:0:0:
192,192,139820,1,0,0:0:0:0:
320,192,139820,1,0,0:0:0:0:
448,192,139970,1,0,0:0:0:0:
192,192,139970,1,0,0:0:0:0:
192,192,140120,1,0,0:0:0:0:
320,192,140120,1,0,0:0:0:0:
448,192,140120,1,0,0:0:0:0:
64,192,140270,1,0,0:0:0:0:
320,192,140270,1,0,0:0:0:0:
64,192,140420,1,0,0:0:0:0:
192,192,140420,1,0,0:0:0:0:
448,192,140420,1,0,0:0:0:0:
192,192,140570,1,0,0:0:0:0:
448,192,140570,1,0,0:0:0:0:
64,192,140720,1,0,0:0:0:0:
192,192,140720,1,0,0:0:0:0:
448,192,140720,1,0,0:0:0:0:
448,192,140870,1,0,0:0:0:0:
320,192,140870,1,0,0:0:0:0:
64,192,141020,1,0,0:0:0:0:
448,192,141020,1,0,0:0:0:0:
320,192,141020,1,0,0:0:0:0:
64,192,141170,1,0,0:0:0:0:
320,192,141170,1,0,0:0:0:0:
320,192,141320,1,0,0:0:0:0:
448,192,141320,1,0,0:0:0:0:
64,192,141320,1,0,0:0:0:0:
64,192,141470,1,0,0:0:0:0:
192,192,141470,1,0,0:0:0:0:
448,192,141620,1,0,0:0:0:0:
320,192,141620,1,0,0:0:0:0:
192,192,141620,1,0,0:0:0:0:
448,192,141770,1,0,0:0:0:0:
320,192,141770,1,0,0:0:0:0:
64,192,141920,1,0,0:0:0:0:
192,192,141920,1,0,0:0:0:0:
320,192,141920,1,0,0:0:0:0:
448,192,142070,1,0,0:0:0:0:
320,192,142070,1,0,0:0:0:0:
448,192,142220,1,0,0:0:0:0:
320,192,142220,1,0,0:0:0:0:
192,192,142220,1,0,0:0:0:0:
320,192,142370,1,0,0:0:0:0:
192,192,142370,1,0,0:0:0:0:
192,192,142520,1,0,0:0:0:0:
64,192,142520,1,0,0:0:0:0:
320,192,142520,1,0,0:0:0:0:
320,192,142670,1,0,0:0:0:0:
192,192,142670,1,0,0:0:0:0:
448,192,142820,1,0,0:0:0:0:
320,192,142820,1,0,0:0:0:0:
192,192,142820,1,0,0:0:0:0:
192,192,142970,1,0,0:0:0:0:
64,192,142970,1,0,0:0:0:0:
64,192,143120,1,0,0:0:0:0:
192,192,143120,1,0,0:0:0:0:
320,192,143120,1,0,0:0:0:0:
192,192,143270,1,0,0:0:0:0:
64,192,143270,1,0,0:0:0:0:
64,192,143420,1,0,0:0:0:0:
448,192,143420,1,0,0:0:0:0:
64,192,143570,1,0,0:0:0:0:
448,192,143570,1,0,0:0:0:0:
64,192,143720,1,0,0:0:0:0:
448,192,143720,1,0,0:0:0:0:
64,192,143870,1,0,0:0:0:0:
448,192,143870,1,0,0:0:0:0:
448,192,144020,1,0,0:0:0:0:
320,192,144020,1,0,0:0:0:0:
192,192,144020,1,0,0:0:0:0:
448,192,144170,1,0,0:0:0:0:
192,192,144170,1,0,0:0:0:0:
64,192,144320,1,0,0:0:0:0:
192,192,144320,1,0,0:0:0:0:
320,192,144320,1,0,0:0:0:0:
192,192,144470,1,0,0:0:0:0:
320,192,144470,1,0,0:0:0:0:
192,192,144620,1,0,0:0:0:0:
320,192,144620,1,0,0:0:0:0:
448,192,144620,1,0,0:0:0:0:
320,192,144770,1,0,0:0:0:0:
64,192,144770,1,0,0:0:0:0:
64,192,144920,1,0,0:0:0:0:
192,192,144920,1,0,0:0:0:0:
320,192,144920,1,0,0:0:0:0:
192,192,145070,1,0,0:0:0:0:
320,192,145070,1,0,0:0:0:0:
64,192,145220,1,0,0:0:0:0:
320,192,145220,1,0,0:0:0:0:
448,192,145220,1,0,0:0:0:0:
64,192,145370,1,0,0:0:0:0:
448,192,145370,1,0,0:0:0:0:
192,192,145520,1,0,0:0:0:0:
448,192,145520,1,0,0:0:0:0:
64,192,145520,1,0,0:0:0:0:
192,192,145670,1,0,0:0:0:0:
320,192,145670,1,0,0:0:0:0:
64,192,145820,1,0,0:0:0:0:
448,192,145820,1,0,0:0:0:0:
320,192,145820,1,0,0:0:0:0:
320,192,145970,1,0,0:0:0:0:
448,192,145970,1,0,0:0:0:0:
448,192,146120,1,0,0:0:0:0:
192,192,146120,1,0,0:0:0:0:
64,192,146120,1,0,0:0:0:0:
64,192,146270,1,0,0:0:0:0:
192,192,146270,1,0,0:0:0:0:
64,192,146420,1,0,0:0:0:0:
192,192,146420,1,0,0:0:0:0:
320,192,146420,1,0,0:0:0:0:
192,192,146570,1,0,0:0:0:0:
320,192,146570,1,0,0:0:0:0:
448,192,146720,1,0,0:0:0:0:
64,192,146720,1,0,0:0:0:0:
192,192,146720,1,0,0:0:0:0:
448,192,146870,1,0,0:0:0:0:
64,192,146870,1,0,0:0:0:0:
192,192,147020,1,0,0:0:0:0:
320,192,147020,1,0,0:0:0:0:
448,192,147020,1,0,0:0:0:0:
192,192,147170,1,0,0:0:0:0:
320,192,147170,1,0,0:0:0:0:
64,192,147320,1,0,0:0:0:0:
320,192,147320,1,0,0:0:0:0:
448,192,147320,1,0,0:0:0:0:
448,192,147470,1,0,0:0:0:0:
64,192,147470,1,0,0:0:0:0:
64,192,147620,1,0,0:0:0:0:
192,192,147620,1,0,0:0:0:0:
320,192,147620,1,0,0:0:0:0:
192,192,147770,1,0,0:0:0:0:
64,192,147770,1,0,0:0:0:0:
64,192,147920,1,0,0:0:0:0:
192,192,147920,1,0,0:0:0:0:
320,192,147920,1,0,0:0:0:0:
192,192,148070,1,0,0:0:0:0:
320,192,148070,1,0,0:0:0:0:
192,192,148220,1,0,0:0:0:0:
320,192,148220,1,0,0:0:0:0:
448,192,148220,1,0,0:0:0:0:
320,192,148370,1,0,0:0:0:0:
448,192,148370,1,0,0:0:0:0:
192,192,148520,1,0,0:0:0:0:
320,192,148520,1,0,0:0:0:0:
448,192,148520,1,0,0:0:0:0:
192,192,148670,1,0,0:0:0:0:
320,192,148670,1,0,0:0:0:0:
192,192,148820,1,0,0:0:0:0:
320,192,148820,1,0,0:0:0:0:
448,192,148820,1,0,0:0:0:0:
64,192,148970,1,0,0:0:0:0:
320,192,148970,1,0,0:0:0:0:
64,192,149120,1,0,0:0:0:0:
192,192,149120,1,0,0:0:0:0:
320,192,149120,1,0,0:0:0:0:
192,192,149270,1,0,0:0:0:0:
448,192,149270,1,0,0:0:0:0:
192,192,149420,1,0,0:0:0:0:
320,192,149420,1,0,0:0:0:0:
448,192,149420,1,0,0:0:0:0:
320,192,149570,1,0,0:0:0:0:
64,192,149570,1,0,0:0:0:0:
64,192,149720,1,0,0:0:0:0:
192,192,149720,1,0,0:0:0:0:
320,192,149720,1,0,0:0:0:0:
192,192,149870,1,0,0:0:0:0:
448,192,149870,1,0,0:0:0:0:
64,192,150020,1,0,0:0:0:0:
320,192,150020,1,0,0:0:0:0:
448,192,150020,1,0,0:0:0:0:
64,192,150170,1,0,0:0:0:0:
320,192,150170,1,0,0:0:0:0:
64,192,150320,1,0,0:0:0:0:
320,192,150320,1,0,0:0:0:0:
448,192,150320,1,0,0:0:0:0:
192,192,150470,1,0,0:0:0:0:
64,192,150470,1,0,0:0:0:0:
192,192,150620,1,0,0:0:0:0:
64,192,150620,1,0,0:0:0:0:
448,192,150620,1,0,0:0:0:0:
192,192,150770,1,0,0:0:0:0:
448,192,150770,1,0,0:0:0:0:
448,192,150920,1,0,0:0:0:0:
64,192,150920,1,0,0:0:0:0:
192,192,150920,1,0,0:0:0:0:
320,192,151070,1,0,0:0:0:0:
448,192,151070,1,0,0:0:0:0:
320,192,151220,1,0,0:0:0:0:
192,192,151220,1,0,0:0:0:0:
64,192,151220,1,0,0:0:0:0:
192,192,151370,1,0,0:0:0:0:
64,192,151370,1,0,0:0:0:0:
192,192,151520,1,0,0:0:0:0:
320,192,151520,1,0,0:0:0:0:
448,192,151520,1,0,0:0:0:0:
192,192,151670,1,0,0:0:0:0:
64,192,151670,1,0,0:0:0:0:
320,192,151820,1,0,0:0:0:0:
192,192,151820,1,0,0:0:0:0:
64,192,151820,1,0,0:0:0:0:
320,192,151970,1,0,0:0:0:0:
192,192,151970,1,0,0:0:0:0:
192,192,152120,1,0,0:0:0:0:
448,192,152120,1,0,0:0:0:0:
320,192,152120,1,0,0:0:0:0:
320,192,152270,1,0,0:0:0:0:
192,192,152270,1,0,0:0:0:0:
320,192,152420,1,0,0:0:0:0:
448,192,152420,1,0,0:0:0:0:
320,192,152570,1,0,0:0:0:0:
448,192,152570,1,0,0:0:0:0:
320,192,152720,1,0,0:0:0:0:
448,192,152720,1,0,0:0:0:0:
320,192,152870,1,0,0:0:0:0:
448,192,152870,1,0,0:0:0:0:
64,192,153620,1,0,0:0:0:0:
192,192,153620,1,0,0:0:0:0:
320,192,153620,1,0,0:0:0:0:
320,192,153770,1,0,0:0:0:0:
448,192,153770,1,0,0:0:0:0:
192,192,153920,1,0,0:0:0:0:
320,192,153920,1,0,0:0:0:0:
64,192,154070,1,0,0:0:0:0:
192,192,154070,1,0,0:0:0:0:
64,192,154220,1,0,0:0:0:0:
320,192,154220,1,0,0:0:0:0:
448,192,154220,1,0,0:0:0:0:
192,192,154370,1,0,0:0:0:0:
320,192,154370,1,0,0:0:0:0:
192,192,154520,1,0,0:0:0:0:
64,192,154520,1,0,0:0:0:0:
320,192,154670,1,0,0:0:0:0:
448,192,154670,1,0,0:0:0:0:
64,192,154670,1,0,0:0:0:0:
192,192,154820,1,0,0:0:0:0:
320,192,154820,1,0,0:0:0:0:
448,192,154820,1,0,0:0:0:0:
64,192,154970,1,0,0:0:0:0:
192,192,154970,1,0,0:0:0:0:
192,192,155120,1,0,0:0:0:0:
448,192,155120,1,0,0:0:0:0:
320,192,155270,1,0,0:0:0:0:
448,192,155270,1,0,0:0:0:0:
192,192,155420,1,0,0:0:0:0:
320,192,155420,1,0,0:0:0:0:
448,192,155420,1,0,0:0:0:0:
64,192,155570,1,0,0:0:0:0:
192,192,155570,1,0,0:0:0:0:
64,192,155720,1,0,0:0:0:0:
448,192,155720,1,0,0:0:0:0:
320,192,155720,1,0,0:0:0:0:
64,192,155870,1,0,0:0:0:0:
320,192,155870,1,0,0:0:0:0:
64,192,156020,1,0,0:0:0:0:
192,192,156020,1,0,0:0:0:0:
320,192,156020,1,0,0:0:0:0:
192,192,156170,1,0,0:0:0:0:
320,192,156170,1,0,0:0:0:0:
64,192,156320,1,0,0:0:0:0:
192,192,156320,1,0,0:0:0:0:
448,192,156320,1,0,0:0:0:0:
320,192,156470,1,0,0:0:0:0:
448,192,156470,1,0,0:0:0:0:
192,192,156620,1,0,0:0:0:0:
320,192,156620,1,0,0:0:0:0:
448,192,156620,1,0,0:0:0:0:
64,192,156770,1,0,0:0:0:0:
320,192,156770,1,0,0:0:0:0:
448,192,156770,1,0,0:0:0:0:
192,192,156920,1,0,0:0:0:0:
64,192,156920,1,0,0:0:0:0:
448,192,157070,1,0,0:0:0:0:
64,192,157070,1,0,0:0:0:0:
64,192,157220,1,0,0:0:0:0:
192,192,157220,1,0,0:0:0:0:
448,192,157220,1,0,0:0:0:0:
192,192,157370,1,0,0:0:0:0:
320,192,157370,1,0,0:0:0:0:
64,192,157520,1,0,0:0:0:0:
192,192,157520,1,0,0:0:0:0:
64,192,157670,1,0,0:0:0:0:
320,192,157670,1,0,0:0:0:0:
448,192,157820,1,0,0:0:0:0:
64,192,157820,1,0,0:0:0:0:
320,192,157820,1,0,0:0:0:0:
192,192,157895,1,0,0:0:0:0:
64,192,157970,1,0,0:0:0:0:
192,192,158045,1,0,0:0:0:0:
320,192,158120,1,0,0:0:0:0:
192,192,158195,1,0,0:0:0:0:
320,192,158270,1,0,0:0:0:0:
448,192,158345,1,0,0:0:0:0:
320,192,158420,1,0,0:0:0:0:
192,192,158420,1,0,0:0:0:0:
64,192,158420,1,0,0:0:0:0:
192,192,158570,1,0,0:0:0:0:
448,192,158570,1,0,0:0:0:0:
320,192,158720,1,0,0:0:0:0:
448,192,158720,1,0,0:0:0:0:
448,192,158870,1,0,0:0:0:0:
192,192,158870,1,0,0:0:0:0:
192,192,159020,1,0,0:0:0:0:
448,192,159020,1,0,0:0:0:0:
64,192,159020,1,0,0:0:0:0:
192,192,159170,1,0,0:0:0:0:
64,192,159170,1,0,0:0:0:0:
192,192,159320,1,0,0:0:0:0:
448,192,159320,1,0,0:0:0:0:
64,192,159470,1,0,0:0:0:0:
320,192,159470,1,0,0:0:0:0:
192,192,159620,1,0,0:0:0:0:
320,192,159620,1,0,0:0:0:0:
448,192,159620,1,0,0:0:0:0:
320,192,159770,1,0,0:0:0:0:
448,192,159770,1,0,0:0:0:0:
64,192,159920,1,0,0:0:0:0:
192,192,159920,1,0,0:0:0:0:
448,192,160070,1,0,0:0:0:0:
192,192,160070,1,0,0:0:0:0:
64,192,160220,1,0,0:0:0:0:
192,192,160220,1,0,0:0:0:0:
320,192,160220,1,0,0:0:0:0:
320,192,160370,1,0,0:0:0:0:
192,192,160370,1,0,0:0:0:0:
192,192,160520,1,0,0:0:0:0:
448,192,160520,1,0,0:0:0:0:
192,192,160670,1,0,0:0:0:0:
448,192,160670,1,0,0:0:0:0:
64,192,160820,128,0,161120:0:0:0:0:
320,192,160820,1,0,0:0:0:0:
448,192,160820,1,0,0:0:0:0:
192,192,161120,128,0,161270:0:0:0:0:
320,192,161270,128,0,161420:0:0:0:0:
448,192,161420,128,0,161720:0:0:0:0:
64,192,161420,1,0,0:0:0:0:
320,192,161720,128,0,161870:0:0:0:0:
192,192,161870,128,0,162020:0:0:0:0:
320,192,162020,128,0,162320:0:0:0:0:
448,192,162020,1,0,0:0:0:0:
64,192,162320,128,0,162470:0:0:0:0:
448,192,162470,128,0,162620:0:0:0:0:
192,192,162620,128,0,162920:0:0:0:0:
64,192,162920,128,0,163220:0:0:0:0:
320,192,162995,1,0,0:0:0:0:
448,192,163070,1,0,0:0:0:0:
320,192,163220,1,0,0:0:0:0:
448,192,163220,1,0,0:0:0:0:
192,192,163370,1,0,0:0:0:0:
320,192,163370,1,0,0:0:0:0:
64,192,163520,1,0,0:0:0:0:
192,192,163520,1,0,0:0:0:0:
320,192,163670,1,0,0:0:0:0:
448,192,163670,1,0,0:0:0:0:
64,192,163820,1,0,0:0:0:0:
192,192,163820,1,0,0:0:0:0:
320,192,163820,1,0,0:0:0:0:
192,192,163970,1,0,0:0:0:0:
448,192,163970,1,0,0:0:0:0:
64,192,164120,1,0,0:0:0:0:
320,192,164120,1,0,0:0:0:0:
192,192,164270,1,0,0:0:0:0:
320,192,164270,1,0,0:0:0:0:
448,192,164270,1,0,0:0:0:0:
64,192,164420,1,0,0:0:0:0:
320,192,164420,1,0,0:0:0:0:
448,192,164420,1,0,0:0:0:0:
192,192,164570,1,0,0:0:0:0:
448,192,164570,1,0,0:0:0:0:
64,192,164720,1,0,0:0:0:0:
192,192,164720,1,0,0:0:0:0:
192,192,164870,1,0,0:0:0:0:
320,192,164870,1,0,0:0:0:0:
448,192,165020,1,0,0:0:0:0:
320,192,165020,1,0,0:0:0:0:
192,192,165020,1,0,0:0:0:0:
64,192,165170,1,0,0:0:0:0:
192,192,165170,1,0,0:0:0:0:
448,192,165320,1,0,0:0:0:0:
192,192,165320,1,0,0:0:0:0:
320,192,165320,1,0,0:0:0:0:
64,192,165470,1,0,0:0:0:0:
448,192,165470,1,0,0:0:0:0:
64,192,165620,1,0,0:0:0:0:
192,192,165620,1,0,0:0:0:0:
448,192,165620,1,0,0:0:0:0:
64,192,165770,1,0,0:0:0:0:
448,192,165770,1,0,0:0:0:0:
320,192,165920,1,0,0:0:0:0:
192,192,165920,1,0,0:0:0:0:
448,192,165920,1,0,0:0:0:0:
448,192,166070,1,0,0:0:0:0:
192,192,166070,1,0,0:0:0:0:
320,192,166220,1,0,0:0:0:0:
64,192,166220,1,0,0:0:0:0:
192,192,166220,1,0,0:0:0:0:
192,192,166370,1,0,0:0:0:0:
320,192,166370,1,0,0:0:0:0:
448,192,166370,1,0,0:0:0:0:
64,192,166520,1,0,0:0:0:0:
448,192,166520,1,0,0:0:0:0:
192,192,166670,1,0,0:0:0:0:
320,192,166670,1,0,0:0:0:0:
192,192,166820,1,0,0:0:0:0:
320,192,166820,1,0,0:0:0:0:
448,192,166820,1,0,0:0:0:0:
192,192,166970,1,0,0:0:0:0:
64,192,166970,1,0,0:0:0:0:
320,192,167120,1,0,0:0:0:0:
448,192,167120,1,0,0:0:0:0:
192,192,167270,1,0,0:0:0:0:
448,192,167270,1,0,0:0:0:0:
64,192,167420,1,0,0:0:0:0:
320,192,167420,1,0,0:0:0:0:
448,192,167420,1,0,0:0:0:0:
192,192,167495,1,0,0:0:0:0:
448,192,167570,1,0,0:0:0:0:
320,192,167645,1,0,0:0:0:0:
192,192,167720,1,0,0:0:0:0:
320,192,167795,1,0,0:0:0:0:
192,192,167870,1,0,0:0:0:0:
64,192,167945,1,0,0:0:0:0:
192,192,168020,1,0,0:0:0:0:
320,192,168020,1,0,0:0:0:0:
448,192,168020,1,0,0:0:0:0:
64,192,168170,1,0,0:0:0:0:
192,192,168170,1,0,0:0:0:0:
320,192,168320,1,0,0:0:0:0:
448,192,168320,1,0,0:0:0:0:
448,192,168470,1,0,0:0:0:0:
192,192,168470,1,0,0:0:0:0:
448,192,168620,1,0,0:0:0:0:
64,192,168620,1,0,0:0:0:0:
192,192,168620,1,0,0:0:0:0:
64,192,168770,1,0,0:0:0:0:
320,192,168770,1,0,0:0:0:0:
64,192,168920,1,0,0:0:0:0:
192,192,168920,1,0,0:0:0:0:
448,192,169070,1,0,0:0:0:0:
192,192,169070,1,0,0:0:0:0:
64,192,169220,1,0,0:0:0:0:
320,192,169220,1,0,0:0:0:0:
448,192,169220,1,0,0:0:0:0:
64,192,169370,1,0,0:0:0:0:
192,192,169370,1,0,0:0:0:0:
448,192,169520,1,0,0:0:0:0:
320,192,169520,1,0,0:0:0:0:
64,192,169670,1,0,0:0:0:0:
320,192,169670,1,0,0:0:0:0:
448,192,169820,1,0,0:0:0:0:
64,192,169820,1,0,0:0:0:0:
192,192,169820,1,0,0:0:0:0:
448,192,169970,1,0,0:0:0:0:
320,192,169970,1,0,0:0:0:0:
64,192,170120,1,0,0:0:0:0:
192,192,170120,1,0,0:0:0:0:
192,192,170270,1,0,0:0:0:0:
448,192,170270,1,0,0:0:0:0:
448,192,170420,128,0,170720:0:0:0:0:
192,192,170420,1,0,0:0:0:0:
64,192,170420,1,0,0:0:0:0:
320,192,170720,128,0,170870:0:0:0:0:
192,192,170870,128,0,171020:0:0:0:0:
64,192,171020,128,0,171320:0:0:0:0:
448,192,171020,1,0,0:0:0:0:
192,192,171320,128,0,171470:0:0:0:0:
320,192,171470,128,0,171620:0:0:0:0:
192,192,171620,128,0,171920:0:0:0:0:
64,192,171620,1,0,0:0:0:0:
448,192,171920,128,0,172070:0:0:0:0:
64,192,172070,128,0,172220:0:0:0:0:
320,192,172220,128,0,172520:0:0:0:0:
448,192,172520,128,0,172820:0:0:0:0:
192,192,172820,1,0,0:0:0:0:
64,192,172820,1,0,0:0:0:0:
64,192,173120,1,0,0:0:0:0:
320,192,173420,1,0,0:0:0:0:
448,192,173420,1,0,0:0:0:0:
192,192,173570,1,0,0:0:0:0:
64,192,173720,1,0,0:0:0:0:
320,192,173870,1,0,0:0:0:0:
192,192,173870,1,0,0:0:0:0:
64,192,174020,1,0,0:0:0:0:
192,192,174020,1,0,0:0:0:0:
320,192,174320,1,0,0:0:0:0:
448,192,174620,5,0,0:0:0:0:
320,192,174620,1,0,0:0:0:0:
192,192,174695,1,0,0:0:0:0:
64,192,174695,1,0,0:0:0:0:
448,192,174770,1,0,0:0:0:0:
320,192,174770,1,0,0:0:0:0:
64,192,174845,1,0,0:0:0:0:
192,192,174845,1,0,0:0:0:0:
448,192,174920,1,0,0:0:0:0:
320,192,174920,1,0,0:0:0:0:
64,192,174995,1,0,0:0:0:0:
192,192,174995,1,0,0:0:0:0:
448,192,175070,1,0,0:0:0:0:
320,192,175070,1,0,0:0:0:0:
64,192,175145,1,0,0:0:0:0:
192,192,175145,1,0,0:0:0:0:
320,192,175220,1,0,0:0:0:0:
448,192,175220,1,0,0:0:0:0:
448,192,175520,1,0,0:0:0:0:
64,192,175820,1,0,0:0:0:0:
448,192,175820,1,0,0:0:0:0:
192,192,175970,1,0,0:0:0:0:
320,192,175970,1,0,0:0:0:0:
320,192,176120,1,0,0:0:0:0:
448,192,176270,1,0,0:0:0:0:
192,192,176420,1,0,0:0:0:0:
320,192,176420,1,0,0:0:0:0:
64,192,176720,1,0,0:0:0:0:
448,192,176720,1,0,0:0:0:0:
64,192,177020,1,0,0:0:0:0:
192,192,177020,1,0,0:0:0:0:
320,192,177095,1,0,0:0:0:0:
448,192,177095,1,0,0:0:0:0:
64,192,177170,1,0,0:0:0:0:
192,192,177170,1,0,0:0:0:0:
320,192,177245,1,0,0:0:0:0:
448,192,177245,1,0,0:0:0:0:
64,192,177320,1,0,0:0:0:0:
192,192,177320,1,0,0:0:0:0:
320,192,177395,1,0,0:0:0:0:
448,192,177395,1,0,0:0:0:0:
64,192,177470,1,0,0:0:0:0:
192,192,177470,1,0,0:0:0:0:
320,192,177545,1,0,0:0:0:0:
448,192,177545,1,0,0:0:0:0:
64,192,177620,1,0,0:0:0:0:
192,192,177620,1,0,0:0:0:0:
448,192,177920,1,0,0:0:0:0:
320,192,178070,1,0,0:0:0:0:
192,192,178220,1,0,0:0:0:0:
64,192,178220,1,0,0:0:0:0:
448,192,178370,1,0,0:0:0:0:
192,192,178520,1,0,0:0:0:0:
320,192,178670,1,0,0:0:0:0:
320,192,178820,1,0,0:0:0:0:
64,192,178820,1,0,0:0:0:0:
192,192,179120,1,0,0:0:0:0:
320,192,179120,1,0,0:0:0:0:
448,192,179420,1,0,0:0:0:0:
320,192,179420,1,0,0:0:0:0:
192,192,179495,1,0,0:0:0:0:
64,192,179495,1,0,0:0:0:0:
320,192,179570,1,0,0:0:0:0:
448,192,179570,1,0,0:0:0:0:
64,192,179645,1,0,0:0:0:0:
192,192,179645,1,0,0:0:0:0:
448,192,179720,1,0,0:0:0:0:
320,192,179720,1,0,0:0:0:0:
192,192,179795,1,0,0:0:0:0:
64,192,179795,1,0,0:0:0:0:
320,192,179870,1,0,0:0:0:0:
448,192,179870,1,0,0:0:0:0:
64,192,179945,1,0,0:0:0:0:
192,192,179945,1,0,0:0:0:0:
320,192,180020,128,0,180320:0:0:0:0:
448,192,180020,128,0,180320:0:0:0:0:
192,192,180320,1,0,0:0:0:0:
64,192,180320,1,0,0:0:0:0:
192,192,180470,1,0,0:0:0:0:
64,192,180470,1,0,0:0:0:0:
64,192,180620,128,0,180920:0:0:0:0:
192,192,180620,128,0,180920:0:0:0:0:
448,192,180920,1,0,0:0:0:0:
320,192,180920,1,0,0:0:0:0:
448,192,181070,1,0,0:0:0:0:
320,192,181070,1,0,0:0:0:0:
448,192,181220,128,0,181520:0:0:0:0:
64,192,181220,128,0,181520:0:0:0:0:
192,192,181520,1,0,0:0:0:0:
320,192,181520,1,0,0:0:0:0:
192,192,181670,1,0,0:0:0:0:
320,192,181670,1,0,0:0:0:0:
320,192,181820,128,0,182120:0:0:0:0:
192,192,181820,128,0,182120:0:0:0:0:
64,192,182120,1,0,0:0:0:0:
448,192,182120,1,0,0:0:0:0:
64,192,182270,1,0,0:0:0:0:
448,192,182270,1,0,0:0:0:0:
320,192,182420,5,0,0:0:0:0:
192,192,182420,1,0,0:0:0:0:
448,192,182720,1,0,0:0:0:0:
192,192,183020,1,0,0:0:0:0:
448,192,183020,1,0,0:0:0:0:
320,192,183170,1,0,0:0:0:0:
448,192,183320,1,0,0:0:0:0:
192,192,183470,1,0,0:0:0:0:
320,192,183470,1,0,0:0:0:0:
448,192,183620,1,0,0:0:0:0:
192,192,183620,1,0,0:0:0:0:
192,192,183920,1,0,0:0:0:0:
64,192,184220,5,0,0:0:0:0:
192,192,184220,1,0,0:0:0:0:
320,192,184295,1,0,0:0:0:0:
448,192,184295,1,0,0:0:0:0:
64,192,184370,1,0,0:0:0:0:
192,192,184370,1,0,0:0:0:0:
448,192,184445,1,0,0:0:0:0:
320,192,184445,1,0,0:0:0:0:
64,192,184520,1,0,0:0:0:0:
192,192,184520,1,0,0:0:0:0:
448,192,184595,1,0,0:0:0:0:
320,192,184595,1,0,0:0:0:0:
64,192,184670,1,0,0:0:0:0:
192,192,184670,1,0,0:0:0:0:
448,192,184745,1,0,0:0:0:0:
320,192,184745,1,0,0:0:0:0:
192,192,184820,1,0,0:0:0:0:
64,192,184820,1,0,0:0:0:0:
64,192,185120,1,0,0:0:0:0:
448,192,185120,1,0,0:0:0:0:
448,192,185420,1,0,0:0:0:0:
192,192,185420,1,0,0:0:0:0:
320,192,185570,1,0,0:0:0:0:
448,192,185570,1,0,0:0:0:0:
192,192,185720,1,0,0:0:0:0:
64,192,185870,1,0,0:0:0:0:
320,192,186020,1,0,0:0:0:0:
192,192,186020,1,0,0:0:0:0:
448,192,186320,1,0,0:0:0:0:
448,192,186620,1,0,0:0:0:0:
320,192,186620,1,0,0:0:0:0:
192,192,186695,1,0,0:0:0:0:
64,192,186695,1,0,0:0:0:0:
448,192,186770,1,0,0:0:0:0:
320,192,186770,1,0,0:0:0:0:
192,192,186845,1,0,0:0:0:0:
64,192,186845,1,0,0:0:0:0:
448,192,186920,1,0,0:0:0:0:
320,192,186920,1,0,0:0:0:0:
192,192,186995,1,0,0:0:0:0:
64,192,186995,1,0,0:0:0:0:
448,192,187070,1,0,0:0:0:0:
320,192,187070,1,0,0:0:0:0:
192,192,187145,1,0,0:0:0:0:
64,192,187145,1,0,0:0:0:0:
448,192,187220,1,0,0:0:0:0:
320,192,187220,1,0,0:0:0:0:
64,192,187520,1,0,0:0:0:0:
192,192,187670,1,0,0:0:0:0:
320,192,187820,1,0,0:0:0:0:
448,192,187820,1,0,0:0:0:0:
64,192,187970,1,0,0:0:0:0:
448,192,188120,1,0,0:0:0:0:
192,192,188270,1,0,0:0:0:0:
192,192,188420,1,0,0:0:0:0:
64,192,188420,1,0,0:0:0:0:
320,192,188720,1,0,0:0:0:0:
192,192,188720,1,0,0:0:0:0:
64,192,189020,1,0,0:0:0:0:
192,192,189020,1,0,0:0:0:0:
320,192,189095,1,0,0:0:0:0:
448,192,189095,1,0,0:0:0:0:
192,192,189170,1,0,0:0:0:0:
64,192,189170,1,0,0:0:0:0:
448,192,189245,1,0,0:0:0:0:
320,192,189245,1,0,0:0:0:0:
64,192,189320,1,0,0:0:0:0:
192,192,189320,1,0,0:0:0:0:
320,192,189395,1,0,0:0:0:0:
448,192,189395,1,0,0:0:0:0:
192,192,189470,1,0,0:0:0:0:
64,192,189470,1,0,0:0:0:0:
448,192,189545,1,0,0:0:0:0:
320,192,189545,1,0,0:0:0:0:
192,192,189620,128,0,189920:0:0:0:0:
64,192,189620,128,0,189920:0:0:0:0:
448,192,189920,1,0,0:0:0:0:
320,192,189920,1,0,0:0:0:0:
448,192,190070,1,0,0:0:0:0:
320,192,190070,1,0,0:0:0:0:
320,192,190220,128,0,190520:0:0:0:0:
448,192,190220,128,0,190520:0:0:0:0:
192,192,190520,1,0,0:0:0:0:
64,192,190520,1,0,0:0:0:0:
192,192,190670,1,0,0:0:0:0:
64,192,190670,1,0,0:0:0:0:
64,192,190820,128,0,191120:0:0:0:0:
448,192,190820,128,0,191120:0:0:0:0:
320,192,191120,1,0,0:0:0:0:
192,192,191120,1,0,0:0:0:0:
320,192,191270,1,0,0:0:0:0:
192,192,191270,1,0,0:0:0:0:
192,192,191420,128,0,191720:0:0:0:0:
320,192,191420,128,0,191720:0:0:0:0:
448,192,191720,1,0,0:0:0:0:
64,192,191720,1,0,0:0:0:0:
448,192,191870,1,0,0:0:0:0:
64,192,191870,1,0,0:0:0:0:
