osu file format v14

[General]
AudioFilename: audio.mp3
AudioLeadIn: 0
PreviewTime: 146117
Countdown: 0
SampleSet: Soft
StackLeniency: 0.7
Mode: 0
LetterboxInBreaks: 0
WidescreenStoryboard: 0

[Editor]
Bookmarks: 22588,33882,42352,43764,59294,62117,64941,67764,76235,79058,83294,84705,87529,90352,100235,101647,112941,124235,129882,135529,146823,158117,169411,192000
DistanceSpacing: 0.9
BeatDivisor: 4
GridSize: 4
TimelineZoom: 2.1

[Metadata]
Title:Dainty
TitleUnicode:Dainty
Artist:Miraie & Setka
ArtistUnicode:Miraie & Setka
Creator:OliBomby
Version:Endless Torture Of An Omnipotent Booger Dispenser
Source:
Tags:Kawaii Hardcore
BeatmapID:1548889
BeatmapSetID:733989

[Difficulty]
HPDrainRate:6
CircleSize:4
OverallDifficulty:8
ApproachRate:9.2
SliderMultiplier:1.6
SliderTickRate:1

[Events]
//Background and Video events
0,0,"maxresdefault.jpg",0,0
//Break Periods
2,90552,101077
//Storyboard Layer 0 (Background)
//Storyboard Layer 1 (Fail)
//Storyboard Layer 2 (Pass)
//Storyboard Layer 3 (Foreground)
//Storyboard Sound Samples

[TimingPoints]
0,352.941176470588,4,2,0,50,1,0
22588,-192.307692307692,4,2,0,30,0,0
33882,-92.5925925925926,4,2,0,50,0,0
42352,-185.185185185185,4,2,0,30,0,0
43764,-185.185185185185,4,2,0,40,0,0
45176,-92.5925925925926,4,2,0,50,0,0
55764,-92.5925925925926,4,2,0,20,0,0
56470,-92.5925925925926,4,2,0,50,0,1
64941,-192.307692307692,4,2,0,50,0,0
67764,-96.1538461538461,4,2,0,40,0,1
75882,-95.2380952380952,4,2,0,50,0,0
76235,-92.5925925925926,4,2,0,50,0,0
78441,-96.1538461538461,4,2,0,20,0,0
79058,-96.1538461538461,4,2,0,40,0,1
87176,-95.2380952380952,4,2,0,50,0,0
87529,-92.5925925925926,4,2,0,50,0,0
89117,-92.5925925925926,4,2,0,20,0,0
90264,-92.5925925925926,4,2,0,5,0,0
90352,-92.5925925925926,4,2,0,50,0,0
101647,-96.1538461538461,4,2,0,50,0,0
124235,-192.307692307692,4,2,0,30,0,0
124279,-192.307692307692,4,2,0,7,0,0
124323,-192.307692307692,4,2,0,10,0,0
124367,-192.307692307692,4,2,0,13,0,0
124411,-192.307692307692,4,2,0,10,0,0
124455,-192.307692307692,4,2,0,13,0,0
124499,-192.307692307692,4,2,0,15,0,0
124543,-192.307692307692,4,2,0,17,0,0
124588,-192.307692307692,4,2,0,20,0,0
124632,-192.307692307692,4,2,0,23,0,0
124676,-192.307692307692,4,2,0,25,0,0
124720,-192.307692307692,4,2,0,27,0,0
124764,-192.307692307692,4,2,0,30,0,0
124808,-192.307692307692,4,2,0,33,0,0
124852,-192.307692307692,4,2,0,35,0,0
124897,-192.307692307692,4,2,0,40,0,0
124941,-192.307692307692,4,2,0,5,0,0
124985,-192.307692307692,4,2,0,7,0,0
125029,-192.307692307692,4,2,0,10,0,0
125073,-192.307692307692,4,2,0,13,0,0
125117,-192.307692307692,4,2,0,10,0,0
125161,-192.307692307692,4,2,0,13,0,0
125205,-192.307692307692,4,2,0,15,0,0
125249,-192.307692307692,4,2,0,17,0,0
125294,-192.307692307692,4,2,0,20,0,0
125338,-192.307692307692,4,2,0,23,0,0
125382,-192.307692307692,4,2,0,25,0,0
125426,-192.307692307692,4,2,0,27,0,0
125470,-192.307692307692,4,2,0,30,0,0
125514,-192.307692307692,4,2,0,33,0,0
125558,-192.307692307692,4,2,0,35,0,0
125602,-192.307692307692,4,2,0,5,0,0
125647,-192.307692307692,4,2,0,7,0,0
125691,-192.307692307692,4,2,0,10,0,0
125735,-192.307692307692,4,2,0,13,0,0
125779,-192.307692307692,4,2,0,10,0,0
125823,-192.307692307692,4,2,0,13,0,0
125867,-192.307692307692,4,2,0,15,0,0
125911,-192.307692307692,4,2,0,17,0,0
125956,-192.307692307692,4,2,0,20,0,0
126000,-192.307692307692,4,2,0,23,0,0
126044,-192.307692307692,4,2,0,25,0,0
126088,-192.307692307692,4,2,0,27,0,0
126132,-192.307692307692,4,2,0,30,0,0
126176,-192.307692307692,4,2,0,33,0,0
126220,-192.307692307692,4,2,0,35,0,0
126264,-192.307692307692,4,2,0,37,0,0
126308,-192.307692307692,4,2,0,40,0,0
126352,-192.307692307692,4,2,0,5,0,0
126397,-192.307692307692,4,2,0,7,0,0
126441,-192.307692307692,4,2,0,10,0,0
126485,-192.307692307692,4,2,0,13,0,0
126529,-192.307692307692,4,2,0,10,0,0
126573,-192.307692307692,4,2,0,13,0,0
126617,-192.307692307692,4,2,0,15,0,0
126661,-192.307692307692,4,2,0,17,0,0
126706,-192.307692307692,4,2,0,20,0,0
126750,-192.307692307692,4,2,0,23,0,0
126794,-192.307692307692,4,2,0,25,0,0
126838,-192.307692307692,4,2,0,27,0,0
126882,-192.307692307692,4,2,0,30,0,0
126926,-192.307692307692,4,2,0,33,0,0
126970,-192.307692307692,4,2,0,35,0,0
127014,-192.307692307692,4,2,0,5,0,0
127058,-192.307692307692,4,2,0,7,0,0
127102,-192.307692307692,4,2,0,10,0,0
127146,-192.307692307692,4,2,0,13,0,0
127190,-192.307692307692,4,2,0,10,0,0
127234,-192.307692307692,4,2,0,13,0,0
127278,-192.307692307692,4,2,0,15,0,0
127322,-192.307692307692,4,2,0,17,0,0
127367,-192.307692307692,4,2,0,20,0,0
127411,-192.307692307692,4,2,0,23,0,0
127455,-192.307692307692,4,2,0,25,0,0
127499,-192.307692307692,4,2,0,27,0,0
127543,-192.307692307692,4,2,0,30,0,0
127587,-192.307692307692,4,2,0,33,0,0
127631,-192.307692307692,4,2,0,35,0,0
127676,-192.307692307692,4,2,0,40,0,0
127720,-192.307692307692,4,2,0,5,0,0
127764,-192.307692307692,4,2,0,7,0,0
127808,-192.307692307692,4,2,0,10,0,0
127852,-192.307692307692,4,2,0,13,0,0
127896,-192.307692307692,4,2,0,10,0,0
127940,-192.307692307692,4,2,0,13,0,0
127984,-192.307692307692,4,2,0,15,0,0
128028,-192.307692307692,4,2,0,17,0,0
128073,-192.307692307692,4,2,0,20,0,0
128117,-192.307692307692,4,2,0,23,0,0
128161,-192.307692307692,4,2,0,25,0,0
128205,-192.307692307692,4,2,0,27,0,0
128249,-192.307692307692,4,2,0,30,0,0
128293,-192.307692307692,4,2,0,33,0,0
128337,-192.307692307692,4,2,0,35,0,0
128382,-192.307692307692,4,2,0,40,0,0
128426,-192.307692307692,4,2,0,5,0,0
128470,-192.307692307692,4,2,0,7,0,0
128514,-192.307692307692,4,2,0,10,0,0
128558,-192.307692307692,4,2,0,13,0,0
128602,-192.307692307692,4,2,0,10,0,0
128646,-192.307692307692,4,2,0,13,0,0
128690,-192.307692307692,4,2,0,15,0,0
128734,-192.307692307692,4,2,0,17,0,0
128779,-192.307692307692,4,2,0,20,0,0
128823,-192.307692307692,4,2,0,23,0,0
128867,-192.307692307692,4,2,0,25,0,0
128911,-192.307692307692,4,2,0,27,0,0
128955,-192.307692307692,4,2,0,30,0,0
128999,-192.307692307692,4,2,0,33,0,0
129043,-192.307692307692,4,2,0,35,0,0
129088,-192.307692307692,4,2,0,37,0,0
129132,-192.307692307692,4,2,0,40,0,0
129176,-192.307692307692,4,2,0,5,0,0
129220,-192.307692307692,4,2,0,7,0,0
129264,-192.307692307692,4,2,0,10,0,0
129308,-192.307692307692,4,2,0,13,0,0
129352,-192.307692307692,4,2,0,10,0,0
129396,-192.307692307692,4,2,0,13,0,0
129440,-192.307692307692,4,2,0,15,0,0
129484,-192.307692307692,4,2,0,17,0,0
129529,-192.307692307692,4,2,0,20,0,0
129573,-192.307692307692,4,2,0,23,0,0
129617,-192.307692307692,4,2,0,25,0,0
129661,-192.307692307692,4,2,0,27,0,0
129705,-192.307692307692,4,2,0,30,0,0
129749,-192.307692307692,4,2,0,33,0,0
129793,-192.307692307692,4,2,0,35,0,0
129838,-192.307692307692,4,2,0,40,0,0
129882,-185.185185185185,4,2,0,30,0,0
135529,-92.5925925925926,4,2,0,50,0,0
143999,-185.185185185185,4,2,0,30,0,0
145411,-185.185185185185,4,2,0,40,0,0
146823,-92.5925925925926,4,2,0,50,0,0
157411,-92.5925925925926,4,2,0,20,0,0
158117,-92.5925925925926,4,2,0,50,0,1
166588,-192.307692307692,4,2,0,50,0,0
169411,-96.1538461538461,4,2,0,40,0,1
177529,-95.2380952380952,4,2,0,50,0,0
177882,-92.5925925925926,4,2,0,50,0,0
180088,-96.1538461538461,4,2,0,20,0,0
180705,-96.1538461538461,4,2,0,40,0,1
188823,-95.2380952380952,4,2,0,50,0,0
189176,-92.5925925925926,4,2,0,50,0,0
190764,-92.5925925925926,4,2,0,20,0,0
191911,-92.5925925925926,4,2,0,5,0,0
191999,-92.5925925925926,4,2,0,50,0,0

[Colours]
Combo1 : 193,212,229
Combo2 : 186,98,96
Combo3 : 33,86,78
Combo4 : 39,99,123

[HitObjects]
127,215,22588,5,2,0:0:0:0:
174,148,22941,1,0,0:0:0:0:
208,222,23294,1,0,0:0:0:0:
174,148,23647,1,0,0:0:0:0:
221,80,23999,1,0,0:0:0:0:
268,13,24352,1,0,0:0:0:0:
303,88,24705,1,0,0:0:0:0:
256,155,25058,1,0,0:0:0:0:
127,215,25411,5,0,0:0:0:0:
92,141,25764,1,0,0:0:0:0:
45,208,26117,1,0,0:0:0:0:
127,215,26470,1,0,0:0:0:0:
174,148,26823,1,0,0:0:0:0:
127,215,27176,1,0,0:0:0:0:
139,73,27529,1,0,0:0:0:0:
268,13,27882,1,0,0:0:0:0:
419,169,28058,5,0,0:0:0:0:
419,169,28147,1,0,0:0:0:0:
419,169,28235,1,0,0:0:0:0:
337,162,28588,1,0,0:0:0:0:
372,237,28941,1,0,0:0:0:0:
337,162,29294,1,0,0:0:0:0:
290,229,29647,1,0,0:0:0:0:
303,88,29999,1,0,0:0:0:0:
384,95,30352,1,0,0:0:0:0:
466,102,30705,1,0,0:0:0:0:
501,176,31058,6,0,L|376:165,2,124.799999238281
407,311,32470,1,0,0:0:0:0:
337,162,32823,1,0,0:0:0:0:
243,297,33176,1,0,0:0:0:0:
243,297,33529,1,0,0:0:0:0:
173,148,33882,6,0,P|190:108|221:79,1,86.4000021093751,2|0,0:0|0:0,0:0:0:0:
207,222,34235,2,0,P|240:193|256:154,1,86.4000021093751,2|0,0:0|0:0,0:0:0:0:
92,141,34588,2,0,P|99:182|127:215,1,86.4000021093751,2|0,0:0|0:0,0:0:0:0:
303,88,34941,2,0,P|293:46|267:12,1,86.4000021093751,2|0,0:0|0:0,0:0:0:0:
92,141,35294,5,2,0:0:0:0:
208,222,35470,1,0,0:0:0:0:
221,80,35647,5,2,0:0:0:0:
127,215,35823,1,0,0:0:0:0:
256,155,35999,5,2,0:0:0:0:
139,73,36176,1,0,0:0:0:0:
161,290,36352,5,2,0:0:0:0:
174,148,36529,1,0,0:0:0:0:
289,228,36705,6,0,P|330:243|372:236,1,86.4000021093751,2|0,0:0|0:0,0:0:0:0:
303,88,37058,2,0,P|262:73|220:80,1,86.4000021093751,2|0,0:0|0:0,0:0:0:0:
418,169,37411,2,0,P|451:141|466:101,1,86.4000021093751,2|0,0:0|0:0,0:0:0:0:
174,147,37764,2,0,P|141:175|126:215,1,86.4000021093751,2|0,0:0|0:0,0:0:0:0:
337,162,38117,5,2,0:0:0:0:
256,155,38294,1,0,0:0:0:0:
384,95,38470,5,2,0:0:0:0:
208,222,38647,1,0,0:0:0:0:
372,237,38823,5,2,0:0:0:0:
221,80,38999,1,0,0:0:0:0:
432,27,39176,5,2,0:0:0:0:
454,243,39352,1,0,0:0:0:0:
438,284,39440,1,0,0:0:0:0:
406,311,39528,5,2,0:0:0:0:
278,371,39705,1,2,0:0:0:0:
290,229,39882,1,2,0:0:0:0:
360,378,40058,1,2,0:0:0:0:
243,297,40235,1,2,0:0:0:0:
372,237,40411,1,2,0:0:0:0:
278,371,40588,1,2,0:0:0:0:
208,222,40764,1,2,0:0:0:0:
372,237,40941,5,2,0:0:0:0:
196,364,41117,1,2,0:0:0:0:
174,148,41294,1,2,0:0:0:0:
325,304,41470,1,2,0:0:0:0:
114,357,41647,1,2,0:0:0:0:
174,148,41823,1,2,0:0:0:0:
196,364,41999,1,2,0:0:0:0:
45,208,42176,1,2,0:0:0:0:
256,155,42352,5,2,0:0:0:0:
256,155,42441,2,0,L|277:156,2,21.6000005273438
92,141,42705,1,0,0:0:0:0:
92,141,42794,2,0,L|70:139,2,21.6000005273438
208,222,43058,5,0,0:0:0:0:
208,222,43147,2,0,L|229:223,2,21.6000005273438
127,215,43411,1,0,0:0:0:0:
127,215,43499,2,0,L|105:213,2,21.6000005273438
161,290,43764,5,2,0:3:0:0:
161,290,44117,1,2,0:3:0:0:
161,290,44470,5,10,0:3:0:0:
174,148,44647,1,8,0:3:0:0:
79,283,44823,1,8,0:3:0:0:
243,297,44999,1,8,0:3:0:0:
9,134,45176,6,0,P|25:94|57:65,1,86.4000021093751,2|0,0:0|0:0,0:0:0:0:
208,222,45529,5,2,0:0:0:0:
92,141,45705,1,0,0:0:0:0:
221,80,45882,5,2,0:0:0:0:
127,215,46058,1,0,0:0:0:0:
139,73,46235,5,2,0:0:0:0:
256,155,46411,1,0,0:0:0:0:
161,290,46588,5,2,0:0:0:0:
174,148,46764,1,0,0:0:0:0:
290,229,46941,5,2,0:0:0:0:
127,215,47117,1,0,0:0:0:0:
256,155,47294,5,2,0:0:0:0:
243,297,47470,1,0,0:0:0:0:
79,283,47647,5,2,0:0:0:0:
208,222,47823,1,0,0:0:0:0:
195,363,47999,6,0,P|236:377|278:370,1,86.4000021093751,2|0,0:0|0:0,0:0:0:0:
372,237,48352,5,2,0:0:0:0:
243,297,48529,1,0,0:0:0:0:
360,378,48705,5,2,0:0:0:0:
290,229,48882,1,0,0:0:0:0:
454,244,49058,5,2,0:0:0:0:
360,378,49235,1,0,0:0:0:0:
372,237,49411,5,2,0:0:0:0:
489,318,49588,1,0,0:0:0:0:
325,304,49764,5,2,0:0:0:0:
419,169,49941,1,0,0:0:0:0:
407,311,50117,5,2,0:0:0:0:
384,95,50294,1,0,0:0:0:0:
454,244,50470,5,2,0:0:0:0:
350,20,50647,1,0,0:0:0:0:
309,6,50735,1,0,0:0:0:0:
267,13,50823,6,0,P|234:40|220:80,1,86.4000021093751,2|0,0:0|0:0,0:0:0:0:
419,169,51176,5,2,0:0:0:0:
303,88,51352,1,0,0:0:0:0:
290,229,51529,5,2,0:0:0:0:
384,95,51705,1,0,0:0:0:0:
256,155,51882,5,2,0:0:0:0:
372,237,52058,1,0,0:0:0:0:
208,222,52235,5,2,0:0:0:0:
337,162,52411,1,0,0:0:0:0:
174,148,52588,5,2,0:0:0:0:
372,237,52764,1,0,0:0:0:0:
127,215,52941,5,2,0:0:0:0:
337,162,53117,1,0,0:0:0:0:
161,290,53294,5,2,0:0:0:0:
303,88,53470,1,0,0:0:0:0:
325,304,53647,6,0,P|310:344|278:371,1,86.4000021093751,2|0,0:0|0:0,0:0:0:0:
372,237,53999,2,0,P|400:269|407:311,1,86.4000021093751,2|0,0:0|0:0,0:0:0:0:
337,162,54352,6,0,P|305:189|290:229,1,86.4000021093751,2|0,0:0|0:0,0:0:0:0:
384,95,54705,2,0,P|345:80|303:88,1,86.4000021093751,2|0,0:0|0:0,0:0:0:0:
127,215,55058,5,2,0:0:0:0:
221,80,55235,1,0,0:0:0:0:
162,290,55411,5,2,0:0:0:0:
139,73,55588,1,0,0:0:0:0:
290,229,55764,5,2,0:0:0:0:
308,239,55852,1,0,0:0:0:0:
329,244,55940,1,0,0:0:0:0:
351,243,56028,1,0,0:0:0:0:
372,236,56116,1,0,0:0:0:0:
390,225,56205,1,0,0:0:0:0:
404,209,56293,1,0,0:0:0:0:
414,190,56381,1,0,0:0:0:0:
418,169,56470,6,0,P|411:126|383:94,1,86.4000021093751,2|0,0:0|0:0,0:0:0:0:
174,148,56823,5,2,0:0:0:0:
337,161,56999,1,0,0:0:0:0:
268,13,57176,5,2,0:0:0:0:
256,155,57352,1,0,0:0:0:0:
350,20,57529,5,2,0:0:0:0:
186,6,57705,1,0,0:0:0:0:
256,155,57882,5,2,0:0:0:0:
350,20,58058,1,0,0:0:0:0:
139,73,58235,5,2,0:0:0:0:
337,161,58411,1,0,0:0:0:0:
268,13,58588,5,2,0:0:0:0:
174,148,58764,1,0,0:0:0:0:
384,95,58941,5,2,0:0:0:0:
139,73,59117,1,0,0:0:0:0:
139,73,59205,1,0,0:0:0:0:
139,73,59293,5,2,0:0:0:0:
243,297,59470,1,0,0:0:0:0:
221,80,59647,5,2,0:0:0:0:
161,290,59823,1,0,0:0:0:0:
372,237,59999,5,2,0:0:0:0:
127,215,60176,1,0,0:0:0:0:
278,371,60352,5,2,0:0:0:0:
337,162,60529,1,0,0:0:0:0:
127,215,60705,5,2,0:0:0:0:
325,303,60882,1,0,0:0:0:0:
303,88,61058,5,2,0:0:0:0:
243,297,61235,1,0,0:0:0:0:
454,244,61411,5,2,0:0:0:0:
208,222,61588,1,0,0:0:0:0:
360,378,61764,5,2,0:0:0:0:
302,88,61941,1,0,0:0:0:0:
302,88,62029,1,0,0:0:0:0:
302,88,62117,5,2,0:0:0:0:
407,311,62294,1,0,0:0:0:0:
127,215,62470,5,2,0:0:0:0:
432,27,62647,1,0,0:0:0:0:
360,378,62823,5,2,0:0:0:0:
174,148,62999,1,0,0:0:0:0:
466,102,63176,5,2,0:0:0:0:
278,371,63352,1,0,0:0:0:0:
139,73,63529,5,2,0:0:0:0:
501,176,63705,1,0,0:0:0:0:
196,364,63882,5,2,0:0:0:0:
268,13,64058,1,0,0:0:0:0:
454,244,64235,5,2,0:0:0:0:
79,283,64411,1,0,0:0:0:0:
186,6,64588,5,2,0:0:0:0:
407,311,64764,1,0,0:0:0:0:
45,207,64941,5,2,0:0:0:0:
52,248,65470,1,2,0:0:0:0:
79,283,65999,2,0,L|161:290,1,83.1999994921875,2|0,0:0|0:0,0:0:0:0:
114,357,66705,2,0,L|196:364,1,83.1999994921875,2|0,0:0|0:0,0:0:0:0:
221,80,67411,5,8,0:0:0:0:
127,215,67588,1,2,0:0:0:0:
139,73,67764,5,2,0:0:0:0:
154,33,67852,1,0,0:0:0:0:
186,6,67941,1,0,0:0:0:0:
228,0,68029,1,0,0:0:0:0:
268,13,68117,2,0,L|308:28,1,41.5999997460938,8|0,0:0|0:0,0:0:0:0:
337,162,68294,2,0,L|297:148,1,41.5999997460938
384,95,68470,5,2,0:0:0:0:
412,128,68558,1,0,0:0:0:0:
419,169,68647,1,0,0:0:0:0:
405,209,68735,1,0,0:0:0:0:
372,237,68823,2,0,L|330:244,1,41.5999997460938,8|0,0:0|0:0,0:0:0:0:
196,364,68999,2,0,L|238:357,1,41.5999997460938
174,148,69176,5,2,0:0:0:0:
134,133,69264,1,0,0:0:0:0:
92,140,69352,1,0,0:0:0:0:
59,168,69441,1,0,0:0:0:0:
45,208,69529,2,0,L|52:250,1,41.5999997460938,8|0,0:0|0:0,0:0:0:0:
243,297,69705,2,0,L|236:255,1,41.5999997460938
127,215,69882,5,2,0:0:0:0:
166,229,69970,1,0,0:0:0:0:
208,222,70058,1,0,0:0:0:0:
241,195,70147,1,0,0:0:0:0:
256,155,70235,2,0,L|248:113,1,41.5999997460938,8|0,0:0|0:0,0:0:0:0:
57,66,70411,2,0,L|64:108,1,41.5999997460938
268,13,70588,5,2,0:0:0:0:
310,6,70676,1,0,0:0:0:0:
350,20,70764,1,0,0:0:0:0:
377,53,70852,1,0,0:0:0:0:
384,95,70941,2,0,L|370:135,1,41.5999997460938,8|0,0:0|0:0,0:0:0:0:
139,73,71117,2,0,L|154:33,1,41.5999997460938
372,237,71294,5,2,0:0:0:0:
330,244,71382,1,0,0:0:0:0:
290,229,71470,1,0,0:0:0:0:
263,197,71558,1,0,0:0:0:0:
256,155,71647,2,0,L|270:115,1,41.5999997460938,8|0,0:0|0:0,0:0:0:0:
454,244,71823,2,0,L|440:284,1,41.5999997460938
208,222,71999,5,2,0:0:0:0:
176,250,72088,1,0,0:0:0:0:
161,290,72176,1,0,0:0:0:0:
168,331,72264,1,0,0:0:0:0:
196,364,72352,2,0,L|236:378,1,41.5999997460938,8|0,0:0|0:0,0:0:0:0:
372,237,72529,2,0,L|332:222,1,41.5999997460938
243,297,72705,5,2,0:0:0:0:
283,311,72794,1,0,0:0:0:0:
325,304,72882,1,0,0:0:0:0:
357,277,72970,1,0,0:0:0:0:
372,237,73058,2,0,L|365:195,1,41.5999997460938,8|0,0:0|0:0,0:0:0:0:
174,147,73235,2,0,L|181:189,1,41.5999997460938
350,20,73411,5,2,0:0:0:0:
392,13,73499,1,0,0:0:0:0:
432,27,73588,1,0,0:0:0:0:
459,60,73676,1,0,0:0:0:0:
466,102,73764,2,0,L|452:142,1,41.5999997460938,8|0,0:0|0:0,0:0:0:0:
256,155,73941,2,0,L|270:115,1,41.5999997460938
454,244,74117,5,2,0:0:0:0:
412,251,74205,1,0,0:0:0:0:
372,237,74294,1,0,0:0:0:0:
345,204,74382,1,0,0:0:0:0:
337,162,74470,2,0,L|352:122,1,41.5999997460938,8|0,0:0|0:0,0:0:0:0:
186,6,74647,2,0,L|172:46,1,41.5999997460938
127,215,74823,5,2,0:0:0:0:
134,257,74911,1,0,0:0:0:0:
161,290,74999,1,0,0:0:0:0:
201,304,75088,1,0,0:0:0:0:
243,297,75176,2,0,L|276:269,1,41.5999997460938,8|0,0:0|0:0,0:0:0:0:
221,80,75352,2,0,L|188:108,1,41.5999997460938
79,283,75529,5,2,0:0:0:0:
87,324,75617,1,0,0:0:0:0:
114,357,75705,1,0,0:0:0:0:
154,371,75794,1,0,0:0:0:0:
196,364,75882,2,0,B|238:357|278:371|278:371|318:386,1,125.999996154785,10|0,0:0|0:0,0:0:0:0:
360,378,76235,6,0,P|392:351|407:311,1,86.4000021093751,2|0,0:0|0:0,0:0:0:0:
174,148,76588,2,0,P|141:175|127:215,1,86.4000021093751,2|0,0:0|0:0,0:0:0:0:
325,304,76941,2,0,P|317:262|290:229,1,86.4000021093751,2|0,0:0|0:0,0:0:0:0:
208,222,77294,2,0,P|216:264|243:297,1,86.4000021093751,2|0,0:0|0:0,0:0:0:0:
372,237,77647,6,0,P|414:229|454:244,1,86.4000021093751,2|0,0:0|0:0,0:0:0:0:
196,364,77999,2,0,P|154:371|114:357,1,86.4000021093751,2|0,0:0|0:0,0:0:0:0:
92,141,78352,5,2,0:0:0:0:
96,119,78440,1,0,0:0:0:0:
106,100,78528,1,0,0:0:0:0:
120,84,78616,1,0,0:0:0:0:
138,73,78704,1,8,0:0:0:0:
159,66,78793,1,0,0:0:0:0:
181,66,78882,2,0,L|221:80,1,41.5999997460938
290,229,79058,5,2,0:0:0:0:
330,244,79147,1,0,0:0:0:0:
372,237,79235,2,0,L|405:209,1,41.5999997460938
303,88,79411,5,2,0:0:0:0:
263,73,79499,1,0,0:0:0:0:
221,80,79588,2,0,L|188:108,1,41.5999997460938
243,297,79764,5,2,0:0:0:0:
229,337,79852,1,0,0:0:0:0:
196,364,79941,2,0,L|154:371,1,41.5999997460938
45,208,80117,5,2,0:0:0:0:
59,168,80205,1,0,0:0:0:0:
92,141,80294,2,0,L|134:133,1,41.5999997460938
337,163,80470,5,2,0:0:0:0:
370,135,80559,1,0,0:0:0:0:
384,95,80647,2,0,L|377:53,1,41.5999997460938
174,148,80823,5,2,0:0:0:0:
181,189,80911,1,0,0:0:0:0:
208,222,80999,2,0,L|248:237,1,41.5999997460938
454,244,81176,5,2,0:0:0:0:
481,277,81264,1,0,0:0:0:0:
489,318,81352,2,0,L|474:358,1,41.5999997460938
256,155,81529,5,2,0:0:0:0:
270,115,81617,1,0,0:0:0:0:
303,88,81705,2,0,L|345:80,1,41.5999997460938
325,304,81882,5,2,0:0:0:0:
311,344,81970,1,0,0:0:0:0:
278,371,82058,2,0,L|236:378,1,41.5999997460938
337,162,82235,5,2,0:0:0:0:
379,155,82323,1,0,0:0:0:0:
419,169,82411,2,0,L|447:202,1,41.5999997460938
243,297,82588,5,2,0:0:0:0:
201,304,82676,1,0,0:0:0:0:
161,290,82764,2,0,L|134:257,1,41.5999997460938
221,80,82941,5,2,0:0:0:0:
235,40,83029,1,0,0:0:0:0:
268,13,83117,2,0,L|310:6,1,41.5999997460938
489,318,83294,6,0,L|481:277,1,41.5999997460938,2|0,0:0|0:0,0:0:0:0:
303,88,83470,2,0,L|310:130,1,41.5999997460938
278,371,83647,2,0,L|270:329,1,41.5999997460938,2|0,0:0|0:0,0:0:0:0:
139,73,83823,2,0,L|146:115,1,41.5999997460938
114,357,83999,5,2,0:0:0:0:
154,371,84088,1,0,0:0:0:0:
196,364,84176,1,0,0:0:0:0:
229,337,84264,1,0,0:0:0:0:
243,297,84352,5,2,0:0:0:0:
258,257,84441,1,0,0:0:0:0:
290,229,84529,2,0,L|332:222,1,41.5999997460938
161,290,84705,5,2,0:0:0:0:
134,257,84794,1,0,0:0:0:0:
127,215,84882,2,0,L|141:175,1,41.5999997460938
384,95,85058,5,2,0:0:0:0:
412,128,85147,1,0,0:0:0:0:
419,169,85235,2,0,L|405:209,1,41.5999997460938
325,304,85411,5,2,0:0:0:0:
332,346,85499,1,0,0:0:0:0:
360,378,85587,2,0,L|400:393,1,41.5999997460938
337,162,85764,5,2,0:0:0:0:
297,148,85852,1,0,0:0:0:0:
256,155,85941,2,0,L|223:182,1,41.5999997460938
114,357,86117,5,2,0:0:0:0:
72,364,86205,1,0,0:0:0:0:
32,350,86294,2,0,L|5:317,1,41.5999997460938
10,134,86470,5,2,0:0:0:0:
24,94,86558,1,0,0:0:0:0:
57,66,86647,2,0,L|99:58,1,41.5999997460938
127,215,86823,5,2,0:0:0:0:
134,257,86911,1,0,0:0:0:0:
161,290,86999,1,0,0:0:0:0:
201,304,87088,1,0,0:0:0:0:
243,297,87176,2,0,B|276:269|290:229|290:229|305:189,1,125.999996154785,2|0,0:0|0:0,0:0:0:0:
337,162,87529,6,0,P|379:155|419:169,1,86.4000021093751,2|0,0:0|0:0,0:0:0:0:
208,222,87882,2,0,P|201:180|174:148,1,86.4000021093751,2|0,0:0|0:0,0:0:0:0:
10,134,88235,2,0,P|17:175|45:208,1,86.4000021093751,2|0,0:0|0:0,0:0:0:0:
185,6,88588,2,0,P|228:0|268:13,1,86.4000021093751,2|0,0:0|0:0,0:0:0:0:
337,162,88941,6,0,P|323:202|290:229,1,86.4000021093751,2|0,0:0|0:0,0:0:0:0:
174,148,89294,2,0,P|216:140|256:155,1,86.4000021093751,2|0,0:0|0:0,0:0:0:0:
243,297,89647,2,0,P|216:264|208:222,1,86.4000021093751,2|0,0:0|0:0,0:0:0:0:
325,304,89999,6,0,P|279:371|236:378,1,129.600003164063,2|0,0:0|0:0,0:0:0:0:
196,364,90352,1,2,0:0:0:0:
337,162,101647,5,2,0:0:0:0:
337,162,102176,1,2,0:0:0:0:
208,222,102352,1,8,0:0:0:0:
337,162,103235,5,2,0:0:0:0:
337,162,103588,1,2,0:0:0:0:
208,222,103764,1,8,0:0:0:0:
337,162,104117,1,2,0:0:0:0:
337,162,104470,1,2,0:0:0:0:
208,222,105176,5,8,0:0:0:0:
337,162,105529,1,2,0:0:0:0:
337,162,106235,1,2,0:0:0:0:
208,222,106588,1,8,0:0:0:0:
221,80,107117,5,0,0:0:0:0:
221,80,107205,1,0,0:0:0:0:
221,80,107294,1,2,0:0:0:0:
221,80,107823,1,2,0:0:0:0:
290,229,107999,1,8,0:0:0:0:
221,80,108882,5,2,0:0:0:0:
221,80,109235,1,2,0:0:0:0:
290,229,109411,1,8,0:0:0:0:
221,80,109764,1,2,0:0:0:0:
221,80,110117,1,2,0:0:0:0:
221,80,110647,5,2,0:0:0:0:
290,229,110823,1,8,0:0:0:0:
221,80,111176,1,2,0:0:0:0:
221,80,111882,1,2,0:0:0:0:
290,229,112235,1,8,0:0:0:0:
127,215,112941,5,2,0:0:0:0:
127,215,113470,1,2,0:0:0:0:
384,95,113647,1,8,0:0:0:0:
127,215,114529,5,2,0:0:0:0:
127,215,114882,1,2,0:0:0:0:
384,95,115058,1,8,0:0:0:0:
127,215,115411,1,2,0:0:0:0:
127,215,115764,1,2,0:0:0:0:
384,95,116470,5,8,0:0:0:0:
127,215,116823,1,2,0:0:0:0:
127,215,117529,1,2,0:0:0:0:
384,95,117882,1,8,0:0:0:0:
186,6,118411,5,0,0:0:0:0:
186,6,118499,1,0,0:0:0:0:
186,6,118588,1,2,0:0:0:0:
186,6,119117,1,2,0:0:0:0:
290,229,119294,1,8,0:0:0:0:
186,6,120176,5,2,0:0:0:0:
186,6,120529,1,2,0:0:0:0:
290,229,120705,1,8,0:0:0:0:
186,6,121058,1,2,0:0:0:0:
186,6,121411,1,2,0:0:0:0:
186,6,121941,5,2,0:0:0:0:
290,229,122117,1,8,0:0:0:0:
186,6,122470,1,2,0:0:0:0:
208,222,122823,5,0,0:0:0:0:
208,222,122911,1,0,0:0:0:0:
208,222,122999,1,0,0:0:0:0:
174,148,123176,1,0,0:0:0:0:
337,162,123352,5,0,0:0:0:0:
337,162,123441,1,0,0:0:0:0:
337,162,123529,1,0,0:0:0:0:
372,237,123705,1,0,0:0:0:0:
256,155,123904,6,0,L|251:145,2,10.3999999365234
290,229,124058,2,0,L|294:238,2,10.3999999365234
127,215,124235,6,0,L|117:211,127,10.3999999365234,2|0|0|0|0|0|0|0|0|0|0|0|0|0|0|0|0|0|0|0|0|0|0|0|0|0|0|0|0|0|0|0|0|0|0|0|0|0|0|0|0|0|0|0|0|0|0|0|0|0|0|0|0|0|0|0|0|0|0|0|0|0|0|0|0|0|0|0|0|0|0|0|0|0|0|0|0|0|0|0|0|0|0|0|0|0|0|0|0|0|0|0|0|0|0|0|0|0|0|0|0|0|0|0|0|0|0|0|0|0|0|0|0|0|0|0|0|0|0|0|0|0|0|0|0|0|0|0,0:0|0:0|0:0|0:0|0:0|0:0|0:0|0:0|0:0|0:0|0:0|0:0|0:0|0:0|0:0|0:0|0:0|0:0|0:0|0:0|0:0|0:0|0:0|0:0|0:0|0:0|0:0|0:0|0:0|0:0|0:0|0:0|0:0|0:0|0:0|0:0|0:0|0:0|0:0|0:0|0:0|0:0|0:0|0:0|0:0|0:0|0:0|0:0|0:0|0:0|0:0|0:0|0:0|0:0|0:0|0:0|0:0|0:0|0:0|0:0|0:0|0:0|0:0|0:0|0:0|0:0|0:0|0:0|0:0|0:0|0:0|0:0|0:0|0:0|0:0|0:0|0:0|0:0|0:0|0:0|0:0|0:0|0:0|0:0|0:0|0:0|0:0|0:0|0:0|0:0|0:0|0:0|0:0|0:0|0:0|0:0|0:0|0:0|0:0|0:0|0:0|0:0|0:0|0:0|0:0|0:0|0:0|0:0|0:0|0:0|0:0|0:0|0:0|0:0|0:0|0:0|0:0|0:0|0:0|0:0|0:0|0:0|0:0|0:0|0:0|0:0|0:0|0:0,0:0:0:0:
207,221,129882,6,0,P|241:195|256:155,1,86.4000021093751
372,237,130588,2,0,P|365:195|337:162,1,86.4000021093751
174,148,131294,1,0,0:0:0:0:
243,297,131647,1,0,0:0:0:0:
303,88,131999,2,0,P|345:80|384:95,1,86.4000021093751
169,147,132705,6,0,B|101:148|64:88|64:88|89:159|45:208|45:208|42:256|79:283|79:283|164:244|243:297|243:297|328:288|328:288|307:272|292:247,1,648.000015820313
303,88,135529,6,0,P|345:80|384:95,1,86.4000021093751,2|0,0:0|0:0,0:0:0:0:
372,237,135882,2,0,P|345:204|337:162,1,86.4000021093751,2|0,0:0|0:0,0:0:0:0:
432,27,136235,2,0,P|459:60|466:102,1,86.4000021093751,2|0,0:0|0:0,0:0:0:0:
454,244,136588,2,0,P|447:202|419:169,1,86.4000021093751,2|0,0:0|0:0,0:0:0:0:
174,148,136941,5,2,0:0:0:0:
372,237,137117,1,0,0:0:0:0:
301,88,137294,5,2,0:0:0:0:
291,229,137470,1,0,0:0:0:0:
419,169,137647,5,2,0:0:0:0:
208,222,137823,1,0,0:0:0:0:
325,304,137999,5,2,0:0:0:0:
221,80,138176,1,0,0:0:0:0:
161,290,138352,6,0,P|201:304|243:297,1,86.4000021093751,2|0,0:0|0:0,0:0:0:0:
174,148,138705,2,0,P|133:133|91:140,1,86.4000021093751,2|0,0:0|0:0,0:0:0:0:
208,222,139058,2,0,P|241:195|256:155,1,86.4000021093751,2|0,0:0|0:0,0:0:0:0:
127,215,139411,2,0,P|94:243|79:283,1,86.4000021093751,2|0,0:0|0:0,0:0:0:0:
174,148,139764,5,2,0:0:0:0:
161,290,139941,1,0,0:0:0:0:
208,222,140117,5,2,0:0:0:0:
114,357,140294,1,0,0:0:0:0:
243,297,140470,5,2,0:0:0:0:
32,350,140646,1,0,0:0:0:0:
256,154,140823,5,2,0:0:0:0:
104,0,140999,1,0,0:0:0:0:
71,26,141087,1,0,0:0:0:0:
57,66,141175,5,2,0:0:0:0:
268,13,141352,1,2,0:0:0:0:
92,141,141529,1,2,0:0:0:0:
186,6,141705,1,2,0:0:0:0:
127,215,141882,5,2,0:0:0:0:
268,13,142058,1,2,0:0:0:0:
161,290,142235,1,2,0:0:0:0:
186,6,142411,1,2,0:0:0:0:
243,297,142588,5,2,0:0:0:0:
268,13,142764,1,2,0:0:0:0:
208,222,142941,1,2,0:0:0:0:
350,20,143117,1,2,0:0:0:0:
174,148,143294,5,2,0:0:0:0:
384,95,143470,1,2,0:0:0:0:
221,80,143646,1,2,0:0:0:0:
337,162,143823,1,2,0:0:0:0:
256,155,143999,5,2,0:0:0:0:
256,155,144088,2,0,L|235:154,2,21.6000005273438
419,169,144352,1,0,0:0:0:0:
419,169,144441,2,0,L|441:171,2,21.6000005273438
290,229,144705,5,0,0:0:0:0:
290,229,144794,2,0,L|269:228,2,21.6000005273438
372,237,145058,1,0,0:0:0:0:
372,237,145146,2,0,L|394:239,2,21.6000005273438
325,304,145411,5,2,0:3:0:0:
325,304,145764,1,2,0:3:0:0:
325,304,146117,5,10,0:3:0:0:
161,290,146294,1,8,0:3:0:0:
256,155,146470,1,8,0:3:0:0:
325,304,146646,1,8,0:3:0:0:
92,141,146823,6,0,P|108:101|140:72,1,86.4000021093751,2|0,0:0|0:0,0:0:0:0:
243,297,147176,1,8,0:0:0:0:
174,148,147352,1,0,0:0:0:0:
337,162,147529,5,0,0:0:0:0:
337,162,147617,1,0,0:0:0:0:
337,162,147705,1,2,0:0:0:0:
79,283,147882,1,8,0:0:0:0:
92,141,148058,1,0,0:0:0:0:
325,304,148235,6,0,P|310:344|278:371,1,86.4000021093751,2|0,0:0|0:0,0:0:0:0:
454,244,148588,1,8,0:0:0:0:
243,296,148764,1,0,0:0:0:0:
256,155,148941,5,0,0:0:0:0:
256,155,149029,1,0,0:0:0:0:
256,155,149117,1,2,0:0:0:0:
442,384,149294,1,8,0:0:0:0:
277,371,149470,1,0,0:0:0:0:
466,102,149646,6,0,P|459:60|432:27,1,86.4000021093751,2|0,0:0|0:0,0:0:0:0:
256,155,149999,1,8,0:0:0:0:
384,95,150176,1,0,0:0:0:0:
243,297,150352,5,0,0:0:0:0:
243,297,150441,1,0,0:0:0:0:
243,297,150529,1,2,0:0:0:0:
139,73,150705,1,8,0:0:0:0:
127,215,150882,1,0,0:0:0:0:
104,0,151058,5,2,0:0:0:0:
174,147,151235,1,0,0:0:0:0:
350,20,151411,5,8,0:0:0:0:
92,141,151588,1,0,0:0:0:0:
419,169,151764,5,0,0:0:0:0:
419,169,151852,1,0,0:0:0:0:
419,169,151941,1,2,0:0:0:0:
350,20,152117,5,8,0:0:0:0:
325,304,152294,1,0,0:0:0:0:
283,311,152382,1,0,0:0:0:0:
243,297,152470,6,0,P|216:264|208:222,1,86.4000021093751,2|0,0:0|0:0,0:0:0:0:
419,169,152823,5,8,0:0:0:0:
290,229,152999,1,0,0:0:0:0:
303,88,153176,5,0,0:0:0:0:
372,237,153352,1,2,0:0:0:0:
384,95,153529,5,8,0:0:0:0:
290,229,153705,1,0,0:0:0:0:
350,20,153882,5,2,0:0:0:0:
337,162,154058,1,0,0:0:0:0:
268,13,154235,5,8,0:0:0:0:
419,169,154411,1,0,0:0:0:0:
350,20,154588,5,0,0:0:0:0:
290,229,154764,1,2,0:0:0:0:
432,27,154941,5,8,0:0:0:0:
208,222,155117,1,0,0:0:0:0:
501,176,155294,6,0,P|487:216|454:244,1,86.4000021093751,2|0,0:0|0:0,0:0:0:0:
372,237,155646,2,0,P|379:278|407:311,1,86.4000021093751,8|0,0:0|0:0,0:0:0:0:
290,229,155999,6,0,P|276:269|242:297,1,86.4000021093751,0|2,0:0|0:0,0:0:0:0:
174,147,156352,2,0,P|180:190|208:222,1,86.4000021093751,8|0,0:0|0:0,0:0:0:0:
256,155,156705,5,2,0:0:0:0:
161,290,156882,1,0,0:0:0:0:
220,80,157058,5,8,0:0:0:0:
243,297,157235,1,0,0:0:0:0:
303,88,157411,5,0,0:0:0:0:
302,67,157499,1,0,0:0:0:0:
296,46,157587,1,2,0:0:0:0:
284,28,157675,1,0,0:0:0:0:
268,13,157763,1,8,0:0:0:0:
249,3,157852,1,0,0:0:0:0:
228,0,157940,1,0,0:0:0:0:
207,0,158028,1,0,0:0:0:0:
186,6,158117,6,0,P|154:33|139:73,1,86.4000021093751,2|0,0:0|0:0,0:0:0:0:
174,148,158470,5,10,0:0:0:0:
337,161,158646,1,0,0:0:0:0:
220,80,158823,5,2,0:0:0:0:
208,222,158999,1,2,0:0:0:0:
337,161,159176,5,10,0:0:0:0:
174,148,159352,1,0,0:0:0:0:
290,229,159529,5,2,0:0:0:0:
303,88,159705,1,0,0:0:0:0:
174,148,159882,5,10,0:0:0:0:
372,237,160058,1,0,0:0:0:0:
384,95,160235,5,2,0:0:0:0:
256,155,160411,1,2,0:0:0:0:
454,244,160588,5,10,0:0:0:0:
303,88,160764,1,0,0:0:0:0:
303,89,160852,1,0,0:0:0:0:
303,89,160940,5,2,0:0:0:0:
243,297,161117,1,0,0:0:0:0:
92,141,161294,5,10,0:0:0:0:
337,161,161470,1,0,0:0:0:0:
196,364,161646,5,2,0:0:0:0:
220,80,161823,1,2,0:0:0:0:
454,244,161999,5,10,0:0:0:0:
161,290,162176,1,0,0:0:0:0:
268,13,162352,5,2,0:0:0:0:
372,237,162529,1,2,0:0:0:0:
127,214,162705,5,10,0:0:0:0:
350,20,162882,1,0,0:0:0:0:
407,311,163058,5,2,0:0:0:0:
174,148,163235,1,2,0:0:0:0:
432,27,163411,5,10,0:0:0:0:
243,297,163588,1,2,0:0:0:0:
243,297,163676,1,0,0:0:0:0:
243,297,163764,5,2,0:0:0:0:
104,0,163941,1,0,0:0:0:0:
278,371,164117,5,10,0:0:0:0:
432,27,164294,1,0,0:0:0:0:
10,134,164470,5,2,0:0:0:0:
360,378,164647,1,2,0:0:0:0:
268,13,164823,5,10,0:0:0:0:
32,350,164999,1,0,0:0:0:0:
489,318,165176,5,2,0:0:0:0:
186,6,165352,1,0,0:0:0:0:
196,364,165529,5,10,0:0:0:0:
466,102,165705,1,0,0:0:0:0:
139,77,165882,5,2,0:0:0:0:
278,371,166058,1,2,0:0:0:0:
466,102,166235,5,10,0:0:0:0:
92,141,166411,1,0,0:0:0:0:
488,318,166588,5,2,0:0:0:0:
474,358,167117,1,2,0:0:0:0:
442,386,167646,2,0,L|360:378,1,83.1999994921875,2|0,0:0|0:0,0:0:0:0:
325,304,168352,2,0,L|407:311,1,83.1999994921875,2|0,0:0|0:0,0:0:0:0:
256,155,169058,5,8,0:0:0:0:
161,290,169235,1,2,0:0:0:0:
139,73,169411,5,2,0:0:0:0:
99,58,169499,1,0,0:0:0:0:
57,66,169588,1,0,0:0:0:0:
24,94,169676,1,0,0:0:0:0:
10,134,169764,2,0,L|17:175,1,41.5999997460938,8|0,0:0|0:0,0:0:0:0:
79,283,169941,2,0,L|72:240,1,41.5999997460938
92,141,170117,5,2,0:0:0:0:
132,155,170205,1,0,0:0:0:0:
174,148,170294,1,0,0:0:0:0:
206,120,170382,1,0,0:0:0:0:
221,80,170470,2,0,L|213:39,1,41.5999997460938,8|0,0:0|0:0,0:0:0:0:
104,0,170647,2,0,L|111:41,1,41.5999997460938
350,20,170823,5,2,0:0:0:0:
377,53,170911,1,0,0:0:0:0:
384,95,170999,1,0,0:0:0:0:
370,135,171088,1,0,0:0:0:0:
337,162,171176,2,0,L|296:170,1,41.5999997460938,8|0,0:0|0:0,0:0:0:0:
466,102,171352,2,0,L|508:95,1,41.5999997460938
372,237,171529,5,2,0:0:0:0:
414,229,171617,1,0,0:0:0:0:
454,244,171705,1,0,0:0:0:0:
481,277,171794,1,0,0:0:0:0:
489,318,171882,2,0,L|474:358,1,41.5999997460938,8|0,0:0|0:0,0:0:0:0:
278,371,172058,2,0,L|292:331,1,41.5999997460938
256,154,172235,5,2,0:0:0:0:
248,113,172323,1,0,0:0:0:0:
221,80,172411,1,0,0:0:0:0:
181,66,172499,1,0,0:0:0:0:
139,73,172588,2,0,L|106:101,1,41.5999997460938,8|0,0:0|0:0,0:0:0:0:
79,283,172764,2,0,L|112:255,1,41.5999997460938
325,304,172941,5,2,0:0:0:0:
317,262,173029,1,0,0:0:0:0:
290,229,173117,1,0,0:0:0:0:
250,215,173205,1,0,0:0:0:0:
208,222,173294,2,0,L|176:250,1,41.5999997460938,8|0,0:0|0:0,0:0:0:0:
196,364,173470,2,0,L|229:336,1,41.5999997460938
303,88,173647,5,2,0:0:0:0:
317,47,173735,1,0,0:0:0:0:
350,20,173823,1,0,0:0:0:0:
392,12,173911,1,0,0:0:0:0:
432,27,173999,2,0,L|459:60,1,41.5999997460938,8|0,0:0|0:0,0:0:0:0:
372,237,174176,2,0,L|345:204,1,41.5999997460938
208,222,174352,5,2,0:0:0:0:
166,229,174441,1,0,0:0:0:0:
127,215,174529,1,0,0:0:0:0:
99,182,174617,1,0,0:0:0:0:
92,141,174705,2,0,L|106:101,1,41.5999997460938,8|0,0:0|0:0,0:0:0:0:
256,155,174882,2,0,L|241:195,1,41.5999997460938
325,304,175058,5,2,0:0:0:0:
365,318,175147,1,0,0:0:0:0:
407,311,175235,1,0,0:0:0:0:
440,284,175323,1,0,0:0:0:0:
454,244,175411,2,0,L|447:202,1,41.5999997460938,8|0,0:0|0:0,0:0:0:0:
303,88,175588,2,0,L|310:130,1,41.5999997460938
208,222,175764,5,2,0:0:0:0:
176,250,175852,1,0,0:0:0:0:
161,290,175941,1,0,0:0:0:0:
168,331,176029,1,0,0:0:0:0:
196,364,176117,2,0,L|236:378,1,41.5999997460938,8|0,0:0|0:0,0:0:0:0:
372,237,176294,2,0,L|332:222,1,41.5999997460938
174,148,176470,5,2,0:0:0:0:
146,115,176558,1,0,0:0:0:0:
139,73,176647,1,0,0:0:0:0:
154,33,176735,1,0,0:0:0:0:
186,6,176823,2,0,L|228:0,1,41.5999997460938,8|0,0:0|0:0,0:0:0:0:
432,27,176999,2,0,L|390:35,1,41.5999997460938
419,169,177176,5,2,0:0:0:0:
405,209,177264,1,0,0:0:0:0:
372,237,177352,1,0,0:0:0:0:
330,244,177441,1,0,0:0:0:0:
290,229,177529,6,0,B|250:215|208:222|208:222|166:229,1,125.999996154785
278,371,177882,6,0,P|310:344|325:304,1,86.4000021093751,2|0,0:0|0:0,0:0:0:0:
92,141,178235,2,0,P|59:168|45:208,1,86.4000021093751,2|0,0:0|0:0,0:0:0:0:
337,162,178588,2,0,P|330:120|303:88,1,86.4000021093751,2|0,0:0|0:0,0:0:0:0:
174,147,178941,2,0,P|181:189|208:222,1,86.4000021093751,2|0,0:0|0:0,0:0:0:0:
372,237,179294,6,0,P|414:229|454:244,1,86.4000021093751,2|0,0:0|0:0,0:0:0:0:
196,364,179646,2,0,P|154:371|114:357,1,86.4000021093751,2|0,0:0|0:0,0:0:0:0:
92,141,179999,5,2,0:0:0:0:
96,119,180087,1,0,0:0:0:0:
106,100,180175,1,0,0:0:0:0:
120,84,180263,1,0,0:0:0:0:
138,73,180351,1,0,0:0:0:0:
159,66,180440,1,0,0:0:0:0:
181,66,180529,2,0,L|221:80,1,41.5999997460938
290,229,180705,5,2,0:0:0:0:
330,244,180794,1,0,0:0:0:0:
372,237,180882,1,0,0:0:0:0:
405,209,180970,1,0,0:0:0:0:
419,169,181058,1,2,0:0:0:0:
412,128,181147,1,0,0:0:0:0:
384,95,181235,1,0,0:0:0:0:
344,80,181323,1,0,0:0:0:0:
303,88,181411,5,2,0:0:0:0:
330,120,181499,1,0,0:0:0:0:
337,162,181588,1,0,0:0:0:0:
323,202,181676,1,0,0:0:0:0:
290,229,181764,1,2,0:0:0:0:
248,237,181852,1,0,0:0:0:0:
208,222,181941,1,0,0:0:0:0:
181,189,182029,1,0,0:0:0:0:
174,148,182117,5,2,0:0:0:0:
146,115,182205,1,0,0:0:0:0:
139,73,182294,1,0,0:0:0:0:
154,33,182382,1,0,0:0:0:0:
186,6,182470,1,2,0:0:0:0:
228,0,182558,1,0,0:0:0:0:
268,13,182647,1,0,0:0:0:0:
296,46,182735,1,0,0:0:0:0:
303,88,182823,5,2,0:0:0:0:
317,47,182911,1,0,0:0:0:0:
350,20,182999,1,0,0:0:0:0:
392,13,183088,1,0,0:0:0:0:
432,27,183176,1,2,0:0:0:0:
459,60,183264,1,0,0:0:0:0:
466,102,183352,1,0,0:0:0:0:
452,142,183441,1,0,0:0:0:0:
419,169,183529,5,2,0:0:0:0:
412,128,183617,1,0,0:0:0:0:
384,94,183705,1,0,0:0:0:0:
345,80,183794,1,0,0:0:0:0:
303,88,183882,1,2,0:0:0:0:
270,115,183970,1,0,0:0:0:0:
256,155,184058,1,0,0:0:0:0:
263,197,184147,1,0,0:0:0:0:
290,229,184235,5,2,0:0:0:0:
305,189,184323,1,0,0:0:0:0:
337,162,184411,1,0,0:0:0:0:
379,155,184499,1,0,0:0:0:0:
419,169,184588,1,2,0:0:0:0:
447,202,184676,1,0,0:0:0:0:
454,244,184764,1,0,0:0:0:0:
440,284,184852,1,0,0:0:0:0:
407,311,184941,6,0,L|400:269,1,41.5999997460938,2|0,0:0|0:0,0:0:0:0:
303,88,185117,2,0,L|310:130,1,41.5999997460938
278,371,185294,2,0,L|270:329,1,41.5999997460938,2|0,0:0|0:0,0:0:0:0:
139,73,185470,2,0,L|146:115,1,41.5999997460938
161,290,185647,5,2,0:0:0:0:
119,297,185735,1,0,0:0:0:0:
79,283,185823,1,0,0:0:0:0:
52,250,185911,1,0,0:0:0:0:
45,208,185999,1,2,0:0:0:0:
59,168,186088,1,0,0:0:0:0:
92,141,186176,1,0,0:0:0:0:
134,133,186264,1,0,0:0:0:0:
174,147,186352,5,2,0:0:0:0:
141,175,186441,1,0,0:0:0:0:
127,215,186529,1,0,0:0:0:0:
134,257,186617,1,0,0:0:0:0:
161,290,186705,1,2,0:0:0:0:
201,304,186794,1,0,0:0:0:0:
243,297,186882,1,0,0:0:0:0:
276,269,186970,1,0,0:0:0:0:
290,229,187058,5,2,0:0:0:0:
250,215,187147,1,0,0:0:0:0:
208,222,187235,1,0,0:0:0:0:
176,250,187323,1,0,0:0:0:0:
161,290,187411,1,2,0:0:0:0:
168,331,187499,1,0,0:0:0:0:
196,364,187588,1,0,0:0:0:0:
236,378,187676,1,0,0:0:0:0:
278,371,187764,5,2,0:0:0:0:
251,338,187852,1,0,0:0:0:0:
243,297,187941,1,0,0:0:0:0:
258,257,188029,1,0,0:0:0:0:
290,229,188117,1,2,0:0:0:0:
332,222,188205,1,0,0:0:0:0:
372,237,188294,1,0,0:0:0:0:
400,269,188382,1,0,0:0:0:0:
407,311,188470,5,2,0:0:0:0:
365,318,188558,1,0,0:0:0:0:
325,304,188647,1,0,0:0:0:0:
298,271,188735,1,0,0:0:0:0:
290,229,188823,2,0,B|305:189|337:162|337:162|370:135,1,125.999996154785,2|0,0:0|0:0,0:0:0:0:
384,95,189176,6,0,P|377:53|350:20,1,86.4000021093751,2|0,0:0|0:0,0:0:0:0:
173,147,189529,2,0,P|188:107|221:80,1,86.4000021093751,2|0,0:0|0:0,0:0:0:0:
208,222,189882,2,0,P|236:255|243:297,1,86.4000021093751,2|0,0:0|0:0,0:0:0:0:
126,214,190235,2,0,P|86:199|45:208,1,86.4000021093751,2|0,0:0|0:0,0:0:0:0:
372,237,190588,6,0,P|330:244|290:229,1,86.4000021093751,2|0,0:0|0:0,0:0:0:0:
303,88,190941,2,0,P|330:120|337:162,1,86.4000021093751,2|0,0:0|0:0,0:0:0:0:
208,222,191294,2,0,P|223:182|256:155,1,86.4000021093751,2|0,0:0|0:0,0:0:0:0:
454,244,191646,6,0,P|407:311|365:318,1,129.600003164063,2|0,0:0|0:0,0:0:0:0:
325,304,191999,1,2,0:0:0:0:
