osu file format v14

[General]
AudioFilename: audio.mp3
AudioLeadIn: 0
PreviewTime: -1
Countdown: 1
SampleSet: Normal
StackLeniency: 0.7
Mode: 0
LetterboxInBreaks: 0
WidescreenStoryboard: 0

[Editor]
DistanceSpacing: 1.2
BeatDivisor: 4
GridSize: 4
TimelineZoom: 2.4

[Metadata]
Title:
TitleUnicode:Dainty
Artist:Miraie & Setka
ArtistUnicode:Miraie & Setka
Creator:bronco2p
Version:Insane
Source:
Tags:
BeatmapID:1549552
BeatmapSetID:734390

[Difficulty]
HPDrainRate:7
CircleSize:5
OverallDifficulty:8
ApproachRate:8
SliderMultiplier:1.60000000596046
SliderTickRate:1

[Events]
//Background and Video events
//Break Periods
//Storyboard Layer 0 (Background)
//Storyboard Layer 1 (Fail)
//Storyboard Layer 2 (Pass)
//Storyboard Layer 3 (Foreground)
//Storyboard Sound Samples

[TimingPoints]
62,355.029585798817,4,1,0,100,1,0
8582,-166.666666666667,4,1,0,100,0,0
9115,-200,4,1,0,100,0,0
31127,-200,4,1,0,100,0,0
44618,-66.6666666666667,4,1,0,100,0,0

[HitObjects]
84,68,62,6,0,L|144:216,1,160.000000596046
244,104,772,1,0,0:0:0:0:
328,216,1127,1,0,0:0:0:0:
364,80,1482,6,0,L|204:88,1,160.000000596046
300,212,2192,1,0,0:0:0:0:
168,256,2547,1,0,0:0:0:0:
308,268,2902,6,0,L|196:148,1,160.000000596046
352,148,3612,1,0,0:0:0:0:
272,36,3967,1,0,0:0:0:0:
208,160,4322,6,0,L|92:44,1,160.000000596046
116,204,5032,2,0,L|248:108,1,160.000000596046
245,109,5476,1,0,0:0:0:0:
248,148,5564,1,0,0:0:0:0:
248,188,5653,1,0,0:0:0:0:
248,228,5742,1,0,0:0:0:0:
92,248,6097,5,0,0:0:0:0:
212,320,6452,1,0,0:0:0:0:
280,196,6807,1,0,0:0:0:0:
408,248,7162,2,0,L|408:104,1,120.000000447035
268,112,7872,6,0,L|268:260,1,140
184,216,8582,2,0,P|168:248|112:256,1,90.0000005960464
52,208,9114,2,0,P|56:176|112:140,1,95.9999974279405
144,140,9647,2,0,L|240:140,1,80.0000002980232
256,152,10357,1,0,0:0:0:0:
192,208,10712,5,0,0:0:0:0:
296,268,11067,1,0,0:0:0:0:
156,316,11422,2,0,P|180:336|236:328,1,80.0000002980232
296,296,12133,1,0,0:0:0:0:
296,296,12488,1,0,0:0:0:0:
356,244,12843,6,0,L|280:188,1,80.0000002980232
348,140,13553,1,0,0:0:0:0:
348,140,13908,1,0,0:0:0:0:
288,88,14263,6,0,P|272:112|216:112,1,80.000000298023
148,92,14973,1,0,0:0:0:0:
148,92,15328,1,0,0:0:0:0:
112,164,15683,6,0,P|120:184|184:192,1,80.000000298023
252,192,16393,1,0,0:0:0:0:
252,200,16437,1,0,0:0:0:0:
252,212,16482,1,0,0:0:0:0:
120,240,16748,5,0,0:0:0:0:
148,272,16837,1,0,0:0:0:0:
184,292,16925,1,0,0:0:0:0:
224,300,17014,1,0,0:0:0:0:
264,304,17103,2,0,P|296:304|356:288,1,80.000000298023
408,248,17813,5,0,0:0:0:0:
312,176,18168,1,0,0:0:0:0:
268,288,18523,2,0,P|228:288|196:260,1,80.000000298023
284,180,19233,2,0,P|248:152|208:148,1,80.000000298023
108,88,19943,5,0,0:0:0:0:
124,120,20476,1,0,0:0:0:0:
104,156,20919,1,0,0:0:0:0:
144,208,21275,1,0,0:0:0:0:
144,208,21630,1,0,0:0:0:0:
144,240,21985,6,0,P|144:272|184:320,1,80.000000298023
288,316,22695,1,0,0:0:0:0:
256,192,22783,12,0,25446,0:0:0:0:
304,316,26955,5,0,0:0:0:0:
276,244,27665,1,0,0:0:0:0:
172,184,28020,1,0,0:0:0:0:
188,160,28109,1,0,0:0:0:0:
212,144,28198,1,0,0:0:0:0:
296,108,28375,5,0,0:0:0:0:
372,200,28730,1,0,0:0:0:0:
252,220,29085,1,0,0:0:0:0:
164,136,29440,1,0,0:0:0:0:
120,248,29795,5,0,0:0:0:0:
164,136,30150,1,0,0:0:0:0:
264,204,30505,1,0,0:0:0:0:
196,304,30860,1,0,0:0:0:0:
108,184,31215,6,0,B|108:160|160:72|284:56|284:56|308:56|376:56|444:84|444:84|432:116,1,420.000001564621
140,120,33967,5,0,0:0:0:0:
312,224,34322,1,0,0:0:0:0:
304,88,34677,1,0,0:0:0:0:
104,104,35032,1,0,0:0:0:0:
152,300,35387,1,0,0:0:0:0:
348,344,35742,1,0,0:0:0:0:
224,188,36097,1,0,0:0:0:0:
384,68,36452,1,0,0:0:0:0:
252,312,36807,1,0,0:0:0:0:
252,312,37162,5,0,0:0:0:0:
116,116,37517,1,0,0:0:0:0:
420,300,37872,1,0,0:0:0:0:
316,84,38227,1,0,0:0:0:0:
324,324,38582,1,0,0:0:0:0:
320,84,38937,1,0,0:0:0:0:
176,276,39292,5,0,0:0:0:0:
116,288,39381,1,0,0:0:0:0:
68,248,39470,1,0,0:0:0:0:
60,188,39559,1,0,0:0:0:0:
100,144,39647,1,0,0:0:0:0:
196,68,39825,5,0,0:0:0:0:
272,168,40002,1,0,0:0:0:0:
136,148,40180,1,0,0:0:0:0:
264,100,40357,1,0,0:0:0:0:
228,240,40535,5,0,0:0:0:0:
164,112,40712,1,0,0:0:0:0:
304,172,40890,1,0,0:0:0:0:
212,52,41067,1,0,0:0:0:0:
156,204,41245,5,0,0:0:0:0:
260,84,41422,1,0,0:0:0:0:
220,248,41600,1,0,0:0:0:0:
204,80,41777,1,0,0:0:0:0:
288,236,41955,5,0,0:0:0:0:
156,120,42133,1,0,0:0:0:0:
336,188,42310,1,0,0:0:0:0:
144,192,42488,1,0,0:0:0:0:
144,192,42532,1,0,0:0:0:0:
144,192,42576,1,0,0:0:0:0:
408,312,42843,1,0,0:0:0:0:
408,312,42887,1,0,0:0:0:0:
408,312,42931,1,0,0:0:0:0:
144,72,43198,5,0,0:0:0:0:
144,72,43242,1,0,0:0:0:0:
144,72,43286,1,0,0:0:0:0:
328,368,43553,1,0,0:0:0:0:
328,368,43597,1,0,0:0:0:0:
328,368,43641,1,0,0:0:0:0:
312,360,44085,5,0,0:0:0:0:
312,360,44263,1,0,0:0:0:0:
288,332,44618,1,0,0:0:0:0:
356,284,44795,6,0,P|372:260|368:216,1,60.0000025123357
324,240,44973,2,0,P|320:212|344:112,1,120.000005024671
52,48,45328,1,0,0:0:0:0:
328,316,45683,1,0,0:0:0:0:
384,68,46038,5,0,0:0:0:0:
384,68,46393,1,0,0:0:0:0:
72,252,46748,1,0,0:0:0:0:
468,224,47103,1,0,0:0:0:0:
136,160,47458,1,0,0:0:0:0:
240,300,47813,1,0,0:0:0:0:
408,144,48168,1,0,0:0:0:0:
72,64,48434,1,0,0:0:0:0:
128,284,48701,5,0,0:0:0:0:
128,284,48789,1,0,0:0:0:0:
276,344,49144,1,0,0:0:0:0:
400,232,49499,1,0,0:0:0:0:
152,156,49854,5,0,0:0:0:0:
336,64,50209,1,0,0:0:0:0:
176,320,50564,1,0,0:0:0:0:
100,304,50653,1,0,0:0:0:0:
56,240,50742,1,0,0:0:0:0:
72,164,50831,1,0,0:0:0:0:
200,252,51008,6,0,P|248:224|292:92,1,180.000007537007
152,84,51630,2,0,P|152:148|332:204,1,240.000010049343
400,64,52340,1,0,0:0:0:0:
400,64,52695,1,0,0:0:0:0:
116,292,53050,5,0,0:0:0:0:
116,292,53405,1,0,0:0:0:0:
96,184,53760,2,0,P|100:132|228:84,1,180.000007537007
202,75,54115,2,0,P|292:90|388:188,1,180.000007537007
361,144,54470,6,0,P|388:200|304:284,1,180.000007537007
320,283,54825,2,0,P|224:292|108:240,1,180.000007537007
146,266,55180,2,0,P|80:236|84:120,1,180.000007537007
70,138,55535,1,0,0:0:0:0:
108,132,55890,5,0,0:0:0:0:
100,64,56245,1,0,0:0:0:0:
412,48,56600,1,0,0:0:0:0:
92,328,56955,1,0,0:0:0:0:
248,324,57133,1,0,0:0:0:0:
172,188,57310,5,0,0:0:0:0:
320,240,57488,1,0,0:0:0:0:
228,116,57665,1,0,0:0:0:0:
380,160,57843,1,0,0:0:0:0:
292,32,58020,1,0,0:0:0:0:
300,188,58198,1,0,0:0:0:0:
188,80,58375,5,0,0:0:0:0:
192,236,58553,1,0,0:0:0:0:
72,140,58730,1,0,0:0:0:0:
228,168,58908,1,0,0:0:0:0:
56,336,59085,5,0,0:0:0:0:
288,280,59263,1,0,0:0:0:0:
44,68,59440,5,0,0:0:0:0:
368,288,59618,1,0,0:0:0:0:
44,68,59795,1,0,0:0:0:0:
368,288,59973,1,0,0:0:0:0:
72,48,60150,1,0,0:0:0:0:
344,312,60328,1,0,0:0:0:0:
8,100,60505,1,0,0:0:0:0:
396,252,60683,1,0,0:0:0:0:
72,48,60860,5,0,0:0:0:0:
372,288,61038,1,0,0:0:0:0:
372,288,61570,1,0,0:0:0:0:
372,288,61925,5,0,0:0:0:0:
308,300,62014,1,0,0:0:0:0:
244,288,62103,1,0,0:0:0:0:
112,276,62280,2,0,P|92:220|220:116,1,240.000010049343
32,24,62902,5,0,0:0:0:0:
468,348,63257,1,0,0:0:0:0:
204,348,63612,2,0,P|160:352|180:200,1,240.000010049343
464,48,64322,1,0,0:0:0:0:
48,336,64677,1,0,0:0:0:0:
56,72,65032,6,0,P|56:160|232:168,1,300.000012561679
228,173,65564,2,0,P|268:112|444:224,1,300.000012561679
444,178,66097,2,0,P|456:244|296:328,1,240.000010049343
333,339,66452,2,0,P|264:336|104:184,1,300.000012561679
104,185,67517,5,0,0:0:0:0:
104,185,67695,1,0,0:0:0:0:
104,185,67872,5,0,0:0:0:0:
140,136,67961,1,0,0:0:0:0:
192,108,68050,1,0,0:0:0:0:
252,104,68138,1,0,0:0:0:0:
312,120,68227,5,0,0:0:0:0:
364,148,68316,1,0,0:0:0:0:
408,192,68405,1,0,0:0:0:0:
408,252,68493,1,0,0:0:0:0:
384,308,68582,5,0,0:0:0:0:
332,336,68671,1,0,0:0:0:0:
276,316,68760,1,0,0:0:0:0:
260,260,68848,1,0,0:0:0:0:
232,208,68937,5,0,0:0:0:0:
192,252,69026,1,0,0:0:0:0:
132,248,69115,1,0,0:0:0:0:
112,192,69204,1,0,0:0:0:0:
140,140,69292,5,0,0:0:0:0:
196,120,69381,1,0,0:0:0:0:
216,64,69470,1,0,0:0:0:0:
264,100,69559,1,0,0:0:0:0:
316,128,69647,6,0,L|344:116,1,30.0000012561679
356,144,69736,2,0,L|316:164,1,30.0000012561679
340,188,69825,2,0,L|368:176,1,30.0000012561679
376,204,69914,1,0,0:0:0:0:
388,264,70002,5,0,0:0:0:0:
352,312,70091,1,0,0:0:0:0:
292,312,70180,1,0,0:0:0:0:
256,264,70269,1,0,0:0:0:0:
284,212,70357,5,0,0:0:0:0:
280,152,70446,1,0,0:0:0:0:
220,152,70535,1,0,0:0:0:0:
220,212,70624,1,0,0:0:0:0:
200,268,70712,5,0,0:0:0:0:
140,268,70801,1,0,0:0:0:0:
92,236,70890,1,0,0:0:0:0:
72,180,70979,1,0,0:0:0:0:
60,120,71067,5,0,0:0:0:0:
64,60,71156,1,0,0:0:0:0:
124,72,71245,1,0,0:0:0:0:
116,132,71334,1,0,0:0:0:0:
60,120,71422,5,0,0:0:0:0:
60,60,71511,1,0,0:0:0:0:
124,72,71600,1,0,0:0:0:0:
116,132,71689,1,0,0:0:0:0:
120,192,71777,5,0,0:0:0:0:
168,228,71866,1,0,0:0:0:0:
228,236,71955,1,0,0:0:0:0:
268,192,72044,1,0,0:0:0:0:
212,176,72133,5,0,0:0:0:0:
168,228,72221,1,0,0:0:0:0:
164,288,72310,1,0,0:0:0:0:
212,324,72399,1,0,0:0:0:0:
272,332,72488,5,0,0:0:0:0:
276,272,72576,1,0,0:0:0:0:
272,332,72665,1,0,0:0:0:0:
212,324,72754,1,0,0:0:0:0:
164,288,72843,5,0,0:0:0:0:
216,256,72931,1,0,0:0:0:0:
248,204,73020,1,0,0:0:0:0:
192,180,73109,1,0,0:0:0:0:
188,120,73198,5,0,0:0:0:0:
232,76,73286,1,0,0:0:0:0:
292,64,73375,1,0,0:0:0:0:
348,88,73464,1,0,0:0:0:0:
408,128,73553,5,0,0:0:0:0:
440,192,73641,1,0,0:0:0:0:
428,264,73730,1,0,0:0:0:0:
388,324,73819,1,0,0:0:0:0:
320,344,73908,5,0,0:0:0:0:
252,324,73996,1,0,0:0:0:0:
208,264,74085,1,0,0:0:0:0:
232,196,74174,1,0,0:0:0:0:
296,164,74263,5,0,0:0:0:0:
312,232,74351,1,0,0:0:0:0:
252,272,74440,1,0,0:0:0:0:
184,296,74529,1,0,0:0:0:0:
112,288,74618,5,0,0:0:0:0:
72,228,74706,1,0,0:0:0:0:
8,192,74795,1,0,0:0:0:0:
12,264,74884,1,0,0:0:0:0:
72,228,74973,5,0,0:0:0:0:
8,192,75062,1,0,0:0:0:0:
12,264,75150,1,0,0:0:0:0:
72,224,75239,1,0,0:0:0:0:
136,192,75328,5,0,0:0:0:0:
192,148,75417,1,0,0:0:0:0:
264,144,75505,1,0,0:0:0:0:
248,216,75594,1,0,0:0:0:0:
196,168,75683,5,0,0:0:0:0:
268,156,75772,1,0,0:0:0:0:
224,212,75860,1,0,0:0:0:0:
220,140,75949,1,0,0:0:0:0:
276,184,76038,5,0,0:0:0:0:
204,196,76127,1,0,0:0:0:0:
248,140,76215,1,0,0:0:0:0:
268,208,76304,1,0,0:0:0:0:
236,272,76393,6,0,P|188:312|96:340,2,120.000005024671
272,224,77103,2,0,L|340:124,2,120.000005024671
