osu file format v14

[General]
AudioFilename: akari ga yatte kita zo.mp3
AudioLeadIn: 0
PreviewTime: 137663
Countdown: 0
SampleSet: Soft
StackLeniency: 0.7
Mode: 0
LetterboxInBreaks: 1
WidescreenStoryboard: 1

[Editor]
Bookmarks: 1836,23012,37130,65365,81247,113012,137718,153380,180953,212056,240071,277130
DistanceSpacing: 0.2
BeatDivisor: 4
GridSize: 4
TimelineZoom: 1.7

[Metadata]
Title:Akari ga Yattekita zo
TitleUnicode:アカリがやってきたぞっ
Artist:Mirai Akari
ArtistUnicode:ミライアカリ
Creator:HICCA
Version:Hai!
Source:
Tags:紲星あかり virtual youtuber vocaloid voiceloid kizuna gyari ココアシガレットP nico douga hicari
BeatmapID:1849487
BeatmapSetID:874575

[Difficulty]
HPDrainRate:5
CircleSize:4
OverallDifficulty:8
ApproachRate:9.4
SliderMultiplier:2.5
SliderTickRate:1

[Events]
//Background and Video events
Video,0,"akari ga yatte kita zo.avi"
0,0,"BG.jpg",0,0
//Break Periods
//Storyboard Layer 0 (Background)
//Storyboard Layer 1 (Fail)
//Storyboard Layer 2 (Pass)
//Storyboard Layer 3 (Foreground)
//Storyboard Layer 4 (Overlay)
//Storyboard Sound Samples

[TimingPoints]
1836,441.176470588235,4,2,1,100,1,0
1836,-133.333333333333,4,2,1,30,0,0
15953,-133.333333333333,4,2,1,40,0,0
17718,-133.333333333333,4,2,1,45,0,0
19483,-133.333333333333,4,2,1,50,0,0
21247,-133.333333333333,4,2,1,55,0,0
21688,-133.333333333333,4,2,1,60,0,0
22130,-100,4,2,1,45,0,0
22350,-80,4,2,1,45,0,0
22571,-66.6666666666667,4,2,1,70,0,0
23012,-80,4,2,1,70,0,0
28747,-66.6666666666667,4,2,1,70,0,0
29188,-80,4,2,1,70,0,0
35365,-80,4,2,1,40,0,0
36247,-80,4,2,1,70,0,0
37130,-100,4,2,1,55,0,0
51247,-90.9090909090909,4,2,1,60,0,0
65365,-80,4,2,1,70,0,0
79483,-133.333333333333,4,2,1,70,0,0
80585,-133.333333333333,4,2,1,50,0,0
81137,-133.333333333333,4,2,1,5,0,0
81247,-66.6666666666667,4,2,1,75,0,1
107718,-80,4,2,1,75,0,1
107938,-80,4,2,1,50,0,1
109483,-133.333333333333,4,2,1,40,0,0
123600,-133.333333333333,4,2,1,50,0,0
136835,-100,4,2,1,40,0,0
137608,-100,4,2,1,5,0,0
137718,-80,4,2,1,70,0,0
151863,-80,4,2,1,5,0,0
152277,-80,4,2,1,10,0,0
152497,-80,4,2,1,15,0,0
152718,-80,4,2,1,20,0,0
153380,-100,4,2,1,60,0,0
166835,-90.9090909090909,4,2,1,60,0,0
167277,-100,4,2,1,60,0,0
178306,-133.333333333333,4,2,1,50,0,0
181835,-200,4,2,1,40,0,0
208306,-200,4,2,1,30,0,0
212056,-133.333333333333,4,2,1,50,0,0
213490,-133.333333333333,4,2,1,5,0,0
213600,-66.6666666666667,4,2,1,75,0,1
240071,-100,4,2,1,50,0,0
241725,-399.999999999997,4,2,1,50,0,0
242277,-57.1428571428571,4,2,1,75,0,1
252424,-80,4,2,1,75,0,1
252865,-66.6666666666667,4,2,1,75,0,1
253306,-57.1428571428571,4,2,1,75,0,1
253637,-50,4,2,1,75,0,1
253968,-57.1428571428571,4,2,1,75,0,1
270071,-200,4,2,1,65,0,1
272718,-133.333333333333,4,2,1,75,0,1
277130,-80,4,2,1,70,0,0
289483,-80,4,2,1,40,0,0
290365,-80,4,2,1,70,0,0
291468,-200,4,2,1,50,0,0
291578,-200,4,2,1,5,0,0

[HitObjects]
256,192,1837,5,8,0:0:0:0:
128,80,2057,2,0,L|220:66,1,93.7500035762789,2|0,0:0|0:0,0:0:0:0:
128,80,2497,2,0,L|220:66,1,93.7500035762789,2|0,0:0|0:0,0:0:0:0:
128,80,2938,2,0,L|220:66,1,93.7500035762789,2|0,0:0|0:0,0:0:0:0:
128,80,3380,2,0,L|220:66,1,93.7500035762789,2|0,0:0|0:0,0:0:0:0:
128,80,3822,2,0,L|220:66,1,93.7500035762789,2|0,0:0|0:0,0:0:0:0:
128,80,4263,2,0,L|220:66,1,93.7500035762789,2|0,0:0|0:0,0:0:0:0:
128,80,4704,2,0,L|220:66,1,93.7500035762789,2|0,0:0|0:0,0:0:0:0:
128,80,5145,2,0,L|174:73,1,46.8750017881394,2|0,0:0|0:0,0:0:0:0:
256,192,5366,5,8,0:0:0:0:
144,312,5585,2,0,L|128:192,1,93.7500035762789,2|0,0:0|0:0,0:0:0:0:
296,352,6028,2,0,L|308:259,1,93.7500035762789,2|0,0:0|0:0,0:0:0:0:
144,312,6469,2,0,L|128:192,1,93.7500035762789,2|0,0:0|0:0,0:0:0:0:
296,352,6910,2,0,L|308:259,1,93.7500035762789,2|0,0:0|0:0,0:0:0:0:
144,312,7351,2,0,L|128:192,1,93.7500035762789,2|0,0:0|0:0,0:0:0:0:
296,352,7792,2,0,L|308:259,1,93.7500035762789,2|0,0:0|0:0,0:0:0:0:
144,312,8233,2,0,L|128:192,1,93.7500035762789,2|0,0:0|0:0,0:0:0:0:
296,352,8674,2,0,L|305:277,1,46.8750017881394,2|0,0:0|0:0,0:0:0:0:
256,192,8895,5,8,0:0:0:0:
437,258,9116,2,0,L|434:317,1,46.8750017881394,2|0,0:0|0:0,0:0:0:0:
363,175,9335,1,8,0:0:0:0:
289,92,9556,2,0,L|291:32,1,46.8750017881394,2|0,0:0|0:0,0:0:0:0:
363,175,9778,2,0,P|317:164|272:176,1,93.7500035762789,8|2,0:0|0:0,0:0:0:0:
274,321,10109,2,0,P|305:286|317:242,1,93.7500035762789,8|0,0:0|0:0,0:0:0:0:
192,170,10439,2,0,P|208:218|226:235,1,46.8750017881394,10|0,0:0|0:0,0:0:0:0:
363,175,10660,5,8,0:0:0:0:
226,72,10881,2,0,L|272:67,1,46.8750017881394,2|0,0:0|0:0,0:0:0:0:
162,203,11101,1,8,0:0:0:0:
152,58,11321,2,0,L|190:30,1,46.8750017881394,2|0,0:0|0:0,0:0:0:0:
162,203,11541,2,0,P|111:225|77:274,1,93.7500035762788,8|2,0:0|0:0,0:0:0:0:
231,164,11873,2,0,P|186:130|127:125,1,93.7500035762788,8|0,0:0|0:0,0:0:0:0:
299,204,12204,2,0,P|310:184|313:150,1,46.8750017881394,10|0,0:0|0:0,0:0:0:0:
57,75,12425,6,0,P|55:130|76:176,1,93.7500035762788,8|2,0:0|0:0,0:0:0:0:
154,264,12756,1,0,0:0:0:0:
164,271,12866,2,0,L|223:262,1,46.8750017881394,8|0,0:0|0:0,0:0:0:0:
64,312,13086,2,0,L|5:303,1,46.8750017881394,2|0,0:0|0:0,0:0:0:0:
162,352,13307,2,0,L|256:337,1,93.7500035762788,8|2,0:0|0:0,0:0:0:0:
107,269,13638,2,0,L|12:254,1,93.7500035762788,8|0,0:0|0:0,0:0:0:0:
162,186,13969,2,0,L|209:178,1,46.8750017881394,10|0,0:0|0:0,0:0:0:0:
107,103,14189,5,8,0:0:0:0:
162,20,14410,1,2,0:0:0:0:
107,269,14631,2,0,L|12:254,1,93.7500035762788,2|0,0:0|0:0,0:0:0:0:
206,109,15072,2,0,B|186:178,1,46.8750017881394,8|0,0:0|0:0,0:0:0:0:
107,103,15292,2,0,B|56:51,1,46.8750017881394,2|0,0:0|0:0,0:0:0:0:
162,20,15513,2,0,B|258:1|258:1|263:29|241:41,1,140.625005364418,8|0,0:0|0:0,0:0:0:0:
151,192,15954,5,8,0:0:0:0:
307,120,16174,2,0,B|335:109|335:109|366:105,1,46.8750017881394,2|0,0:0|0:0,0:0:0:0:
297,301,16394,1,8,0:0:0:0:
459,219,16615,2,0,B|454:248|454:248|442:277,1,46.8750017881394,2|0,0:0|0:0,0:0:0:0:
307,120,16835,2,0,B|355:120|355:120|397:102,1,93.7500035762788,8|2,0:0|0:0,0:0:0:0:
459,219,17166,2,0,B|435:260|435:260|429:305,1,93.7500035762788,8|0,0:0|0:0,0:0:0:0:
297,301,17497,2,0,B|282:280|282:280|263:268,1,46.8750017881394,10|0,0:0|0:0,0:0:0:0:
350,213,17718,5,8,0:0:0:0:
328,28,17938,2,0,L|333:78,1,46.8750017881394,2|0,0:0|0:0,0:0:0:0:
273,225,18159,1,8,0:0:0:0:
400,69,18380,2,0,L|395:119,1,46.8750017881394,2|0,0:0|0:0,0:0:0:0:
196,237,18600,2,0,P|200:191|246:156,1,93.7500035762788,8|2,0:0|0:0,0:0:0:0:
398,192,18931,2,0,P|373:153|316:143,1,93.7500035762788,8|0,0:0|0:0,0:0:0:0:
297,301,19262,2,0,P|312:335|331:347,1,46.8750017881394,10|0,0:0|0:0,0:0:0:0:
474,109,19483,6,0,P|444:91|393:119,1,93.7500035762788,8|2,0:0|0:0,0:0:0:0:
301,43,19813,1,0,0:0:0:0:
293,59,19924,2,0,P|291:83|296:106,1,46.8750017881394,8|0,0:0|0:0,0:0:0:0:
430,227,20144,2,0,P|434:204|433:180,1,46.8750017881394,2|0,0:0|0:0,0:0:0:0:
250,202,20365,2,0,P|284:188|354:201,1,93.7500035762788,8|2,0:0|0:0,0:0:0:0:
354,363,20696,2,0,P|320:377|250:364,1,93.7500035762788,8|0,0:0|0:0,0:0:0:0:
302,281,21027,6,0,P|329:269|371:271,1,46.8750017881394,10|0,0:0|0:0,0:0:0:0:
450,317,21247,5,0,0:0:0:0:
418,281,21358,1,0,0:0:0:0:
409,235,21468,1,2,0:0:0:0:
418,189,21578,1,0,0:0:0:0:
478,152,21688,5,8,0:0:0:0:
448,103,21799,1,0,0:0:0:0:
394,84,21909,1,2,0:0:0:0:
336,97,22019,1,0,0:0:0:0:
277,139,22130,6,0,P|240:151|208:139,1,62.5
65,220,22350,6,0,P|54:184|65:136,1,78.125,2|0,0:0|0:0,0:0:0:0:
300,41,22571,6,0,P|374:89|223:203,1,281.250010728836,8|0,0:0|0:0,0:0:0:0:
257,144,23012,5,4,0:2:0:0:
277,139,23122,2,0,P|315:142|351:157,1,78.125,2|8,0:2|0:2,0:2:0:0:
335,301,23343,1,0,0:2:0:0:
356,311,23453,2,0,P|394:307|430:292,1,78.125,2|0,0:2|0:2,0:2:0:0:
427,80,23674,2,0,P|451:110|466:146,1,78.125,8|0,0:2|0:2,0:2:0:0:
280,246,23894,5,0,0:2:0:0:
258,227,24005,2,0,P|252:191|261:140,1,78.125,2|8,0:2|0:2,0:2:0:0:
430,291,24225,1,0,0:2:0:0:
416,314,24335,2,0,P|380:329|341:333,1,78.125,2|0,0:2|0:2,0:2:0:0:
170,333,24556,2,0,P|131:329|96:314,1,78.125,8|0,0:2|0:2,0:2:0:0:
50,149,24777,5,0,0:2:0:0:
35,177,24887,2,0,L|44:261,1,78.125,2|8,0:2|0:2,0:2:0:0:
170,115,25108,1,0,0:2:0:0:
155,143,25218,2,0,L|164:227,1,78.125,2|0,0:2|0:2,0:2:0:0:
272,94,25438,2,0,L|281:178,1,78.125,8|0,0:2|0:2,0:2:0:0:
87,65,25659,5,0,0:2:0:0:
112,44,25769,2,0,P|141:30|204:27,1,78.125,2|8,0:2|0:2,0:2:0:0:
219,219,25990,1,0,0:2:0:0:
137,208,26100,2,0,P|116:174|108:136,1,78.125,2|0,0:2|0:2,0:2:0:0:
250,295,26321,2,0,P|231:330|202:356,1,78.125,10|0,0:2|0:2,0:2:0:0:
269,154,26541,5,0,0:2:0:0:
283,144,26652,2,0,P|322:142|359:154,1,78.125,2|8,0:2|0:2,0:2:0:0:
269,285,26872,1,0,0:2:0:0:
250,295,26983,2,0,P|211:293|174:305,1,78.125,2|0,0:2|0:2,0:2:0:0:
403,352,27203,2,0,L|399:257,1,78.125,8|0,0:2|0:2,0:2:0:0:
265,75,27424,6,0,L|269:170,1,78.125,0|2,0:2|0:2,0:2:0:0:
458,282,27644,2,0,L|421:194,1,78.125,8|0,0:2|0:2,0:2:0:0:
210,145,27865,2,0,L|246:232,1,78.125,2|0,0:2|0:2,0:2:0:0:
485,197,28085,2,0,L|420:126,1,78.125,8|0,0:2|0:2,0:2:0:0:
183,230,28306,5,0,0:2:0:0:
403,89,28527,1,2,0:2:0:0:
326,314,28747,2,0,B|319:346|372:359|418:330|401:283|401:283|424:246|385:209|327:186|251:209|248:293,1,375.000014305115,2|0,0:2|0:2,0:2:0:0:
201,361,29299,1,0,0:2:0:0:
151,294,29409,2,0,P|190:278|240:288,1,78.125,2|0,0:2|0:2,0:2:0:0:
425,345,29630,1,2,0:2:0:0:
403,89,29850,2,0,B|391:121|391:121|406:179,1,78.125,0|0,0:2|0:2,0:2:0:0:
183,230,30071,5,4,0:2:0:0:
190,208,30181,2,0,B|202:176|202:176|187:118,1,78.125,2|8,0:2|0:2,0:2:0:0:
12,72,30401,1,0,0:2:0:0:
36,71,30512,2,0,L|120:62,1,78.125,2|0,0:2|0:2,0:2:0:0:
280,85,30733,2,0,L|202:93,1,78.125,8|0,0:2|0:2,0:2:0:0:
400,41,30953,5,0,0:2:0:0:
435,57,31063,2,0,P|455:90|458:128,1,78.125,2|8,0:2|0:2,0:2:0:0:
298,256,31284,1,0,0:2:0:0:
263,240,31394,2,0,P|242:206|239:168,1,78.125,2|0,0:2|0:2,0:2:0:0:
481,168,31615,2,0,P|477:206|457:239,1,78.125,8|0,0:2|0:2,0:2:0:0:
253,346,31835,5,0,0:2:0:0:
286,354,31946,2,0,L|372:344,1,78.125,2|8,0:2|0:2,0:2:0:0:
263,144,32166,1,0,0:2:0:0:
239,168,32277,2,0,L|204:247,1,78.125,2|0,0:2|0:2,0:2:0:0:
423,220,32497,2,0,L|371:150,1,78.125,8|0,0:2|0:2,0:2:0:0:
193,40,32717,5,0,0:2:0:0:
163,59,32828,2,0,P|127:88|119:135,1,78.125,2|8,0:2|0:2,0:2:0:0:
206,307,33049,1,0,0:2:0:0:
118,360,33159,2,0,L|15:353,1,78.125,2|0,0:2|0:2,0:2:0:0:
294,254,33380,2,0,L|397:261,1,78.125,10|0,0:2|0:2,0:2:0:0:
153,219,33600,5,0,0:2:0:0:
132,191,33710,2,0,L|139:88,1,78.125,2|8,0:2|0:2,0:2:0:0:
311,150,33931,1,0,0:2:0:0:
332,122,34041,2,0,L|325:19,1,78.125,2|0,0:2|0:2,0:2:0:0:
120,86,34262,2,0,L|125:8,1,78.125,8|0,0:2|0:2,0:2:0:0:
355,211,34483,6,0,P|318:196|280:190,1,78.125,0|2,0:2|0:2,0:2:0:0:
116,375,34703,2,0,P|120:336|133:300,1,78.125,8|0,0:2|0:2,0:2:0:0:
337,341,34924,2,0,P|321:305|298:273,1,78.125,2|0,0:2|0:2,0:2:0:0:
63,255,35144,2,0,P|94:230|129:215,1,78.125,8|0,0:2|0:2,0:2:0:0:
355,211,35365,5,0,0:2:0:0:
361,202,35438,1,2,0:2:0:0:
365,192,35512,1,2,0:2:0:0:
367,181,35585,1,2,0:2:0:0:
367,170,35659,1,2,0:2:0:0:
366,159,35733,1,2,0:2:0:0:
363,145,35806,2,2,P|357:116|343:93,5,52.0833333333333,10|2|2|2|2|2,0:2|0:2|0:2|0:2|0:2|0:2,0:2:0:0:
262,113,36247,6,0,P|307:15|411:44,1,234.375,4|0,0:2|0:2,0:2:0:0:
444,138,36688,6,0,P|398:235|294:206,1,234.375,4|0,0:2|0:2,0:2:0:0:
262,113,37130,6,0,P|226:63|146:104,1,125,4|8,0:0|0:0,0:0:0:0:
89,171,37460,1,0,0:0:0:0:
82,158,37571,2,0,P|76:126|78:89,1,62.5
205,177,37791,2,0,L|195:240,1,62.5,8|0,0:0|0:0,0:0:0:0:
95,317,38012,1,2,0:0:0:0:
129,330,38122,1,2,0:0:0:0:
164,341,38233,2,0,B|196:345|196:345|226:333,1,62.5,8|0,0:0|0:0,0:0:0:0:
354,254,38453,1,2,0:0:0:0:
320,241,38563,1,2,0:0:0:0:
285,230,38674,2,0,B|253:226|253:226|223:238,1,62.5,8|0,0:0|0:0,0:0:0:0:
432,309,38894,6,0,L|437:241,1,62.5,2|0,0:0|0:0,0:0:0:0:
346,384,39115,2,0,L|350:321,1,62.5,8|0,0:0|0:0,0:0:0:0:
334,143,39335,1,2,0:0:0:0:
330,184,39446,1,2,0:0:0:0:
393,227,39556,2,0,L|397:164,1,62.5,8|0,0:0|0:0,0:0:0:0:
281,292,39777,2,0,L|285:229,1,62.5,2|0,0:0|0:0,0:0:0:0:
401,84,39997,1,8,0:0:0:0:
334,143,40108,2,0,L|341:19,1,125,8|0,0:0|0:0,0:0:0:0:
507,90,40438,2,0,L|503:153,1,62.5,8|0,0:0|0:0,0:0:0:0:
432,309,40659,5,2,0:0:0:0:
499,270,40769,2,0,P|415:229|370:265,1,125,8|0,0:0|0:0,0:0:0:0:
281,292,41100,1,2,0:0:0:0:
244,361,41210,2,0,P|303:369|349:329,1,125,8|0,0:0|0:0,0:0:0:0:
284,225,41541,2,0,P|256:207|214:212,1,62.5,0|0,0:0|0:0,0:0:0:0:
71,329,41762,2,0,P|99:311|141:316,1,62.5,8|0,0:0|0:0,0:0:0:0:
287,354,41983,2,0,L|280:291,1,62.5,2|0,0:0|0:0,0:0:0:0:
94,188,42203,2,0,L|87:250,1,62.5,8|0,0:0|0:0,0:0:0:0:
228,207,42424,5,0,0:0:0:0:
58,106,42644,1,8,0:0:0:0:
239,28,42865,1,2,0:0:0:0:
232,65,42975,1,2,0:0:0:0:
157,126,43085,1,10,0:0:0:0:
150,89,43195,1,2,0:0:0:0:
64,44,43306,2,0,P|57:80|60:124,1,62.5,0|0,0:0|0:0,0:0:0:0:
228,207,43527,2,0,P|167:196|113:226,2,125,10|0|8,0:0|0:0|0:0,0:0:0:0:
308,263,44078,1,0,0:0:0:0:
392,228,44188,6,0,L|385:154,1,62.5,2|0,0:0|0:0,0:0:0:0:
241,142,44409,2,0,L|235:79,1,62.5,8|0,0:0|0:0,0:0:0:0:
414,83,44630,2,0,B|393:61|407:39|433:26|463:35|486:47|484:87|453:89|439:108|438:134|446:158,1,187.5,2|8,0:0|0:0,0:0:0:0:
455,196,45071,1,0,0:0:0:0:
303,304,45291,2,0,L|224:293,1,62.5,8|0,0:0|0:0,0:0:0:0:
424,251,45512,1,0,0:0:0:0:
248,364,45733,2,0,L|199:300,1,62.5,8|0,0:0|0:0,0:0:0:0:
247,190,45953,5,2,0:0:0:0:
257,174,46063,1,2,0:0:0:0:
308,213,46174,1,10,0:0:0:0:
310,199,46284,1,2,0:0:0:0:
380,204,46394,2,0,P|386:173|383:142,1,62.5,2|2,0:0|0:0,0:0:0:0:
316,52,46615,2,0,P|289:35|258:28,1,62.5,8|0,0:0|0:0,0:0:0:0:
148,95,46835,5,2,0:0:0:0:
152,113,46946,1,2,0:0:0:0:
97,152,47056,1,10,0:0:0:0:
109,166,47166,1,2,0:0:0:0:
84,240,47277,2,0,L|164:229,1,62.5,2|2,0:0|0:0,0:0:0:0:
242,119,47497,2,0,L|303:127,1,62.5,8|0,0:0|0:0,0:0:0:0:
430,267,47718,6,0,P|375:298|296:275,1,125,2|8,0:0|0:0,0:0:0:0:
322,173,48049,1,0,0:0:0:0:
343,194,48159,2,0,L|325:274,1,62.5,2|0,0:0|0:0,0:0:0:0:
184,128,48380,2,0,L|191:211,1,62.5,8|0,0:0|0:0,0:0:0:0:
323,320,48600,6,0,P|383:328|436:298,1,125,2|8,0:0|0:0,0:0:0:0:
454,143,48931,1,0,0:0:0:0:
443,112,49041,2,0,P|425:85|374:57,1,62.5,2|0,0:0|0:0,0:0:0:0:
252,195,49262,2,0,P|270:222|321:250,1,62.5,8|0,0:0|0:0,0:0:0:0:
346,151,49483,5,2,0:0:0:0:
240,64,49703,1,8,0:0:0:0:
217,94,49813,1,2,0:0:0:0:
183,111,49924,1,2,0:0:0:0:
145,110,50034,1,0,0:0:0:0:
109,97,50144,1,8,0:0:0:0:
85,67,50255,1,0,0:0:0:0:
64,18,50365,2,0,L|58:80,1,62.5
68,260,50585,6,0,P|98:243|149:241,1,62.5,8|2,0:0|0:0,0:0:0:0:
313,83,50806,2,0,P|312:117|288:162,1,62.5,8|2,0:0|0:0,0:0:0:0:
344,383,51027,2,0,P|314:365|287:322,1,62.5,8|2,0:0|0:0,0:0:0:0:
68,260,51247,6,0,P|76:206|96:175,1,68.7500020980836,4|0,0:0|0:0,0:0:0:0:
234,147,51468,1,10,0:0:0:0:
242,215,51578,1,2,0:0:0:0:
179,187,51688,1,2,0:0:0:0:
234,147,51799,2,0,P|265:139|312:147,1,68.7500020980836,2|8,0:0|0:0,0:0:0:0:
390,279,52019,6,0,L|375:353,1,68.7500020980836,2|0,0:0|0:0,0:0:0:0:
442,162,52240,2,0,L|428:229,1,68.7500020980836,2|8,0:0|0:0,0:0:0:0:
387,75,52460,1,2,0:0:0:0:
494,45,52571,2,0,L|480:112,1,68.7500020980836,2|0,0:0|0:0,0:0:0:0:
403,346,52791,2,0,L|389:278,1,68.7500020980836,10|0,0:0|0:0,0:0:0:0:
317,54,53012,6,0,L|303:121,1,68.7500020980836,2|0,0:0|0:0,0:0:0:0:
284,284,53233,1,10,0:0:0:0:
280,270,53343,1,2,0:0:0:0:
183,287,53453,1,2,0:0:0:0:
186,300,53563,2,0,P|203:336|240:365,1,68.7500020980836,2|8,0:0|0:0,0:0:0:0:
408,239,53784,5,2,0:0:0:0:
107,215,54005,1,10,0:0:0:0:
343,137,54225,1,2,0:0:0:0:
353,133,54336,1,2,0:0:0:0:
162,321,54556,1,10,0:0:0:0:
260,41,54777,5,2,0:0:0:0:
322,257,54997,2,0,P|350:238|397:241,1,68.7500020980836,10|0,0:0|0:0,0:0:0:0:
243,359,55218,1,2,0:0:0:0:
162,321,55328,2,0,P|141:288|149:240,1,68.7500020980836,2|8,0:0|0:0,0:0:0:0:
273,138,55549,2,0,L|341:145,1,68.7500020980836,2|0,0:0|0:0,0:0:0:0:
96,76,55769,2,0,L|164:68,1,68.7500020980836,2|8,0:0|0:0,0:0:0:0:
230,230,55990,1,2,0:0:0:0:
140,259,56100,2,0,L|71:255,1,68.7500020980836,2|0,0:0|0:0,0:0:0:0:
186,29,56321,2,0,L|254:36,1,68.7500020980836,10|0,0:0|0:0,0:0:0:0:
50,181,56541,5,2,0:0:0:0:
194,125,56762,1,8,0:0:0:0:
235,161,56872,1,0,0:0:0:0:
290,163,56983,1,2,0:0:0:0:
337,135,57093,1,2,0:0:0:0:
352,82,57203,1,8,0:0:0:0:
306,16,57313,2,0,L|239:33,1,68.7500020980836,0|2,0:0|0:0,0:0:0:0:
380,198,57534,1,0,0:0:0:0:
407,178,57644,6,0,P|409:152|424:111,1,68.7500020980836,10|0,0:0|0:0,0:0:0:0:
478,264,57865,1,2,0:0:0:0:
436,304,57975,1,0,0:0:0:0:
366,322,58085,1,8,0:0:0:0:
291,291,58196,1,0,0:0:0:0:
255,215,58306,6,0,P|244:153|283:192,1,137.500004196167,2|8,0:0|0:0,0:0:0:0:
356,264,58637,1,0,0:0:0:0:
276,307,58747,2,0,P|235:295|184:302,1,68.7500020980836,2|0,0:0|0:0,0:0:0:0:
60,322,58968,1,10,0:0:0:0:
140,367,59078,2,0,P|145:271|103:237,1,137.500004196167,2|0,0:0|0:0,0:0:0:0:
10,163,59409,2,0,P|39:152|102:149,1,68.7500020980836,8|0,0:0|0:0,0:0:0:0:
239,173,59630,1,2,0:0:0:0:
252,98,59740,1,2,0:0:0:0:
177,85,59850,1,10,0:0:0:0:
164,160,59960,1,2,0:0:0:0:
239,173,60071,6,0,B|263:187|263:187|294:179|294:179|331:189,1,68.7500020980836,2|0,0:0|0:0,0:0:0:0:
438,119,60291,1,10,0:0:0:0:
282,278,60512,2,0,B|301:260|301:260|326:263|326:263|351:227,1,68.7500020980836,2|0,0:0|0:0,0:0:0:0:
406,97,60733,1,10,0:0:0:0:
463,220,60843,2,0,B|475:257|447:294|453:332|453:332|440:314|415:309,2,137.500004196167,2|8|0,0:0|0:0|0:0,0:0:0:0:
396,112,61394,5,2,0:0:0:0:
301,89,61505,1,0,0:0:0:0:
222,130,61615,1,10,0:0:0:0:
209,204,61725,1,0,0:0:0:0:
233,268,61835,1,2,0:0:0:0:
288,295,61946,1,0,0:0:0:0:
340,279,62056,1,8,0:0:0:0:
367,239,62166,1,0,0:0:0:0:
363,197,62277,1,2,0:0:0:0:
335,176,62387,1,0,0:0:0:0:
307,174,62497,1,8,0:0:0:0:
286,187,62608,2,0,P|268:225|266:280,1,68.7500020980836,2|0,0:0|0:0,0:0:0:0:
173,239,62828,1,0,0:0:0:0:
172,259,62938,2,0,P|181:299|214:343,1,68.7500020980836,8|0,0:0|0:0,0:0:0:0:
316,370,63159,2,0,P|356:360|400:327,1,68.7500020980836,2|0,0:0|0:0,0:0:0:0:
427,226,63380,2,0,P|417:185|384:141,1,68.7500020980836,8|0,0:0|0:0,0:0:0:0:
223,105,63600,5,2,0:0:0:0:
221,181,63710,1,2,0:0:0:0:
297,183,63821,1,10,0:0:0:0:
299,107,63931,1,2,0:0:0:0:
223,105,64041,5,2,0:0:0:0:
68,167,64152,1,0,0:0:0:0:
230,208,64262,1,10,0:0:0:0:
123,79,64372,1,6,0:0:0:0:
395,48,64703,5,2,0:0:0:0:
395,48,64924,1,10,0:0:0:0:
399,82,65034,1,0,0:0:0:0:
404,129,65144,1,0,0:0:0:0:
411,190,65255,1,0,0:0:0:0:
422,274,65365,5,4,0:0:0:0:
402,306,65475,2,0,P|368:325|330:334,1,78.125,2|8,0:0|0:0,0:0:0:0:
180,196,65696,1,0,0:0:0:0:
170,233,65806,2,0,P|180:270|201:303,1,78.125,2|0,0:0|0:0,0:0:0:0:
384,136,66027,2,0,P|350:117|312:108,1,78.125,8|0,0:0|0:0,0:0:0:0:
79,75,66247,5,0,0:0:0:0:
109,51,66358,2,0,P|149:31|183:26,1,78.125,2|8,0:0|0:0,0:0:0:0:
101,225,66578,1,0,0:0:0:0:
66,216,66688,2,0,P|28:191|7:164,1,78.125,2|0,0:0|0:0,0:0:0:0:
250,163,66909,2,0,P|263:126|264:87,1,78.125,8|0,0:0|0:0,0:0:0:0:
147,296,67130,5,0,0:0:0:0:
180,319,67240,2,0,L|262:317,1,78.125,2|8,0:0|0:0,0:0:0:0:
465,226,67460,1,0,0:0:0:0:
432,249,67570,2,0,L|350:247,1,78.125,2|0,0:0|0:0,0:0:0:0:
171,164,67791,2,0,L|249:162,1,78.125,8|0,0:0|0:0,0:0:0:0:
373,52,68012,5,0,0:0:0:0:
395,81,68122,2,0,P|409:134|402:181,1,78.125,2|8,0:0|0:0,0:0:0:0:
251,293,68343,1,0,0:0:0:0:
200,221,68453,2,0,P|218:186|248:162,1,78.125,2|0,0:0|0:0,0:0:0:0:
364,356,68674,2,0,P|358:317|338:284,1,78.125,10|0,0:0|0:0,0:0:0:0:
112,328,68894,5,0,0:0:0:0:
138,360,69005,2,0,P|175:373|214:373,1,78.125,2|8,0:0|0:0,0:0:0:0:
382,279,69225,1,0,0:0:0:0:
412,251,69336,2,0,P|425:214|424:175,1,78.125,2|0,0:0|0:0,0:0:0:0:
236,166,69556,2,0,P|223:129|222:90,1,78.125,8|0,0:0|0:0,0:0:0:0:
327,304,69777,6,0,P|288:294|249:292,1,78.125,0|2,0:0|0:0,0:0:0:0:
50,209,69997,2,0,P|87:218|126:220,1,78.125,8|0,0:0|0:0,0:0:0:0:
348,189,70218,2,0,P|311:206|281:230,1,78.125,2|0,0:0|0:0,0:0:0:0:
29,324,70438,2,0,P|65:306|95:282,1,78.125,8|0,0:0|0:0,0:0:0:0:
256,88,70659,1,0,0:0:0:0:
256,296,71100,6,0,B|256:263|256:263|256:273|256:273|256:237,1,78.125,2|2,0:0|0:0,0:0:0:0:
256,217,71983,1,2,0:0:0:0:
256,200,72093,1,2,0:0:0:0:
256,174,72203,1,0,0:0:0:0:
256,140,72313,1,2,0:0:0:0:
256,88,72424,5,4,0:0:0:0:
231,54,72534,2,0,P|197:34|158:34,1,78.125,2|8,0:0|0:0,0:0:0:0:
73,218,72755,1,0,0:0:0:0:
97,251,72865,2,0,P|130:270|169:270,1,78.125,2|0,0:0|0:0,0:0:0:0:
158,34,73085,2,0,P|120:44|93:71,1,78.125,8|0,0:0|0:0,0:0:0:0:
344,137,73306,5,0,0:0:0:0:
356,96,73416,2,0,L|350:14,1,78.125,2|8,0:0|0:0,0:0:0:0:
241,234,73637,1,0,0:0:0:0:
229,193,73747,2,0,L|235:111,1,78.125,2|0,0:0|0:0,0:0:0:0:
437,259,73968,2,0,L|431:177,1,78.125,8|0,0:0|0:0,0:0:0:0:
346,374,74188,5,0,0:0:0:0:
312,350,74299,2,0,P|275:332|235:335,1,78.125,2|8,0:0|0:0,0:0:0:0:
37,315,74519,1,0,0:0:0:0:
59,281,74630,2,0,P|85:252|122:240,1,78.125,2|0,0:0|0:0,0:0:0:0:
295,229,74850,2,0,P|333:229|367:249,1,78.125,8|0,0:0|0:0,0:0:0:0:
136,328,75071,5,0,0:0:0:0:
116,290,75181,2,0,P|103:255|111:188,1,78.125,2|8,0:0|0:0,0:0:0:0:
250,69,75402,1,0,0:0:0:0:
336,121,75512,2,0,L|425:106,1,78.125,2|0,0:0|0:0,0:0:0:0:
164,17,75733,2,0,L|75:32,1,78.125,10|0,0:0|0:0,0:0:0:0:
336,17,75953,5,0,0:0:0:0:
370,56,76063,2,0,P|376:106|361:158,1,78.125,2|8,0:0|0:0,0:0:0:0:
151,172,76284,1,0,0:0:0:0:
162,121,76394,2,0,B|201:105|201:105|265:107,1,78.125,2|0,0:0|0:0,0:0:0:0:
434,209,76615,2,0,B|395:225|395:225|331:223,1,78.125,8|0,0:0|0:0,0:0:0:0:
247,19,76835,6,0,B|286:42|286:42|305:69,1,78.125,0|2,0:0|0:0,0:0:0:0:
348,310,77056,2,0,B|309:287|309:287|290:260,1,78.125,8|0,0:0|0:0,0:0:0:0:
446,118,77277,2,0,B|403:100|403:100|371:101,1,78.125,2|0,0:0|0:0,0:0:0:0:
152,211,77498,2,0,B|194:228|194:228|226:227,1,78.125,8|0,0:0|0:0,0:0:0:0:
84,74,77718,5,2,0:0:0:0:
41,167,77828,1,10,0:0:0:0:
302,64,78049,5,0,0:0:0:0:
152,329,78269,1,2,0:0:0:0:
180,40,78490,5,8,0:0:0:0:
471,167,78710,1,2,0:0:0:0:
428,74,78821,1,2,0:0:0:0:
322,349,79041,5,10,0:0:0:0:
393,297,79152,1,2,0:0:0:0:
294,316,79262,5,0,0:0:0:0:
418,326,79373,1,2,0:0:0:0:
256,275,79483,5,6,0:0:0:0:
256,275,80585,5,0,0:0:0:0:
256,287,80659,1,0,0:0:0:0:
256,299,80733,1,0,0:0:0:0:
256,308,80806,2,0,B|222:263|281:219|256:171,1,140.625005364418,2|2,0:0|0:0,0:0:0:0:
163,219,81247,5,4,0:0:0:0:
242,248,81358,1,0,0:0:0:0:
321,219,81468,1,8,0:0:0:0:
357,143,81578,1,0,0:0:0:0:
334,61,81688,1,0,0:0:0:0:
263,108,81799,2,0,P|243:157|256:196,1,93.7500035762788,0|8,0:0|0:0,0:0:0:0:
368,280,82019,1,0,0:0:0:0:
415,209,82130,5,2,0:0:0:0:
335,181,82240,1,2,0:0:0:0:
319,98,82350,1,8,0:0:0:0:
382,43,82460,1,2,0:0:0:0:
462,70,82571,1,0,0:0:0:0:
478,153,82681,2,0,P|433:180|374:182,1,93.7500035762788,2|8,0:0|0:0,0:0:0:0:
257,133,82902,1,2,0:0:0:0:
245,224,83012,6,0,B|261:179|261:179|256:109,1,93.7500035762788,0|0,0:0|0:0,0:0:0:0:
38,211,83233,2,0,B|69:255|69:255|109:271,1,93.7500035762788,8|0,0:0|0:0,0:0:0:0:
188,44,83453,5,0,0:0:0:0:
173,93,83563,1,0,0:0:0:0:
74,116,83674,1,8,0:0:0:0:
37,82,83784,1,0,0:0:0:0:
111,23,83894,5,0,0:0:0:0:
146,100,84005,1,0,0:0:0:0:
146,184,84115,1,8,0:0:0:0:
109,259,84225,1,0,0:0:0:0:
144,334,84335,2,0,P|183:308|229:298,1,93.7500035762788,2|0,0:0|0:0,0:0:0:0:
261,172,84556,2,0,P|306:181|354:208,1,93.7500035762788,10|2,0:0|0:0,0:0:0:0:
381,353,84777,5,0,0:0:0:0:
301,325,84887,1,0,0:0:0:0:
329,245,84997,1,8,0:0:0:0:
409,273,85108,1,0,0:0:0:0:
381,353,85218,2,0,P|289:388|213:296,1,187.500007152558,0|8,0:0|0:0,0:0:0:0:
210,233,85549,1,0,0:0:0:0:
329,245,85659,5,2,0:0:0:0:
301,325,85769,1,2,0:0:0:0:
409,273,85880,1,8,0:0:0:0:
381,353,85990,1,2,0:0:0:0:
329,245,86100,1,0,0:0:0:0:
301,325,86210,2,0,P|265:242|315:167,1,187.500007152558,2|10,0:0|0:0,0:0:0:0:
416,129,86541,5,0,0:0:0:0:
369,133,86652,1,0,0:0:0:0:
322,137,86762,1,10,0:0:0:0:
275,142,86872,1,0,0:0:0:0:
247,96,86983,5,2,0:0:0:0:
308,89,87093,1,0,0:0:0:0:
371,85,87203,1,10,0:0:0:0:
432,79,87314,1,2,0:0:0:0:
468,28,87424,5,0,0:0:0:0:
381,37,87535,1,0,0:0:0:0:
290,43,87645,1,8,0:0:0:0:
204,54,87755,1,0,0:0:0:0:
118,65,87865,2,0,P|112:158|141:194,1,93.7500035762788,2|0,0:0|0:0,0:0:0:0:
275,211,88085,2,0,P|197:159|150:166,1,93.7500035762788,10|2,0:0|0:0,0:0:0:0:
70,273,88306,5,4,0:0:0:0:
150,248,88416,1,0,0:0:0:0:
231,270,88527,1,8,0:0:0:0:
306,306,88637,1,0,0:0:0:0:
388,291,88747,2,0,P|428:270|431:192,1,93.7500035762788,2|0,0:0|0:0,0:0:0:0:
348,152,88968,2,0,P|308:173|305:251,1,93.7500035762788,10|2,0:0|0:0,0:0:0:0:
439,140,89188,5,0,0:0:0:0:
384,74,89299,1,0,0:0:0:0:
300,83,89409,1,8,0:0:0:0:
271,162,89519,1,0,0:0:0:0:
321,238,89630,2,0,P|369:231|435:238,1,93.7500035762788,2|0,0:0|0:0,0:0:0:0:
156,375,89850,2,0,P|149:327|156:261,1,93.7500035762788,10|2,0:0|0:0,0:0:0:0:
126,110,90071,5,0,0:0:0:0:
133,89,90181,1,0,0:0:0:0:
238,89,90291,1,10,0:0:0:0:
245,68,90401,1,0,0:0:0:0:
347,85,90512,5,2,0:0:0:0:
326,185,90622,1,0,0:0:0:0:
397,77,90733,1,10,0:0:0:0:
376,177,90843,1,2,0:0:0:0:
450,73,90953,5,0,0:0:0:0:
465,97,91063,1,0,0:0:0:0:
446,118,91174,1,8,0:0:0:0:
419,107,91283,1,0,0:0:0:0:
422,79,91394,5,0,0:0:0:0:
463,153,91505,1,0,0:0:0:0:
444,235,91615,1,8,0:0:0:0:
376,284,91725,1,0,0:0:0:0:
292,275,91835,6,0,P|262:230|261:176,1,93.7500035762788,2|0,0:0|0:0,0:0:0:0:
338,24,92056,2,0,P|297:46|272:85,1,93.7500035762788,8|0,0:0|0:0,0:0:0:0:
230,348,92277,2,0,P|270:286|395:299,1,187.500007152558,2|8,0:0|0:0,0:0:0:0:
328,364,92608,1,0,0:0:0:0:
149,318,92718,6,0,B|98:308|98:308|45:311,1,93.7500035762788,2|0,0:0|0:0,0:0:0:0:
337,244,92938,2,0,B|284:241|284:241|244:251,1,93.7500035762788,8|2,0:0|0:0,0:0:0:0:
457,158,93159,2,0,B|404:147|404:147|367:158|367:158|342:113|342:113|305:90,1,187.500007152558,0|10,0:0|0:0,0:0:0:0:
276,178,93490,1,0,0:0:0:0:
412,58,93600,5,0,0:0:0:0:
379,290,93821,1,10,0:0:0:0:
133,94,94041,5,2,0:0:0:0:
433,192,94262,1,8,0:0:0:0:
100,326,94483,5,8,0:0:0:0:
100,326,94924,5,2,0:0:0:0:
182,306,95034,1,0,0:0:0:0:
96,302,95144,5,2,0:0:0:0:
178,282,95254,1,2,0:0:0:0:
92,278,95365,5,4,0:0:0:0:
37,213,95475,1,0,0:0:0:0:
57,131,95585,1,8,0:0:0:0:
136,102,95696,1,0,0:0:0:0:
211,139,95806,1,0,0:0:0:0:
229,221,95916,2,0,P|258:269|323:280,1,93.7500035762788,0|8,0:0|0:0,0:0:0:0:
453,147,96137,1,0,0:0:0:0:
377,110,96247,5,2,0:0:0:0:
301,73,96358,1,2,0:0:0:0:
306,157,96468,1,8,0:0:0:0:
312,241,96578,1,2,0:0:0:0:
383,195,96688,1,0,0:0:0:0:
453,147,96799,2,0,P|460:219|409:282,1,93.7500035762788,2|8,0:0|0:0,0:0:0:0:
256,351,97019,1,2,0:0:0:0:
350,319,97130,6,0,B|335:280|335:280|351:218,1,93.7500035762788,0|0,0:0|0:0,0:0:0:0:
381,19,97350,2,0,B|391:65|391:65|377:109,1,93.7500035762788,8|0,0:0|0:0,0:0:0:0:
248,150,97571,5,0,0:0:0:0:
259,110,97681,1,0,0:0:0:0:
136,52,97791,1,8,0:0:0:0:
147,92,97901,1,0,0:0:0:0:
48,142,98012,5,0,0:0:0:0:
131,132,98122,1,0,0:0:0:0:
200,181,98233,1,8,0:0:0:0:
226,260,98343,1,0,0:0:0:0:
198,338,98453,2,0,P|151:344|107:329,1,93.7500035762788,2|0,0:0|0:0,0:0:0:0:
38,232,98674,2,0,P|32:185|47:141,1,93.7500035762788,10|2,0:0|0:0,0:0:0:0:
256,46,98894,5,0,0:0:0:0:
173,33,99005,1,0,0:0:0:0:
160,116,99115,1,8,0:0:0:0:
243,129,99225,1,0,0:0:0:0:
256,46,99335,2,0,P|171:21|114:89,1,187.500007152558,0|8,0:0|0:0,0:0:0:0:
214,213,99666,1,0,0:0:0:0:
256,46,99777,5,2,0:0:0:0:
160,116,99887,1,2,0:0:0:0:
173,33,99997,1,8,0:0:0:0:
243,129,100108,1,2,0:0:0:0:
256,46,100218,1,0,0:0:0:0:
160,116,100328,2,0,P|188:199|276:207,1,187.500007152558,2|10,0:0|0:0,0:0:0:0:
394,104,100659,5,0,0:0:0:0:
392,141,100769,1,0,0:0:0:0:
390,178,100880,1,10,0:0:0:0:
388,215,100990,1,0,0:0:0:0:
280,283,101100,5,2,0:0:0:0:
283,229,101210,1,0,0:0:0:0:
286,176,101321,1,10,0:0:0:0:
288,123,101431,1,2,0:0:0:0:
401,14,101541,5,0,0:0:0:0:
394,104,101651,1,0,0:0:0:0:
389,191,101762,1,8,0:0:0:0:
385,282,101872,1,0,0:0:0:0:
381,373,101983,2,0,P|323:334|273:338,1,93.7500035762788,2|0,0:0|0:0,0:0:0:0:
232,184,102203,2,0,P|185:186|146:211,1,93.7500035762788,10|2,0:0|0:0,0:0:0:0:
185,349,102424,5,0,0:0:0:0:
220,272,102534,1,0,0:0:0:0:
196,191,102644,1,8,0:0:0:0:
119,154,102755,1,0,0:0:0:0:
36,168,102865,2,0,P|93:199|155:191,1,93.7500035762788,2|0,0:0|0:0,0:0:0:0:
314,57,103085,2,0,P|292:118|240:153,1,93.7500035762788,10|2,0:0|0:0,0:0:0:0:
100,72,103306,6,0,L|193:61,1,93.7500035762788,0|0,0:0|0:0,0:0:0:0:
475,155,103527,2,0,L|381:144,1,93.7500035762788,8|0,0:0|0:0,0:0:0:0:
187,269,103747,2,0,B|198:194|291:187|291:187|331:275|269:321,1,281.250010728836,2|10,0:0|0:0,0:0:0:0:
114,221,104188,6,0,P|102:175|107:129,1,93.7500035762788
430,278,104409,2,0,P|401:314|360:337,1,93.7500035762788,8|0,0:0|0:0,0:0:0:0:
157,338,104630,5,0,0:0:0:0:
229,315,104740,1,0,0:0:0:0:
335,256,104850,5,8,0:0:0:0:
263,233,104960,1,0,0:0:0:0:
137,193,105071,6,0,P|211:199|197:100,1,187.500007152558,2|8,0:0|0:0,0:0:0:0:
41,156,105402,2,0,P|-1:217|91:254,1,187.500007152558,2|8,0:0|0:0,0:0:0:0:
121,91,105733,2,0,P|86:52|31:60,1,93.7500035762788,2|0,0:0|0:0,0:0:0:0:
197,272,105953,6,0,B|224:277|243:285|265:302|265:302|276:270|288:250|300:234|300:234|273:227|258:217|235:198|235:198|228:226|219:240|200:258,1,281.250010728836,6|0,0:0|0:0,0:0:0:0:
202,354,106394,5,0,0:0:0:0:
349,302,106541,1,0,0:0:0:0:
155,253,106688,1,0,0:0:0:0:
380,118,107718,1,8,0:0:0:0:
393,48,107938,5,2,0:0:0:0:
302,248,108159,5,2,0:0:0:0:
289,229,108269,1,2,0:0:0:0:
472,182,108490,5,2,0:0:0:0:
282,101,108710,5,2,0:0:0:0:
388,284,108931,5,2,0:0:0:0:
382,304,109041,1,2,0:0:0:0:
264,182,109262,5,2,0:0:0:0:
105,201,109483,5,4,0:0:0:0:
167,93,113012,5,2,0:0:0:0:
174,97,113122,1,0,0:0:0:0:
182,101,113233,1,2,0:0:0:0:
190,104,113343,1,2,0:0:0:0:
198,107,113453,1,10,0:0:0:0:
206,109,113563,1,2,0:0:0:0:
215,111,113674,1,0,0:0:0:0:
224,112,113784,1,2,0:0:0:0:
233,113,113894,1,2,0:0:0:0:
242,113,114005,1,0,0:0:0:0:
251,112,114115,1,0,0:0:0:0:
260,110,114225,1,2,0:0:0:0:
269,107,114335,1,8,0:0:0:0:
278,104,114446,1,2,0:0:0:0:
286,100,114556,1,0,0:0:0:0:
294,95,114666,1,2,0:0:0:0:
439,146,114887,6,0,L|387:140,1,46.8750017881394,2|2,0:0|0:0,0:0:0:0:
394,29,115218,1,8,0:0:0:0:
380,191,115438,1,2,0:0:0:0:
238,77,115659,2,0,P|262:129|254:178,1,93.7500035762788,2|2,0:0|0:0,0:0:0:0:
233,193,115990,1,0,0:0:0:0:
200,244,116100,2,0,P|201:284|209:320,1,46.8750017881394,10|2,0:0|0:0,0:0:0:0:
370,315,116431,1,2,0:0:0:0:
341,289,116541,5,0,0:0:0:0:
343,277,116652,1,0,0:0:0:0:
348,268,116762,1,2,0:0:0:0:
353,257,116872,1,0,0:0:0:0:
360,249,116983,1,10,0:0:0:0:
368,241,117093,1,2,0:0:0:0:
377,234,117203,1,0,0:0:0:0:
386,229,117313,1,2,0:0:0:0:
381,215,117424,1,0,0:0:0:0:
374,206,117534,1,0,0:0:0:0:
365,199,117644,1,0,0:0:0:0:
355,195,117755,1,2,0:0:0:0:
344,192,117865,1,10,0:0:0:0:
333,191,117975,1,0,0:0:0:0:
322,192,118085,1,2,0:0:0:0:
311,194,118196,1,0,0:0:0:0:
286,226,118306,6,0,L|216:219,1,46.8750017881394,2|0,0:0|0:0,0:0:0:0:
156,298,118527,2,0,L|111:243,1,46.8750017881394,2|0,0:0|0:0,0:0:0:0:
13,256,118747,2,0,L|20:186,1,46.8750017881394,10|2,0:0|0:0,0:0:0:0:
194,86,119078,1,2,0:0:0:0:
174,100,119188,2,0,P|124:83|60:89,2,93.7500035762788,0|0|8,0:0|0:0|0:0,0:0:0:0:
211,262,119850,2,0,L|293:254,1,46.8750017881394,2|2,0:0|0:0,0:0:0:0:
378,142,120071,5,2,0:0:0:0:
366,148,120181,1,2,0:0:0:0:
352,152,120291,1,0,0:0:0:0:
338,151,120402,1,2,0:0:0:0:
326,143,120512,1,10,0:0:0:0:
317,133,120622,1,0,0:0:0:0:
312,120,120733,1,2,0:0:0:0:
312,106,120843,1,2,0:0:0:0:
318,93,120953,1,2,0:0:0:0:
327,83,121063,1,0,0:0:0:0:
341,77,121174,1,2,0:0:0:0:
354,76,121284,1,2,0:0:0:0:
367,81,121394,1,8,0:0:0:0:
379,89,121505,1,2,0:0:0:0:
386,102,121615,1,2,0:0:0:0:
388,116,121725,1,0,0:0:0:0:
399,158,121835,6,0,L|410:217,1,46.8750017881394,2|0,0:0|0:0,0:0:0:0:
201,212,122056,2,0,L|209:165,1,46.8750017881394,2|0,0:0|0:0,0:0:0:0:
319,299,122277,1,8,0:0:0:0:
324,318,122387,1,2,0:0:0:0:
302,177,122608,1,2,0:0:0:0:
294,196,122718,1,2,0:0:0:0:
270,155,122828,1,0,0:0:0:0:
271,108,122938,1,2,0:0:0:0:
302,72,123049,1,0,0:0:0:0:
342,49,123159,2,0,L|389:54,1,46.8750017881394,10|0,0:0|0:0,0:0:0:0:
161,54,123380,2,0,L|114:48,1,46.8750017881394,10|2,0:0|0:0,0:0:0:0:
77,187,123600,6,0,L|84:261,1,46.8750017881394,6|0,0:0|0:0,0:0:0:0:
206,175,123821,2,0,L|199:249,1,46.8750017881394,10|2,0:0|0:0,0:0:0:0:
70,187,124041,2,0,L|78:269,1,46.8750017881394,0|2,0:0|0:0,0:0:0:0:
212,174,124262,2,0,L|204:255,1,46.8750017881394,0|10,0:0|0:0,0:0:0:0:
64,188,124483,2,0,L|72:277,1,46.8750017881394,0|2,0:0|0:0,0:0:0:0:
218,173,124704,2,0,L|210:262,1,46.8750017881394,2|2,0:0|0:0,0:0:0:0:
57,188,124924,2,0,L|63:249,1,46.8750017881394,10|0,0:0|0:0,0:0:0:0:
225,173,125145,2,0,L|219:233,1,46.8750017881394,2|0,0:0|0:0,0:0:0:0:
150,322,125365,5,2,0:0:0:0:
311,285,125585,1,10,0:0:0:0:
304,260,125696,1,2,0:0:0:0:
147,218,125916,1,10,0:0:0:0:
283,366,126137,2,0,B|307:374|307:374|397:357,2,93.7500035762788,2|10|0,0:0|0:0|0:0,0:0:0:0:
150,322,126688,2,0,L|104:318,1,46.8750017881394,10|0,0:0|0:0,0:0:0:0:
304,260,126909,2,0,L|258:256,1,46.8750017881394,2|0,0:0|0:0,0:0:0:0:
458,198,127130,6,0,L|412:194,1,46.8750017881394
285,75,127350,1,10,0:0:0:0:
285,75,127460,1,2,0:0:0:0:
285,75,127571,2,0,L|304:116,1,46.8750017881394,2|0,0:0|0:0,0:0:0:0:
265,287,127791,1,2,0:0:0:0:
265,287,127902,1,8,0:0:0:0:
265,287,128012,2,0,L|291:249,1,46.8750017881394,2|2,0:0|0:0,0:0:0:0:
447,135,128233,2,0,L|401:131,1,46.8750017881394,0|2,0:0|0:0,0:0:0:0:
235,115,128453,2,0,L|254:156,1,46.8750017881394,10|2,0:0|0:0,0:0:0:0:
324,309,128674,2,0,L|350:271,1,46.8750017881394,0|2,0:0|0:0,0:0:0:0:
436,72,129005,5,2,0:0:0:0:
326,200,129225,1,2,0:0:0:0:
335,225,129335,1,10,0:0:0:0:
497,170,129556,1,2,0:0:0:0:
287,72,129777,2,0,L|233:68,3,31.2500011920929,10|2|2|2,0:0|0:0|0:0|0:0,0:0:0:0:
208,83,130108,1,10,0:0:0:0:
174,115,130218,1,2,0:0:0:0:
185,160,130328,1,2,0:0:0:0:
164,201,130438,1,10,0:0:0:0:
198,233,130549,1,2,0:0:0:0:
170,263,130659,6,0,L|220:254,1,46.8750017881394,2|0,0:0|0:0,0:0:0:0:
388,218,130880,2,0,L|337:227,1,46.8750017881394,8|2,0:0|0:0,0:0:0:0:
164,201,131100,2,0,L|215:219,1,46.8750017881394,2|0,0:0|0:0,0:0:0:0:
391,276,131321,2,0,L|339:257,1,46.8750017881394,2|10,0:0|0:0,0:0:0:0:
191,141,131541,2,0,L|228:185,1,46.8750017881394,2|0,0:0|0:0,0:0:0:0:
362,332,131762,2,0,L|324:287,1,46.8750017881394
249,101,131983,2,0,L|259:163,1,46.8750017881394,10|2,0:0|0:0,0:0:0:0:
304,371,132203,2,0,L|292:308,1,46.8750017881394,0|2,0:0|0:0,0:0:0:0:
450,185,132424,5,0,0:0:0:0:
421,197,132534,1,2,0:0:0:0:
384,206,132644,1,10,0:0:0:0:
346,209,132755,1,2,0:0:0:0:
309,202,132865,1,2,0:0:0:0:
273,188,132975,1,2,0:0:0:0:
236,180,133085,1,2,0:0:0:0:
198,185,133196,1,10,0:0:0:0:
164,201,133306,2,0,P|149:178|141:138,1,46.8750017881394,2|0,0:0|0:0,0:0:0:0:
274,326,133527,2,0,P|289:303|297:263,1,46.8750017881394,10|0,0:0|0:0,0:0:0:0:
108,275,133747,2,0,P|129:285|152:289,1,46.8750017881394,2|8,0:0|0:0,0:0:0:0:
309,202,133968,2,0,P|307:178|299:156,1,46.8750017881394,0|2,0:0|0:0,0:0:0:0:
146,65,134188,5,0,0:0:0:0:
249,60,134299,1,0,0:0:0:0:
156,85,134409,1,10,0:0:0:0:
246,81,134520,1,0,0:0:0:0:
167,106,134629,1,2,0:0:0:0:
243,102,134740,1,2,0:0:0:0:
177,127,134850,1,0,0:0:0:0:
242,123,134961,1,8,0:0:0:0:
188,148,135070,1,2,0:0:0:0:
239,144,135181,1,2,0:0:0:0:
199,169,135291,1,2,0:0:0:0:
238,165,135402,1,2,0:0:0:0:
206,190,135512,1,10,0:0:0:0:
238,187,135623,1,0,0:0:0:0:
214,211,135733,1,2,0:0:0:0:
238,209,135843,1,0,0:0:0:0:
230,249,135953,6,0,P|211:260|183:259,2,31.2500011920929,2|2|2,0:0|0:0|0:0,0:0:0:0:
320,256,136174,1,10,0:0:0:0:
339,269,136284,2,0,P|359:279|403:283,1,46.8750017881394,2|0,0:0|0:0,0:0:0:0:
416,152,136505,1,10,0:0:0:0:
420,174,136615,2,0,P|427:195|455:229,1,46.8750017881394,2|8,0:0|0:0,0:0:0:0:
455,354,136835,5,2,0:0:0:0:
465,318,136946,2,0,B|396:256|322:299|322:316|322:360|250:357|216:337|208:299|209:251|232:229|282:216|318:246|320:264|324:278|302:284|280:299,1,375,2|0,0:0|0:0,0:0:0:0:
203,375,137718,5,4,0:0:0:0:
181,357,137828,2,0,P|165:328|165:260,1,78.125,2|8,0:0|0:0,0:0:0:0:
324,174,138049,1,0,0:0:0:0:
333,201,138159,2,0,P|329:239|311:274,1,78.125,2|0,0:0|0:0,0:0:0:0:
111,326,138380,2,0,P|74:314|44:289,1,78.125,8|0,0:0|0:0,0:0:0:0:
147,83,138600,5,0,0:0:0:0:
176,81,138710,2,0,L|275:72,1,78.125,2|8,0:0|0:0,0:0:0:0:
189,236,138931,1,0,0:0:0:0:
163,234,139041,2,0,L|64:225,1,78.125,2|0,0:0|0:0,0:0:0:0:
187,44,139262,2,0,L|286:35,1,78.125,8|0,0:0|0:0,0:0:0:0:
427,212,139483,5,0,0:0:0:0:
435,181,139593,2,0,P|439:147|417:87,1,78.125,2|8,0:0|0:0,0:0:0:0:
263,275,139813,1,0,0:0:0:0:
294,285,139924,2,0,P|328:289|388:267,1,78.125,2|0,0:0|0:0,0:0:0:0:
190,143,140144,2,0,P|186:182|196:220,1,78.125,8|0,0:0|0:0,0:0:0:0:
364,56,140365,5,0,0:0:0:0:
330,39,140475,2,0,P|291:35|254:46,1,78.125,2|8,0:0|0:0,0:0:0:0:
382,249,140696,1,0,0:0:0:0:
461,190,140806,2,0,B|469:173|469:173|450:101,1,78.125,2|0,0:0|0:0,0:0:0:0:
303,308,141027,2,0,B|295:325|295:325|314:397,1,78.125,10|0,0:0|0:0,0:0:0:0:
323,170,141247,5,0,0:0:0:0:
300,195,141358,2,0,P|260:208|204:204,1,78.125,2|8,0:0|0:0,0:0:0:0:
49,76,141578,1,0,0:0:0:0:
72,101,141689,2,0,P|112:114|168:110,1,78.125,2|0,0:0|0:0,0:0:0:0:
300,0,141909,2,0,L|326:87,1,78.125,8|0,0:0|0:0,0:0:0:0:
118,250,142130,6,0,L|122:171,1,78.125,0|2,0:0|0:0,0:0:0:0:
208,37,142350,2,0,L|274:99,1,78.125,8|0,0:0|0:0,0:0:0:0:
153,319,142571,2,0,L|117:249,1,78.125,2|0,0:0|0:0,0:0:0:0:
147,116,142791,2,0,L|235:136,1,78.125,8|0,0:0|0:0,0:0:0:0:
256,347,143012,5,2,0:0:0:0:
293,335,143122,1,2,0:0:0:0:
331,328,143233,1,2,0:0:0:0:
368,338,143343,1,2,0:0:0:0:
401,357,143453,1,2,0:0:0:0:
439,362,143563,1,2,0:0:0:0:
475,347,143674,1,2,0:0:0:0:
492,312,143784,1,2,0:0:0:0:
483,261,143894,2,0,B|501:233|472:172|390:210|392:253|392:253|420:221|382:139|321:167|317:200,1,312.5,2|8,0:0|0:0,0:0:0:0:
317,195,144777,5,4,0:0:0:0:
347,217,144887,2,0,L|457:217,1,78.125,2|8,0:0|0:0,0:0:0:0:
258,83,145108,1,0,0:0:0:0:
286,100,145218,2,0,L|396:100,1,78.125,2|0,0:0|0:0,0:0:0:0:
229,319,145438,2,0,L|339:319,1,78.125,8|0,0:0|0:0,0:0:0:0:
141,173,145659,5,0,0:0:0:0:
116,195,145769,2,0,P|94:236|89:301,1,78.125,2|8,0:0|0:0,0:0:0:0:
289,163,145990,1,0,0:0:0:0:
282,130,146100,2,0,P|257:90|203:53,1,78.125,2|0,0:0|0:0,0:0:0:0:
84,298,146321,2,0,P|130:296|189:268,1,78.125,8|0,0:0|0:0,0:0:0:0:
406,213,146541,5,0,0:0:0:0:
390,248,146652,2,0,P|344:259|280:249,1,78.125,2|8,0:0|0:0,0:0:0:0:
317,74,146872,1,0,0:0:0:0:
277,81,146983,2,0,P|245:114|223:176,1,78.125,2|0,0:0|0:0,0:0:0:0:
259,304,147203,2,0,P|287:330|322:347,1,78.125,8|0,0:0|0:0,0:0:0:0:
480,131,147424,5,0,0:0:0:0:
442,150,147534,2,0,B|397:156|397:156|327:138,1,78.125,2|8,0:0|0:0,0:0:0:0:
161,123,147755,1,0,0:0:0:0:
159,214,147865,2,0,P|164:252|195:311,1,78.125,2|0,0:0|0:0,0:0:0:0:
81,74,148085,2,0,P|45:59|-21:56,1,78.125,10|0,0:0|0:0,0:0:0:0:
242,78,148306,5,0,0:0:0:0:
281,66,148416,2,0,P|311:42|347:-14,1,78.125,2|8,0:0|0:0,0:0:0:0:
379,201,148637,1,0,0:0:0:0:
398,164,148747,2,0,P|403:125|388:60,1,78.125,2|0,0:0|0:0,0:0:0:0:
258,253,148968,2,0,P|252:291|267:356,1,78.125,8|0,0:0|0:0,0:0:0:0:
442,210,149188,6,0,L|420:129,1,78.125,0|2,0:0|0:0,0:0:0:0:
176,66,149409,2,0,L|120:121,1,78.125,8|0,0:0|0:0,0:0:0:0:
504,117,149630,2,0,L|443:58,1,78.125,2|0,0:0|0:0,0:0:0:0:
202,138,149850,2,0,L|182:214,1,78.125,8|0,0:0|0:0,0:0:0:0:
388,329,150071,5,2,0:0:0:0:
449,229,150181,1,10,0:0:0:0:
202,41,150402,5,0,0:0:0:0:
220,331,150622,1,2,0:0:0:0:
380,123,150843,5,8,0:0:0:0:
63,229,151063,1,2,0:0:0:0:
124,329,151173,1,2,0:0:0:0:
219,98,151394,5,10,0:0:0:0:
189,231,151505,1,2,0:0:0:0:
293,98,151615,5,0,0:0:0:0:
323,231,151726,1,2,0:0:0:0:
256,56,151835,6,0,L|256:36,48,19.53125,6|0|0|0|0|0|0|0|0|0|0|0|0|0|0|0|0|0|0|0|0|0|0|0|0|0|0|0|0|0|0|0|0|0|0|0|0|0|0|0|0|0|0|0|0|0|0|0|0,0:0|0:0|0:0|0:0|0:0|0:0|0:0|0:0|0:0|0:0|0:0|0:0|0:0|0:0|0:0|0:0|0:0|0:0|0:0|0:0|0:0|0:0|0:0|0:0|0:0|0:0|0:0|0:0|0:0|0:0|0:0|0:0|0:0|0:0|0:0|0:0|0:0|0:0|0:0|0:0|0:0|0:0|0:0|0:0|0:0|0:0|0:0|0:0|0:0,0:0:0:0:
256,141,153380,5,2,0:0:0:0:
266,223,153490,2,0,P|322:200|338:141,1,125,6|0,0:0|0:0,0:0:0:0:
245,58,153821,2,0,P|189:81|173:140,2,125,8|0|8,0:0|0:0|0:0,0:0:0:0:
342,83,154372,1,0,0:0:0:0:
373,88,154483,2,0,L|471:70,1,62.5,2|2,0:0|0:0,0:0:0:0:
473,219,154703,1,8,0:0:0:0:
442,224,154814,2,0,L|344:206,1,62.5,2|0,0:0|0:0,0:0:0:0:
306,355,155034,2,0,L|375:342,1,62.5,2|8,0:0|0:0,0:0:0:0:
199,208,155255,6,0,B|175:238|175:238|187:342,1,125,2|0,0:0|0:0,0:0:0:0:
318,254,155585,2,0,P|286:257|256:265,1,62.5,8|0,0:0|0:0,0:0:0:0:
93,339,155806,2,0,P|63:336|31:327,1,62.5
141,135,156027,1,8,0:0:0:0:
55,199,156137,2,0,L|41:53,1,125
196,207,156468,2,0,L|184:292,1,62.5,8|0,0:0|0:0,0:0:0:0:
287,338,156688,6,0,P|340:291|423:310,1,125,2|10,0:0|0:0,0:0:0:0:
464,186,157019,2,0,P|476:226|474:273,1,62.5,2|0,0:0|0:0,0:0:0:0:
287,338,157240,1,0,0:0:0:0:
266,306,157350,2,0,P|270:235|342:190,2,125,8|0|8,0:0|0:0|0:0,0:0:0:0:
392,238,157902,1,0,0:0:0:0:
397,198,158012,1,2,0:0:0:0:
387,151,158122,2,0,L|356:93,1,62.5,2|8,0:0|0:0,0:0:0:0:
208,198,158343,2,0,L|173:253,1,62.5,2|0,0:0|0:0,0:0:0:0:
339,330,158563,2,0,L|404:332,1,62.5,2|8,0:0|0:0,0:0:0:0:
511,155,158784,6,0,L|386:150,1,125,2|0,0:0|0:0,0:0:0:0:
272,126,159115,2,0,L|278:194,1,62.5,10|0,0:0|0:0,0:0:0:0:
452,96,159335,2,0,L|446:164,1,62.5,2|0,0:0|0:0,0:0:0:0:
286,29,159556,1,10,0:0:0:0:
354,94,159666,2,0,L|365:227,1,125,2|0,0:0|0:0,0:0:0:0:
474,42,159997,2,0,L|468:104,1,62.5,8|0,0:0|0:0,0:0:0:0:
272,126,160218,6,0,L|328:100,1,62.5,2|0,0:0|0:0,0:0:0:0:
446,259,160438,1,10,0:0:0:0:
512,195,160549,2,0,P|454:158|380:204,1,125,2|0,0:0|0:0,0:0:0:0:
319,264,160880,2,0,L|262:238,1,62.5,8|0,0:0|0:0,0:0:0:0:
265,63,161100,6,0,L|271:124,1,62.5,2|0,0:0|0:0,0:0:0:0:
118,211,161321,1,10,0:0:0:0:
52,147,161431,2,0,P|110:110|184:156,1,125,2|0,0:0|0:0,0:0:0:0:
262,238,161762,2,0,L|318:212,1,62.5,8|0,0:0|0:0,0:0:0:0:
118,211,161983,6,0,L|179:216,1,62.5,2|0,0:0|0:0,0:0:0:0:
80,97,162203,1,10,0:0:0:0:
52,147,162313,2,0,B|32:193|32:193|36:280,1,125,2|0,0:0|0:0,0:0:0:0:
204,141,162644,2,0,L|134:93,1,62.5,10|0,0:0|0:0,0:0:0:0:
129,294,162865,1,2,0:0:0:0:
166,272,162975,1,0,0:0:0:0:
209,269,163085,1,10,0:0:0:0:
248,288,163196,2,0,P|281:310|379:294,1,125,2|0,0:0|0:0,0:0:0:0:
384,161,163527,2,0,P|350:189|338:219,1,62.5,8|0,0:0|0:0,0:0:0:0:
430,357,163747,2,0,P|452:335|464:307,1,62.5
468,144,163968,2,0,P|442:102|419:84,1,62.5,8|0,0:0|0:0,0:0:0:0:
187,186,164188,6,0,B|172:171|146:189|146:245|214:266|278:210,1,125,2|8,0:0|0:0,0:0:0:0:
298,124,164519,1,0,0:0:0:0:
255,22,164630,6,0,B|275:16|272:-14|223:-42|171:5|187:89,1,125,2|8,0:0|0:0,0:0:0:0:
251,148,164960,1,0,0:0:0:0:
363,164,165071,6,0,B|357:184|385:197|434:168|419:99|338:71,1,125,2|8,0:0|0:0,0:0:0:0:
255,97,165402,2,0,B|266:144|230:185|265:240,1,125,2|0,0:0|0:0,0:0:0:0:
257,367,165733,6,0,B|246:320|282:279|247:224,2,125,10|0|10,0:0|0:0|0:0,0:0:0:0:
154,255,166394,6,0,P|156:228|174:182,1,62.5,2|0,0:0|0:0,0:0:0:0:
344,194,166615,2,0,P|355:223|358:255,1,62.5,8|0,0:0|0:0,0:0:0:0:
156,300,166835,6,0,P|124:295|84:269,1,68.7500020980836
356,300,167056,2,0,P|388:295|428:269,1,68.7500020980836,8|0,0:0|0:0,0:0:0:0:
196,323,167277,6,0,P|188:364|196:413,1,62.5,2|0,0:0|0:0,0:0:0:0:
315,322,167497,1,10,0:0:0:0:
256,241,167608,6,0,P|208:209|115:259,1,125,6|0,0:0|0:0,0:0:0:0:
346,177,167938,2,0,P|397:209|457:195,2,125,8|0|8,0:0|0:0|0:0,0:0:0:0:
254,102,168490,1,0,0:0:0:0:
259,141,168600,2,0,L|269:218,1,62.5,2|2,0:0|0:0,0:0:0:0:
149,76,168821,1,8,0:0:0:0:
144,115,168931,2,0,L|134:192,1,62.5,2|0,0:0|0:0,0:0:0:0:
19,66,169152,2,0,L|29:143,1,62.5,2|8,0:0|0:0,0:0:0:0:
41,292,169372,6,0,B|63:303|63:303|98:287|98:287|134:287|134:287|154:268,1,125,2|0,0:0|0:0,0:0:0:0:
65,142,169703,2,0,P|69:172|84:200,1,62.5,8|0,0:0|0:0,0:0:0:0:
224,328,169924,2,0,P|238:300|243:269,1,62.5
144,115,170144,2,0,P|116:100|85:95,1,62.5,8|0,0:0|0:0,0:0:0:0:
155,271,170365,2,0,B|181:264|196:256|213:245|213:245|234:251|258:253|274:251,1,125,0|8,0:0|0:0,0:0:0:0:
336,327,170696,1,0,0:0:0:0:
377,247,170806,6,0,B|387:222|387:222|359:119,1,125,2|10,0:0|0:0,0:0:0:0:
266,229,171137,1,2,0:0:0:0:
302,337,171247,2,0,P|351:361|396:350,1,62.5
464,236,171468,2,0,L|455:161,1,62.5,8|0,0:0|0:0,0:0:0:0:
263,336,171688,2,0,P|300:375|346:380,1,62.5
471,298,171909,2,0,L|462:223,1,62.5,8|0,0:0|0:0,0:0:0:0:
357,129,172130,5,2,0:0:0:0:
366,102,172240,1,2,0:0:0:0:
259,108,172350,5,8,0:0:0:0:
232,99,172460,1,2,0:0:0:0:
238,206,172571,5,0,0:0:0:0:
229,233,172681,1,2,0:0:0:0:
336,227,172792,5,8,0:0:0:0:
362,236,172902,2,0,P|429:212|428:147,1,125,2|0,0:0|0:0,0:0:0:0:
339,42,173233,2,0,L|268:34,1,62.5,10|0,0:0|0:0,0:0:0:0:
85,145,173453,5,2,0:0:0:0:
202,99,173563,1,0,0:0:0:0:
58,93,173674,5,10,0:0:0:0:
229,151,173784,2,0,L|196:274,1,125,2|0,0:0|0:0,0:0:0:0:
357,366,174115,2,0,L|340:305,1,62.5,8|0,0:0|0:0,0:0:0:0:
130,216,174335,6,0,L|113:277,1,62.5,2|0,0:0|0:0,0:0:0:0:
259,335,174556,1,10,0:0:0:0:
340,285,174666,2,0,P|294:243|233:243,1,125,2|0,0:0|0:0,0:0:0:0:
111,363,174997,2,0,L|94:302,1,62.5,8|0,0:0|0:0,0:0:0:0:
236,172,175218,6,0,L|253:111,1,62.5,2|0,0:0|0:0,0:0:0:0:
76,70,175438,1,10,0:0:0:0:
57,185,175549,2,0,P|103:143|164:143,1,125,2|0,0:0|0:0,0:0:0:0:
370,206,175880,2,0,L|303:215,1,62.5,8|0,0:0|0:0,0:0:0:0:
177,52,176100,6,0,L|244:61,1,62.5,2|0,0:0|0:0,0:0:0:0:
425,80,176321,1,10,0:0:0:0:
339,139,176431,2,0,P|319:80|332:19,1,125,2|0,0:0|0:0,0:0:0:0:
432,183,176762,1,8,0:0:0:0:
406,216,176872,1,0,0:0:0:0:
364,243,176983,1,0,0:0:0:0:
309,254,177093,1,0,0:0:0:0:
253,226,177203,1,8,0:0:0:0:
206,175,177313,1,0,0:0:0:0:
182,103,177424,6,0,P|151:53|93:65,1,125,2|8,0:0|0:0,0:0:0:0:
35,246,177755,6,0,P|66:295|124:283,1,125,2|8,0:0|0:0,0:0:0:0:
182,103,178085,6,0,P|188:67|181:30,1,62.5,2|0,0:0|0:0,0:0:0:0:
35,246,178306,6,0,B|23:283|38:317|38:317|53:339|79:331|79:331|116:313|130:272,3,187.500007152558,10|0|0|0,0:0|0:0|0:0|0:0,0:0:0:0:
305,359,180071,6,0,P|256:291|207:353,1,187.500007152558,4|0,0:0|0:0,0:0:0:0:
145,167,180953,6,0,P|176:131|220:119,1,93.7500035762788,8|0,0:0|0:0,0:0:0:0:
366,167,181247,6,0,P|335:131|291:119,1,93.7500035762788,8|0,0:0|0:0,0:0:0:0:
256,295,181541,6,0,B|256:181,1,93.7500035762788,8|0,0:0|0:0,0:0:0:0:
255,48,181835,6,0,B|214:68|182:56|182:56|172:97|222:110|291:130|240:216|210:237|197:266|147:261|101:247|73:222|69:177|84:151|97:124|125:126|173:130|173:170|148:177,1,500,4|0,0:0|0:0,0:0:0:0:
165,244,184483,2,0,P|143:217|169:158,1,93.75,2|2,0:0|0:0,0:0:0:0:
267,278,185144,1,2,0:0:0:0:
167,362,185365,6,0,B|187:341|217:340|217:340|237:358|268:360|294:368|327:354|352:323|360:289|352:259|344:239|311:225|325:204|325:204|324:247|369:288|403:264|409:320,1,437.5,4|0,0:0|0:0,0:0:0:0:
267,278,187130,2,0,P|194:208|251:147,1,187.5,2|0,0:0|0:0,0:0:0:0:
326,60,188012,2,0,P|301:158|220:139,1,187.5,2|0,0:0|0:0,0:0:0:0:
107,117,188894,6,0,B|117:89|148:74|173:68|204:75|229:93|233:120|236:136|233:154|233:154|263:146|283:170|267:213|267:213|242:198|228:193|209:190|190:193|179:199|156:208|144:229|136:245|135:263|135:282|142:301|154:315|167:324,1,500,4|0,0:0|0:0,0:0:0:0:
455,242,191541,2,0,L|410:318,1,62.5,2|0,0:0|0:0,0:0:0:0:
389,130,191872,2,0,L|388:218,1,62.5,2|0,0:0|0:0,0:0:0:0:
275,66,192203,1,2,0:0:0:0:
275,66,192424,6,0,B|314:113|314:113|346:109|369:101|391:79|391:79|449:78|487:104|487:104|488:124|499:140|499:140|482:145|470:163|470:163|445:144|408:142,1,375,4|0,0:0|0:0,0:0:0:0:
442,321,194188,2,0,P|435:281|414:258,1,62.5,2|0,0:0|0:0,0:0:0:0:
241,276,194630,2,0,P|261:241|288:227,1,62.5,2|0,0:0|0:0,0:0:0:0:
502,204,195071,2,0,L|424:179,1,62.5,2|0,0:0|0:0,0:0:0:0:
226,145,195512,2,0,L|288:148,1,62.5,2|0,0:0|0:0,0:0:0:0:
324,337,195953,6,0,B|235:364|198:325|198:325|191:378|150:383|121:381|96:370|79:333|88:303|100:280|147:265|167:289,1,375,4|0,0:0|0:0,0:0:0:0:
148,325,197497,2,0,L|148:281,1,31.25,2|0,0:0|0:0,0:0:0:0:
68,275,197718,2,0,P|98:221|219:255,1,187.5,2|0,0:0|0:0,0:0:0:0:
331,319,198600,2,0,P|289:316|259:300,1,62.5,2|0,0:0|0:0,0:0:0:0:
297,172,199041,2,0,P|328:173|358:184,1,62.5,2|0,0:0|0:0,0:0:0:0:
456,279,199483,6,0,B|417:316|389:302|389:302|421:292|449:270|452:237|442:199,1,187.5,4|0,0:0|0:0,0:0:0:0:
367,68,200365,2,0,B|291:54|246:129|235:158|258:186|294:193|335:200|352:185|334:158|358:122|357:115|337:102|305:101|282:102|282:102|250:99|238:92|227:83|215:74|215:74|191:112|190:136|194:157,1,500,2|2,0:0|0:0,0:0:0:0:
70,273,203012,6,0,B|75:257|93:250|118:267|116:292|107:304|88:323|67:326|38:325|17:312|17:278|22:250|38:228|53:230|68:219|94:216|95:199|72:187|85:170|65:159|57:142|64:128|91:114|91:114|105:126|116:148|146:136,1,375,6|0,0:0|0:0,0:0:0:0:
418,136,204777,2,0,P|354:72|267:93,1,187.5,2|0,0:0|0:0,0:0:0:0:
418,136,205659,2,0,P|331:157|268:93,1,187.5,2|0,0:0|0:0,0:0:0:0:
450,56,206541,6,0,P|416:105|423:147,1,93.75,6|0,0:0|0:0,0:0:0:0:
435,168,206983,1,8,0:0:0:0:
270,93,207203,2,0,B|236:84|236:84|194:87,1,62.5,2|0,0:0|0:0,0:0:0:0:
113,234,207534,1,2,0:0:0:0:
135,240,207644,2,0,B|167:245|167:245|211:234,2,62.5,2|8|2,0:0|0:0|0:0,0:0:0:0:
350,169,208306,6,0,L|329:178,7,15.625,4|0|0|0|0|0|0|0,0:0|0:0|0:0|0:0|0:0|0:0|0:0|0:0,0:0:0:0:
176,175,208747,2,0,L|203:182,7,15.625,2|0|0|0|0|0|0|0,0:0|0:0|0:0|0:0|0:0|0:0|0:0|0:0,0:0:0:0:
330,275,209188,6,0,L|316:295,3,15.625,2|0|0|0,0:0|0:0|0:0|0:0,0:0:0:0:
219,292,209409,6,0,L|237:303,3,15.625,2|0|0|0,0:0|0:0|0:0|0:0,0:0:0:0:
290,380,209630,6,0,L|286:359,7,15.625,2|0|0|0|0|0|0|0,0:0|0:0|0:0|0:0|0:0|0:0|0:0|0:0,0:0:0:0:
352,301,212056,6,0,P|313:278|256:280,1,93.7500035762788,2|0,0:0|0:0,0:0:0:0:
178,322,212497,1,0,0:0:0:0:
376,203,212718,1,2,0:0:0:0:
146,117,212938,1,0,0:0:0:0:
156,132,213012,1,0,0:0:0:0:
170,140,213085,1,0,0:0:0:0:
188,137,213159,2,0,B|248:106|267:163|326:132,1,140.625005364418,2|2,0:0|0:0,0:0:0:0:
289,51,213600,5,4,0:0:0:0:
267,132,213710,1,0,0:0:0:0:
297,211,213821,1,8,0:0:0:0:
373,245,213931,1,0,0:0:0:0:
459,223,214041,6,0,L|440:344,1,93.7500035762788,0|0,0:0|0:0,0:0:0:0:
272,370,214262,2,0,L|246:275,1,93.7500035762788,8|0,0:0|0:0,0:0:0:0:
374,129,214483,5,2,0:0:0:0:
336,156,214593,1,2,0:0:0:0:
290,165,214703,1,8,0:0:0:0:
244,155,214813,1,2,0:0:0:0:
171,111,214924,5,0,0:0:0:0:
218,41,215034,1,2,0:0:0:0:
296,9,215144,1,8,0:0:0:0:
378,30,215255,1,2,0:0:0:0:
446,78,215365,5,0,0:0:0:0:
431,160,215475,1,0,0:0:0:0:
349,145,215585,1,8,0:0:0:0:
364,63,215696,1,0,0:0:0:0:
431,160,215806,6,0,P|436:233|399:220,1,93.7500035762788,0|0,0:0|0:0,0:0:0:0:
232,153,216027,2,0,P|292:112|299:150,1,93.7500035762788,8|0,0:0|0:0,0:0:0:0:
326,329,216247,6,0,P|260:296|194:323,1,93.7500035762788,0|0,0:0|0:0,0:0:0:0:
171,141,216468,2,0,P|112:184|105:255,1,93.7500035762788,8|0,0:0|0:0,0:0:0:0:
70,354,216688,5,2,0:0:0:0:
95,362,216799,1,0,0:0:0:0:
195,303,216909,1,10,0:0:0:0:
220,295,217020,1,2,0:0:0:0:
331,358,217130,5,0,0:0:0:0:
364,313,217240,1,0,0:0:0:0:
366,256,217350,1,8,0:0:0:0:
344,204,217460,1,0,0:0:0:0:
293,177,217571,6,0,B|247:193|247:193|198:187,1,93.7500035762788,0|0,0:0|0:0,0:0:0:0:
71,321,217791,2,0,B|117:305|117:305|161:310,1,93.7500035762788,8|0,0:0|0:0,0:0:0:0:
98,147,218012,5,2,0:0:0:0:
88,96,218122,1,2,0:0:0:0:
248,46,218233,1,8,0:0:0:0:
258,96,218343,1,2,0:0:0:0:
153,111,218453,5,0,0:0:0:0:
150,96,218563,1,2,0:0:0:0:
191,80,218674,1,8,0:0:0:0:
194,96,218784,1,2,0:0:0:0:
196,180,218894,6,0,L|180:283,1,93.7500035762788
43,105,219115,2,0,L|50:198,1,93.7500035762788,10|0,0:0|0:0,0:0:0:0:
277,132,219335,6,0,P|235:103|127:119,1,93.7500035762788,2|0,0:0|0:0,0:0:0:0:
109,316,219556,2,0,P|151:345|259:329,1,93.7500035762788,10|2,0:0|0:0,0:0:0:0:
378,331,219777,5,0,0:0:0:0:
342,254,219887,1,0,0:0:0:0:
362,172,219997,1,8,0:0:0:0:
405,99,220108,1,0,0:0:0:0:
302,40,220218,5,2,0:0:0:0:
389,32,220328,1,0,0:0:0:0:
273,123,220438,1,10,0:0:0:0:
360,115,220548,1,2,0:0:0:0:
295,203,220659,6,0,B|250:216|250:216|203:189,1,93.7500035762788
143,17,220880,2,0,B|119:57|119:57|132:102,1,93.7500035762788,8|0,0:0|0:0,0:0:0:0:
139,282,221099,5,2,0:0:0:0:
209,192,221210,1,0,0:0:0:0:
99,224,221321,1,10,0:0:0:0:
206,263,221430,1,2,0:0:0:0:
141,167,221541,5,0,0:0:0:0:
185,94,221652,1,0,0:0:0:0:
267,75,221762,1,8,0:0:0:0:
348,95,221872,1,0,0:0:0:0:
397,163,221983,5,2,0:0:0:0:
382,201,222093,1,0,0:0:0:0:
269,141,222203,1,10,0:0:0:0:
269,184,222313,1,2,0:0:0:0:
141,167,222424,5,0,0:0:0:0:
152,199,222534,1,0,0:0:0:0:
120,210,222644,1,10,0:0:0:0:
109,178,222755,1,0,0:0:0:0:
183,169,222865,5,2,0:0:0:0:
148,241,222975,1,0,0:0:0:0:
76,206,223085,1,10,0:0:0:0:
111,134,223196,1,2,0:0:0:0:
195,220,223306,6,0,P|186:272|153:314,1,93.7500035762788
46,87,223527,2,0,P|85:61|131:55,1,93.7500035762788,8|0,0:0|0:0,0:0:0:0:
280,137,223747,5,0,0:0:0:0:
273,163,223858,1,0,0:0:0:0:
221,54,223968,1,8,0:0:0:0:
201,34,224079,1,0,0:0:0:0:
322,44,224188,5,2,0:0:0:0:
366,29,224299,1,0,0:0:0:0:
412,34,224409,1,8,0:0:0:0:
448,62,224519,1,0,0:0:0:0:
464,105,224630,6,0,P|446:169|446:205,1,93.7500035762788,2|0,0:0|0:0,0:0:0:0:
247,229,224850,2,0,P|279:286|304:312,1,93.7500035762788,8|0,0:0|0:0,0:0:0:0:
454,317,225071,5,2,0:0:0:0:
404,248,225181,1,0,0:0:0:0:
320,258,225291,1,8,0:0:0:0:
280,333,225402,1,2,0:0:0:0:
373,364,225512,2,0,B|370:306|370:306|322:246|322:246|318:155,1,187.500007152558,0|10,0:0|0:0,0:0:0:0:
280,333,225843,1,0,0:0:0:0:
402,210,225953,5,0,0:0:0:0:
119,265,226174,1,10,0:0:0:0:
358,94,226394,5,2,0:0:0:0:
264,357,226615,1,8,0:0:0:0:
119,53,226835,5,8,0:0:0:0:
136,92,227056,5,0,0:0:0:0:
245,75,227166,1,0,0:0:0:0:
143,112,227277,5,2,0:0:0:0:
244,96,227387,1,0,0:0:0:0:
150,132,227498,5,2,0:0:0:0:
242,118,227608,1,2,0:0:0:0:
156,152,227718,5,4,0:0:0:0:
138,234,227828,1,0,0:0:0:0:
194,296,227938,1,8,0:0:0:0:
277,279,228049,1,0,0:0:0:0:
309,201,228159,6,0,P|316:169|284:92,1,93.7500035762788
65,196,228380,2,0,P|58:228|90:305,1,93.7500035762788,8|0,0:0|0:0,0:0:0:0:
190,366,228600,5,2,0:0:0:0:
245,358,228710,1,2,0:0:0:0:
301,350,228821,1,8,0:0:0:0:
356,343,228931,1,2,0:0:0:0:
444,274,229041,5,0,0:0:0:0:
367,263,229152,1,2,0:0:0:0:
291,254,229262,1,8,0:0:0:0:
216,245,229372,1,2,0:0:0:0:
140,236,229483,5,0,0:0:0:0:
109,156,229593,1,0,0:0:0:0:
188,126,229703,1,8,0:0:0:0:
219,205,229813,1,0,0:0:0:0:
109,156,229924,6,0,P|99:138|130:55,1,93.7500035762788
261,280,230144,2,0,P|243:290|160:259,1,93.7500035762788,8|0,0:0|0:0,0:0:0:0:
384,127,230365,6,0,L|500:112,1,93.7500035762788
480,312,230585,2,0,L|364:296,1,93.7500035762788,8|0,0:0|0:0,0:0:0:0:
232,340,230806,5,2,0:0:0:0:
224,304,230916,1,0,0:0:0:0:
333,213,231027,1,10,0:0:0:0:
325,249,231137,1,2,0:0:0:0:
200,187,231247,5,0,0:0:0:0:
179,134,231358,1,0,0:0:0:0:
125,116,231468,1,8,0:0:0:0:
72,136,231578,1,0,0:0:0:0:
44,184,231688,6,0,B|33:236|33:236|50:272,1,93.7500035762788
280,225,231909,2,0,B|240:189|240:189|199:186,1,93.7500035762788,8|0,0:0|0:0,0:0:0:0:
145,364,232130,5,2,0:0:0:0:
216,320,232240,1,2,0:0:0:0:
298,301,232350,1,8,0:0:0:0:
381,312,232460,1,2,0:0:0:0:
456,351,232571,5,0,0:0:0:0:
455,322,232681,1,2,0:0:0:0:
357,377,232791,1,8,0:0:0:0:
356,348,232901,1,2,0:0:0:0:
249,350,233012,6,0,P|245:308|260:230,1,93.7500035762788
172,132,233233,2,0,P|205:106|279:77,1,93.7500035762788,10|0,0:0|0:0,0:0:0:0:
447,251,233453,6,0,B|396:259|396:259|355:248,1,93.7500035762788,2|0,0:0|0:0,0:0:0:0:
353,127,233674,2,0,B|400:119|400:119|445:129,1,93.7500035762788,10|2,0:0|0:0,0:0:0:0:
432,319,233894,5,0,0:0:0:0:
348,334,234005,1,0,0:0:0:0:
270,300,234115,1,8,0:0:0:0:
236,222,234225,1,0,0:0:0:0:
298,141,234335,5,2,0:0:0:0:
184,152,234446,1,0,0:0:0:0:
259,60,234556,1,10,0:0:0:0:
158,136,234667,1,2,0:0:0:0:
170,23,234777,5,0,0:0:0:0:
208,97,234887,1,0,0:0:0:0:
287,123,234997,1,8,0:0:0:0:
369,101,235108,1,0,0:0:0:0:
414,29,235218,2,0,P|441:68|451:113,1,93.7500035762788,2|0,0:0|0:0,0:0:0:0:
378,300,235438,2,0,P|416:272|443:234,1,93.7500035762788,10|2,0:0|0:0,0:0:0:0:
141,349,235659,6,0,L|234:344,1,93.7500035762788
463,317,235880,2,0,L|370:312,1,93.7500035762788,8|0,0:0|0:0,0:0:0:0:
175,171,236100,2,0,B|234:213|262:279|262:279|262:208|311:151,1,281.250010728836,2|10,0:0|0:0,0:0:0:0:
112,106,236541,6,0,P|84:143|73:189,1,93.7500035762788
407,148,236762,2,0,P|385:106|350:76,1,93.7500035762788,8|0,0:0|0:0,0:0:0:0:
137,62,236983,5,0,0:0:0:0:
213,87,237093,1,0,0:0:0:0:
311,150,237203,5,8,0:0:0:0:
235,175,237313,1,0,0:0:0:0:
114,201,237424,6,0,P|138:288|264:237,1,187.500007152558,2|8,0:0|0:0,0:0:0:0:
332,169,237755,2,0,P|244:146|225:280,1,187.500007152558,2|8,0:0|0:0,0:0:0:0:
255,378,238085,2,0,P|298:345|318:288,1,93.7500035762788,2|0,0:0|0:0,0:0:0:0:
311,95,238306,6,0,B|288:115|257:116|257:116|262:148|255:172|255:172|286:178|311:199|311:199|323:174|351:158|351:158|332:139|333:102,1,281.250010728836,6|0,0:0|0:0,0:0:0:0:
259,27,238747,5,2,0:0:0:0:
162,151,238894,1,2,0:0:0:0:
363,191,239041,1,2,0:0:0:0:
140,316,240071,1,0,0:0:0:0:
320,224,240291,5,2,0:0:0:0:
149,175,240512,5,2,0:0:0:0:
282,333,240733,5,2,0:0:0:0:
322,131,240953,5,2,0:0:0:0:
73,222,241174,5,2,0:0:0:0:
435,270,241394,5,2,0:0:0:0:
256,48,241615,5,2,0:0:0:0:
256,48,241725,2,0,L|256:111,1,62.5,2|0,0:0|0:0,0:0:0:0:
279,183,242277,6,0,P|300:134|284:56,1,109.375001043081,4|0,0:0|0:0,0:0:0:0:
121,56,242497,2,0,P|100:105|116:183,1,109.375001043081,8|0,0:0|0:0,0:0:0:0:
190,351,242718,5,2,0:0:0:0:
233,354,242828,2,0,L|345:328,1,109.375001043081,2|8,0:0|0:0,0:0:0:0:
129,265,243049,2,0,L|95:374,1,109.375001043081,2|0,0:0|0:0,0:0:0:0:
258,219,243269,2,0,L|179:135,1,109.375001043081,2|8,0:0|0:0,0:0:0:0:
207,289,243490,6,0,P|238:194|354:278,1,218.750002086163,2|0,0:0|0:0,0:0:0:0:
394,347,243821,2,0,P|335:327|279:341,1,109.375001043081,8|0,0:0|0:0,0:0:0:0:
119,363,244041,1,0,0:0:0:0:
88,280,244152,1,0,0:0:0:0:
119,198,244262,1,8,0:0:0:0:
199,163,244372,1,0,0:0:0:0:
284,185,244483,1,0,0:0:0:0:
350,241,244593,2,0,P|408:180|413:150,1,109.375001043081,0|8,0:0|0:0,0:0:0:0:
215,34,244813,1,0,0:0:0:0:
161,116,244924,6,0,P|238:124|298:94,1,109.375001043081,2|0,0:0|0:0,0:0:0:0:
439,52,245144,1,10,0:0:0:0:
367,113,245255,2,0,B|307:190|422:233|342:321,1,218.750002086163,2|0,0:0|0:0,0:0:0:0:
250,216,245585,2,0,P|243:161|297:90,1,109.375001043081,8|0,0:0|0:0,0:0:0:0:
478,283,245806,2,0,L|337:304,1,109.375001043081
123,337,246027,2,0,L|232:354,1,109.375001043081,8|0,0:0|0:0,0:0:0:0:
384,164,246247,5,2,0:0:0:0:
367,113,246358,2,0,P|324:79|271:68,1,109.375001043081,2|8,0:0|0:0,0:0:0:0:
65,172,246578,2,0,P|92:125|137:95,1,109.375001043081,2|0,0:0|0:0,0:0:0:0:
247,292,246799,2,0,P|200:264|170:219,1,109.375001043081,2|8,0:0|0:0,0:0:0:0:
424,146,247019,6,0,B|372:306|372:306|366:270|339:247,1,218.750002086163,2|0,0:0|0:0,0:0:0:0:
279,61,247350,1,10,0:0:0:0:
261,157,247460,1,0,0:0:0:0:
245,254,247571,2,0,P|302:246|365:267,1,109.375001043081,2|0,0:0|0:0,0:0:0:0:
166,360,247791,1,10,0:0:0:0:
74,309,247902,2,0,B|43:247|100:227|114:222|131:183|131:183|156:214|165:239|141:250|117:241,1,218.750002086163,10|0,0:0|0:0,0:0:0:0:
53,151,248233,1,8,0:0:0:0:
53,151,248343,1,0,0:0:0:0:
53,151,248453,6,0,P|82:100|148:79,1,109.375001043081,2|0,0:0|0:0,0:0:0:0:
320,129,248674,1,10,0:0:0:0:
290,227,248784,2,0,L|148:204,1,109.375001043081,2|0,0:0|0:0,0:0:0:0:
427,111,249005,2,0,L|319:128,2,109.375001043081,0|8|0,0:0|0:0|0:0,0:0:0:0:
222,61,249335,2,0,P|204:115|225:176,1,109.375001043081,2|0,0:0|0:0,0:0:0:0:
373,234,249556,1,10,0:0:0:0:
473,163,249666,2,0,P|402:96|285:143,1,218.750002086163,2|0,0:0|0:0,0:0:0:0:
314,300,249997,2,0,P|366:327|436:291,1,109.375001043081,8|0,0:0|0:0,0:0:0:0:
202,194,250218,5,2,0:0:0:0:
222,300,250328,1,0,0:0:0:0:
296,223,250438,1,10,0:0:0:0:
202,194,250549,2,0,P|159:226|145:313,1,109.375001043081,2|0,0:0|0:0,0:0:0:0:
47,147,250769,1,0,0:0:0:0:
27,233,250880,2,0,P|33:286|101:341,1,109.375001043081,10|0,0:0|0:0,0:0:0:0:
243,205,251100,1,2,0:0:0:0:
235,111,251210,2,0,L|221:3,1,109.375001043081,2|8,0:0|0:0,0:0:0:0:
47,147,251431,6,0,L|75:363,1,218.750002086163,2|0,0:0|0:0,0:0:0:0:
228,313,251762,2,0,L|242:205,1,109.375001043081,8|0,0:0|0:0,0:0:0:0:
106,71,251983,1,0,0:0:0:0:
81,173,252093,1,0,0:0:0:0:
199,177,252203,2,0,L|213:69,1,109.375001043081,8|0,0:0|0:0,0:0:0:0:
440,252,252424,6,0,P|369:219|278:236,1,156.25,2|8,0:0|0:0,0:0:0:0:
355,323,252755,1,0,0:0:0:0:
355,323,252865,6,0,P|369:216|336:116,1,187.500007152558,2|8,0:0|0:0,0:0:0:0:
221,106,253196,1,0,0:0:0:0:
221,106,253306,6,0,P|312:143|449:77,1,218.750002086163,2|8,0:0|0:0,0:0:0:0:
182,0,253637,6,0,P|121:104|273:199,1,250,2|0,0:0|0:0,0:0:0:0:
444,261,253968,5,14,0:0:0:0:
444,261,254078,2,0,P|459:209|414:141,1,109.375001043081,2|0,0:0|0:0,0:0:0:0:
237,158,254299,1,0,0:0:0:0:
272,243,254409,2,0,P|315:210|325:158,1,109.375001043081,10|0,0:0|0:0,0:0:0:0:
201,76,254630,6,0,P|158:108|149:161,1,109.375001043081,2|0,0:0|0:0,0:0:0:0:
154,305,254850,1,8,0:0:0:0:
155,328,254960,1,0,0:0:0:0:
145,351,255071,5,0,0:0:0:0:
192,313,255181,1,0,0:0:0:0:
248,292,255291,1,8,0:0:0:0:
305,310,255402,1,0,0:0:0:0:
356,340,255512,5,2,0:0:0:0:
427,276,255622,1,0,0:0:0:0:
434,179,255733,1,10,0:0:0:0:
366,111,255843,1,2,0:0:0:0:
269,102,255953,6,0,P|201:117|144:109,1,109.375001043081,4|0,0:0|0:0,0:0:0:0:
425,35,256174,2,0,P|440:103|432:160,1,109.375001043081,8|0,0:0|0:0,0:0:0:0:
150,220,256394,2,0,P|147:165|161:112,1,109.375001043081
436,142,256615,2,0,P|383:127|328:130,1,109.375001043081,8|0,0:0|0:0,0:0:0:0:
207,294,256835,5,2,0:0:0:0:
172,315,256946,2,0,P|104:308|53:279,1,109.375001043081,2|8,0:0|0:0,0:0:0:0:
287,239,257166,2,0,P|314:301|315:360,1,109.375001043081,2|0,0:0|0:0,0:0:0:0:
164,178,257387,2,0,P|204:122|254:92,1,109.375001043081,2|8,0:0|0:0,0:0:0:0:
67,290,257608,6,0,L|36:49,1,218.750002086163,2|0,0:0|0:0,0:0:0:0:
230,26,257938,2,0,L|217:154,1,109.375001043081,8|0,0:0|0:0,0:0:0:0:
98,93,258159,1,0,0:0:0:0:
181,66,258269,1,0,0:0:0:0:
261,102,258380,1,8,0:0:0:0:
346,120,258490,1,0,0:0:0:0:
426,85,258600,5,0,0:0:0:0:
446,118,258710,1,0,0:0:0:0:
344,235,258821,1,8,0:0:0:0:
324,202,258931,1,0,0:0:0:0:
471,199,259041,5,2,0:0:0:0:
421,217,259152,1,0,0:0:0:0:
296,138,259262,1,10,0:0:0:0:
346,120,259372,1,2,0:0:0:0:
395,282,259483,6,0,B|385:343|385:343|344:367,1,109.375001043081
215,149,259703,2,0,B|225:88|225:88|266:64,1,109.375001043081,8|0,0:0|0:0,0:0:0:0:
305,309,259924,1,0,0:0:0:0:
310,207,260034,1,0,0:0:0:0:
269,328,260144,1,8,0:0:0:0:
202,242,260255,1,0,0:0:0:0:
247,359,260365,5,2,0:0:0:0:
133,330,260475,2,0,P|94:302|76:236,1,109.375001043081,2|8,0:0|0:0,0:0:0:0:
266,137,260696,2,0,P|250:188|208:221,1,109.375001043081,2|0,0:0|0:0,0:0:0:0:
55,66,260916,2,0,L|184:47,1,109.375001043081,2|8,0:0|0:0,0:0:0:0:
310,207,261137,6,0,B|240:193|240:193|203:167|203:167|161:180|161:180|78:172,1,218.750002086163,2|0,0:0|0:0,0:0:0:0:
186,320,261468,1,10,0:0:0:0:
281,296,261578,1,0,0:0:0:0:
375,269,261688,2,0,L|492:233,1,109.375001043081,2|0,0:0|0:0,0:0:0:0:
319,105,261909,1,10,0:0:0:0:
310,207,262019,2,0,P|403:183|415:71,1,218.750002086163,10|0,0:0|0:0,0:0:0:0:
206,76,262350,1,8,0:0:0:0:
238,189,262460,1,0,0:0:0:0:
319,105,262571,6,0,B|330:71|330:71|296:-3,1,109.375001043081,2|0,0:0|0:0,0:0:0:0:
141,203,262791,1,10,0:0:0:0:
40,170,262902,2,0,P|100:86|221:157,1,218.750002086163,2|0,0:0|0:0,0:0:0:0:
334,274,263233,1,8,0:0:0:0:
248,248,263343,1,0,0:0:0:0:
189,317,263453,5,2,0:0:0:0:
253,358,263563,1,0,0:0:0:0:
372,291,263674,1,10,0:0:0:0:
328,350,263784,2,0,P|319:245|190:233,1,218.750002086163,2|0,0:0|0:0,0:0:0:0:
106,263,264115,2,0,P|88:303|105:372,1,109.375001043081,8|0,0:0|0:0,0:0:0:0:
415,226,264335,6,0,P|419:172|391:126,1,109.375001043081,2|0,0:0|0:0,0:0:0:0:
154,78,264556,1,10,0:0:0:0:
232,155,264666,2,0,B|249:216|249:216|234:284,1,109.375001043081,2|0,0:0|0:0,0:0:0:0:
46,230,264887,1,0,0:0:0:0:
41,198,264997,1,8,0:0:0:0:
36,165,265108,1,0,0:0:0:0:
106,101,265218,5,0,0:0:0:0:
114,154,265328,1,0,0:0:0:0:
122,207,265438,1,8,0:0:0:0:
131,261,265549,1,0,0:0:0:0:
216,322,265659,5,0,0:0:0:0:
206,246,265769,1,0,0:0:0:0:
196,169,265880,1,8,0:0:0:0:
187,93,265990,1,0,0:0:0:0:
178,17,266100,6,0,P|147:73|156:139,1,109.375001043081,2|0,0:0|0:0,0:0:0:0:
350,253,266321,1,10,0:0:0:0:
358,121,266431,2,0,P|341:218|244:202,1,218.750002086163,2|0,0:0|0:0,0:0:0:0:
317,52,266762,2,0,L|446:42,1,109.375001043081,8|0,0:0|0:0,0:0:0:0:
454,261,266983,6,0,L|501:162,1,109.375001043081,2|0,0:0|0:0,0:0:0:0:
254,73,267203,1,10,0:0:0:0:
243,201,267313,2,0,P|340:218|358:121,1,218.750002086163,2|0,0:0|0:0,0:0:0:0:
176,188,267644,1,8,0:0:0:0:
318,269,267755,1,0,0:0:0:0:
178,351,267865,5,2,0:0:0:0:
244,202,267975,1,0,0:0:0:0:
277,360,268085,1,10,0:0:0:0:
156,253,268196,1,0,0:0:0:0:
318,269,268306,2,0,P|342:220|341:165,1,109.375001043081,2|0,0:0|0:0,0:0:0:0:
117,119,268527,2,0,P|93:167|94:222,1,109.375001043081,8|0,0:0|0:0,0:0:0:0:
333,99,268747,5,0,0:0:0:0:
191,133,268858,1,0,0:0:0:0:
287,231,268968,1,10,0:0:0:0:
252,19,269078,6,0,B|277:45|277:45|36:90,1,218.750002086163,4|0,0:0|0:0,0:0:0:0:
355,143,269409,2,0,L|462:123,1,109.375001043081,8|0,0:0|0:0,0:0:0:0:
191,133,269630,5,2,0:0:0:0:
175,246,269740,1,0,0:0:0:0:
299,154,269850,5,2,0:0:0:0:
191,278,269960,1,2,0:0:0:0:
367,278,270071,6,0,P|401:239|406:146,1,125,4|0,0:0|0:0,0:0:0:0:
271,279,270953,2,0,P|287:327|365:378,1,125,4|0,0:0|0:0,0:0:0:0:
318,195,271835,2,0,P|267:185|184:227,1,125,4|0,0:0|0:0,0:0:0:0:
178,322,272718,6,0,B|142:340|110:343|75:329|60:311|60:311|77:282,2,140.625005364418,4|2|2,0:0|0:0|0:0,0:0:0:0:
288,242,273600,6,0,B|316:218|382:234|382:234|379:293|350:315,1,187.500007152558,4|0,0:0|0:0,0:0:0:0:
175,121,274483,5,2,0:0:0:0:
203,238,274630,5,2,0:0:0:0:
291,156,274777,5,2,0:0:0:0:
121,196,274924,5,2,0:0:0:0:
294,247,275071,5,2,0:0:0:0:
253,71,275218,5,2,0:0:0:0:
178,322,275365,5,4,0:0:0:0:
178,322,276027,5,0,0:0:0:0:
196,324,276100,1,0,0:0:0:0:
214,323,276174,1,0,0:0:0:0:
230,320,276247,2,0,P|263:280|251:223,1,93.7500035762788,2|0,0:0|0:0,0:0:0:0:
136,176,276688,2,0,P|102:215|114:272,1,93.7500035762788,2|0,0:0|0:0,0:0:0:0:
246,313,277130,5,4,0:0:0:0:
273,282,277240,2,0,P|284:240|269:191,1,78.125,2|8,0:0|0:0,0:0:0:0:
65,99,277460,1,0,0:0:0:0:
72,134,277571,2,0,P|102:164|152:176,1,78.125,2|0,0:0|0:0,0:0:0:0:
305,138,277791,2,0,P|328:108|336:70,1,78.125,8|0,0:0|0:0,0:0:0:0:
451,201,278012,5,0,0:0:0:0:
449,241,278122,2,0,L|414:343,1,78.125,2|8,0:0|0:0,0:0:0:0:
197,236,278343,1,0,0:0:0:0:
229,215,278453,2,0,B|267:198|267:198|319:202,1,78.125,2|0,0:0|0:0,0:0:0:0:
476,124,278674,2,0,B|438:107|438:107|386:111,1,78.125,8|0,0:0|0:0,0:0:0:0:
204,140,278894,5,0,0:0:0:0:
204,110,279005,2,0,L|213:23,1,78.125,2|8,0:0|0:0,0:0:0:0:
88,190,279225,1,0,0:0:0:0:
88,160,279336,2,0,L|97:73,1,78.125,2|0,0:0|0:0,0:0:0:0:
313,215,279556,2,0,L|304:128,1,78.125,8|0,0:0|0:0,0:0:0:0:
120,289,279777,5,0,0:0:0:0:
144,311,279887,2,0,P|171:328|240:316,1,78.125,2|8,0:0|0:0,0:0:0:0:
384,227,280108,1,0,0:0:0:0:
421,307,280218,2,0,L|428:384,1,78.125,2|0,0:0|0:0,0:0:0:0:
295,220,280438,2,0,L|224:187,1,78.125,10|0,0:0|0:0,0:0:0:0:
434,154,280659,5,0,0:0:0:0:
445,115,280769,2,0,L|508:70,1,78.125,2|8,0:0|0:0,0:0:0:0:
424,292,280990,1,0,0:0:0:0:
379,306,281100,2,0,P|340:304|306:286,1,78.125,2|0,0:0|0:0,0:0:0:0:
234,97,281321,2,0,P|221:133|226:172,1,78.125,8|0,0:0|0:0,0:0:0:0:
72,282,281541,6,0,L|149:269,1,78.125,0|2,0:0|0:0,0:0:0:0:
336,198,281761,2,0,L|259:211,1,78.125,8|0,0:0|0:0,0:0:0:0:
113,171,281983,2,0,L|89:86,1,78.125,2|0,0:0|0:0,0:0:0:0:
295,309,282203,2,0,L|319:394,1,78.125,8|0,0:0|0:0,0:0:0:0:
204,239,282424,5,2,0:0:0:0:
228,121,282571,5,2,0:0:0:0:
274,108,282865,5,2,0:0:0:0:
409,192,283012,5,2,0:0:0:0:
308,312,283159,5,2,0:0:0:0:
224,171,283306,5,2,0:0:0:0:
418,310,283453,5,2,0:0:0:0:
411,75,283600,5,2,0:0:0:0:
411,75,284188,5,4,0:0:0:0:
424,117,284299,2,0,P|408:163|415:220,1,78.125,2|8,0:0|0:0,0:0:0:0:
246,210,284519,1,0,0:0:0:0:
258,249,284630,2,0,P|290:285|343:306,1,78.125,2|0,0:0|0:0,0:0:0:0:
480,167,284850,2,0,P|432:176|387:212,1,78.125,8|0,0:0|0:0,0:0:0:0:
317,340,285071,5,0,0:0:0:0:
275,357,285181,2,0,L|185:353,1,78.125,2|8,0:0|0:0,0:0:0:0:
66,193,285402,1,0,0:0:0:0:
43,234,285512,2,0,B|44:272|44:272|68:303,1,78.125,2|0,0:0|0:0,0:0:0:0:
274,244,285733,2,0,B|272:205|272:205|248:174,1,78.125,8|0,0:0|0:0,0:0:0:0:
69,90,285953,5,0,0:0:0:0:
103,67,286063,2,0,P|140:52|191:61,1,78.125,2|8,0:0|0:0,0:0:0:0:
337,149,286284,1,0,0:0:0:0:
305,168,286394,2,0,P|273:143|222:137,1,78.125,2|0,0:0|0:0,0:0:0:0:
63,284,286615,2,0,P|59:245|73:209,1,78.125,8|0,0:0|0:0,0:0:0:0:
203,370,286835,5,0,0:0:0:0:
243,359,286946,2,0,P|272:333|287:298,1,78.125,2|8,0:0|0:0,0:0:0:0:
271,81,287166,1,0,0:0:0:0:
189,27,287277,2,0,B|168:14|168:14|112:21,1,78.125,2|0,0:0|0:0,0:0:0:0:
353,135,287497,2,0,B|374:148|374:148|429:140,1,78.125,10|0,0:0|0:0,0:0:0:0:
216,174,287718,5,0,0:0:0:0:
195,214,287828,2,0,P|190:244|194:296,1,78.125,2|8,0:0|0:0,0:0:0:0:
435,304,288049,1,0,0:0:0:0:
415,338,288159,2,0,L|323:327,1,78.125,2|0,0:0|0:0,0:0:0:0:
96,290,288380,2,0,L|173:280,1,78.125,8|0,0:0|0:0,0:0:0:0:
401,182,288600,6,0,P|396:143|379:109,1,78.125,0|2,0:0|0:0,0:0:0:0:
136,108,288821,2,0,P|160:78|193:57,1,78.125,8|0,0:0|0:0,0:0:0:0:
400,263,289041,2,0,P|353:246|312:208,1,78.125,2|0,0:0|0:0,0:0:0:0:
95,178,289262,2,0,P|132:185|172:179,1,78.125,8|0,0:0|0:0,0:0:0:0:
265,279,289483,5,2,0:0:0:0:
255,275,289556,1,2,0:0:0:0:
244,272,289630,1,2,0:0:0:0:
233,271,289703,1,2,0:0:0:0:
222,271,289777,1,2,0:0:0:0:
212,273,289850,1,2,0:0:0:0:
202,277,289924,2,2,P|164:281|122:246,5,52.0833333333333,10|2|2|2|2|2,0:0|0:0|0:0|0:0|0:0|0:0,0:0:0:0:
188,203,290365,6,0,P|82:210|76:317,1,234.375,4|0,0:0|0:0,0:0:0:0:
143,384,290806,6,0,P|249:377|255:270,1,234.375,4|0,0:0|0:0,0:0:0:0:
233,242,291468,6,0,B|224:349|128:365|128:365|120:252|192:208|192:208|64:189|32:176|0:29|0:29|128:-2|192:-2|256:144|256:144|320:-2|384:-2|512:29|512:29|480:176|448:189|320:208|320:208|392:252|384:365|384:365|288:349|278:239,1,1937.5,6|0,0:0|0:0,0:0:0:0:
