osu file format v14

[General]
AudioFilename: audio.mp3
AudioLeadIn: 0
PreviewTime: 137708
Countdown: 0
SampleSet: Soft
StackLeniency: 0.7
Mode: 2
LetterboxInBreaks: 0
WidescreenStoryboard: 1

[Editor]
Bookmarks: 22560,79693,110134,111899,115428,118958,121825,126458,129987,133516,152046,165391,166053,180943,181825,254840,269619,271163
DistanceSpacing: 0.5
BeatDivisor: 4
GridSize: 8
TimelineZoom: 4.653887

[Metadata]
Title:Akari ga Yattekita zo
TitleUnicode:アカリがやってきたぞっ
Artist:Mirai Akari
ArtistUnicode:ミライアカリ
Creator:Elux
Version:Gatan goton Gatan goton
Source:
Tags:紲星あかり 超銀河キズユカ歌合戦 virtual youtuber vtuber vocaloid voiceloid kizuna GYARI ココアシガレットp cocoa cigarette-p 葉狩はじめ Hagari Hajime あいとも AiTomo nico douga hicari Japanese Jazz HICCA onomatopoeia jubeat festo
BeatmapID:4180741
BeatmapSetID:1829712

[Difficulty]
HPDrainRate:6
CircleSize:4.3
OverallDifficulty:9.5
ApproachRate:9.5
SliderMultiplier:2
SliderTickRate:1

[Events]
//Background and Video events
0,0,"BG.jpg",0,0
Video,0,"video.mp4"
//Break Periods
//Storyboard Layer 0 (Background)
//Storyboard Layer 1 (Fail)
//Storyboard Layer 2 (Pass)
//Storyboard Layer 3 (Foreground)
//Storyboard Layer 4 (Overlay)
//Storyboard Sound Samples

[TimingPoints]
61,441.176470588235,4,2,1,30,1,0
61,-35.7142857142857,4,2,1,30,0,0
5134,-31.6455696202532,4,2,1,30,0,0
5575,-35.7142857142857,4,2,1,30,0,0
8663,-31.6455696202532,4,2,1,30,0,0
12413,-19.2307692307692,4,2,1,30,0,0
12744,-31.6455696202532,4,2,1,30,0,0
15943,-31.6455696202532,4,2,1,40,0,0
17708,-31.6455696202532,4,2,1,45,0,0
19472,-19.2307692307692,4,2,1,50,0,0
19803,-31.6455696202532,4,2,1,50,0,0
21678,-31.6455696202532,4,2,1,60,0,0
22560,-26.5957446808511,4,2,1,70,0,0
23112,-31.6455696202532,4,2,1,70,0,0
28737,-28.4090909090909,4,2,1,70,0,0
29399,-35.7142857142857,4,2,1,70,0,0
30060,-31.6455696202532,4,2,1,70,0,0
35355,-31.6455696202532,4,2,1,40,0,0
36237,-26.5957446808511,4,2,1,70,0,0
37119,-31.6455696202532,4,2,1,55,0,0
40097,-26.5957446808511,4,2,1,55,0,0
40759,-21.7391304347826,4,2,1,55,0,0
41531,-31.6455696202532,4,2,1,55,0,0
41972,-28.4090909090909,4,2,1,55,0,0
42524,-31.6455696202532,4,2,1,55,0,0
43516,-28.4090909090909,4,2,1,55,0,0
43958,-31.6455696202532,4,2,1,55,0,0
44619,-21.7391304347826,4,2,1,55,0,0
45943,-31.6455696202532,4,2,1,55,0,0
48590,-29.4117647058824,4,2,1,55,0,0
49913,-21.7391304347826,4,2,1,55,0,0
50575,-31.6455696202532,4,2,1,55,0,0
51237,-31.6455696202532,4,2,1,60,0,0
59068,-21.7391304347826,4,2,1,60,0,0
59399,-31.6455696202532,4,2,1,60,0,0
60833,-21.7391304347826,4,2,1,60,0,0
61384,-31.6455696202532,4,2,1,60,0,0
65355,-31.6455696202532,4,2,1,70,0,0
80575,-31.6455696202532,4,2,1,50,0,0
81016,-31.6455696202532,4,2,1,50,0,0
81237,-31.6455696202532,4,2,1,75,0,1
83443,-29.4117647058824,4,2,1,75,0,1
83884,-27.4725274725275,4,2,1,75,0,1
84325,-31.6455696202532,4,2,1,75,0,1
88737,-25,4,2,1,75,0,1
89178,-31.6455696202532,4,2,1,75,0,1
90943,-35.7142857142857,4,2,1,75,0,1
91384,-31.6455696202532,4,2,1,75,0,1
92266,-25,4,2,1,75,0,1
92708,-31.6455696202532,4,2,1,75,0,1
93783,-31.6455696202532,4,2,1,5,0,1
93810,-27.4725274725275,4,2,1,75,0,1
94004,-27.4725274725275,4,2,1,5,0,1
94031,-24.2718446601942,4,2,1,75,0,1
94224,-24.2718446601942,4,2,1,5,0,1
94252,-21.7391304347826,4,2,1,75,0,1
94445,-21.7391304347826,4,2,1,5,0,1
94472,-19.6850393700788,4,2,1,75,0,1
94913,-31.6455696202532,4,2,1,75,0,1
95796,-26.5957446808511,4,2,1,75,0,1
96237,-31.6455696202532,4,2,1,75,0,1
98002,-27.4725274725275,4,2,1,75,0,1
98443,-31.6455696202532,4,2,1,75,0,1
102855,-24.2718446601942,4,2,1,75,0,1
103737,-31.6455696202532,4,2,1,75,0,1
104399,-25,4,2,1,75,0,1
105060,-31.6455696202532,4,2,1,75,0,1
107928,-31.6455696202532,4,2,1,50,0,1
109472,-31.6455696202532,4,2,1,40,0,0
123590,-31.6455696202532,4,2,1,50,0,0
136825,-31.6455696202532,4,2,1,40,0,0
136935,-28.4090909090909,4,2,1,40,0,0
137377,-26.5957446808511,4,2,1,40,0,0
137487,-31.6455696202532,4,2,1,40,0,0
137708,-31.6455696202532,4,2,1,70,0,0
143663,-17.2413793103448,4,2,1,70,0,0
143884,-31.6455696202532,4,2,1,70,0,0
152046,-31.6455696202532,4,2,1,25,0,0
152487,-31.6455696202532,4,2,1,30,0,0
152708,-31.6455696202532,4,2,1,35,0,0
153369,-31.6455696202532,4,2,1,60,0,0
178296,-31.6455696202532,4,2,1,50,0,0
181825,-31.6455696202532,4,2,1,60,0,0
183810,-31.6455696202532,4,2,1,60,0,0
184472,-31.6455696202532,4,2,1,60,0,0
187009,-31.6455696202532,4,2,1,60,0,0
187119,-31.6455696202532,4,2,1,60,0,0
188774,-31.6455696202532,4,2,1,60,0,0
188884,-31.6455696202532,4,2,1,60,0,0
190869,-31.6455696202532,4,2,1,60,0,0
191531,-31.6455696202532,4,2,1,60,0,0
194068,-31.6455696202532,4,2,1,60,0,0
194178,-31.6455696202532,4,2,1,60,0,0
194509,-31.6455696202532,4,2,1,60,0,0
194619,-31.6455696202532,4,2,1,60,0,0
194950,-31.6455696202532,4,2,1,60,0,0
195060,-31.6455696202532,4,2,1,60,0,0
195391,-31.6455696202532,4,2,1,60,0,0
195502,-31.6455696202532,4,2,1,60,0,0
195833,-31.6455696202532,4,2,1,60,0,0
195943,-31.6455696202532,4,2,1,60,0,0
197046,-31.6455696202532,4,2,1,60,0,0
197487,-26.5957446808511,4,2,1,60,0,0
197707,-31.6455696202532,4,2,1,60,0,0
198480,-31.6455696202532,4,2,1,60,0,0
198590,-31.6455696202532,4,2,1,60,0,0
198921,-31.6455696202532,4,2,1,60,0,0
199031,-31.6455696202532,4,2,1,60,0,0
199362,-31.6455696202532,4,2,1,60,0,0
199472,-31.6455696202532,4,2,1,60,0,0
200244,-31.6455696202532,4,2,1,60,0,0
200355,-31.6455696202532,4,2,1,60,0,0
201458,-31.6455696202532,4,2,1,60,0,0
202119,-31.6455696202532,4,2,1,60,0,0
202891,-31.6455696202532,4,2,1,60,0,0
203002,-31.6455696202532,4,2,1,60,0,0
205538,-31.6455696202532,4,2,1,60,0,0
205649,-31.6455696202532,4,2,1,60,0,0
206421,-31.6455696202532,4,2,1,60,0,0
206531,-31.6455696202532,4,2,1,60,0,0
212046,-31.6455696202532,4,2,1,50,0,0
213369,-31.6455696202532,4,2,1,50,0,0
213590,-31.6455696202532,4,2,1,75,0,1
226136,-31.6455696202532,4,2,1,5,0,1
226163,-27.4725274725275,4,2,1,75,0,1
226356,-27.4725274725275,4,2,1,5,0,1
226384,-24.2718446601942,4,2,1,75,0,1
226577,-24.2718446601942,4,2,1,5,0,1
226605,-21.7391304347826,4,2,1,75,0,1
226798,-21.7391304347826,4,2,1,5,0,1
226825,-19.6850393700788,4,2,1,75,0,1
227046,-31.6455696202532,4,2,1,75,0,1
232560,-35.7142857142857,4,2,1,75,0,1
233002,-31.6455696202532,4,2,1,75,0,1
236751,-26.5957446808511,4,2,1,75,0,1
237413,-31.6455696202532,4,2,1,75,0,0
240060,-31.6455696202532,4,2,1,60,0,0
242266,-31.6455696202532,4,2,1,75,0,1
250538,-26.5957446808511,4,2,1,75,0,1
250980,-31.6455696202532,4,2,1,75,0,1
270281,-31.6455696202532,4,2,1,20,0,1
270502,-31.6455696202532,4,2,1,65,0,1
271163,-31.6455696202532,4,2,1,20,0,1
271384,-31.6455696202532,4,2,1,65,0,1
272046,-31.6455696202532,4,2,1,20,0,1
272266,-31.6455696202532,4,2,1,65,0,1
272708,-31.6455696202532,4,2,1,75,0,1
275355,-26.5957446808511,4,2,1,75,0,0
276568,-26.5957446808511,4,2,1,20,0,0
276678,-26.5957446808511,4,2,1,75,0,0
277009,-26.5957446808511,4,2,1,20,0,0
277119,-31.6455696202532,4,2,1,70,0,0
289472,-31.6455696202532,4,2,1,40,0,0
290355,-26.5957446808511,4,2,1,70,0,0
291458,-26.5957446808511,4,2,1,50,0,0
291568,-26.5957446808511,4,2,1,20,0,0

[Colours]
Combo1 : 252,209,5
Combo2 : 0,191,252
Combo3 : 184,37,45
Combo4 : 252,148,17

[HitObjects]
160,280,1825,5,8,0:0:0:0:
332,164,2046,2,0,L|304:278|304:278|232:132|232:132,1,280,2|0,0:0|0:0,0:0:0:0:
140,164,2487,2,0,L|189:270|189:270|233:113|233:113,1,280,2|0,0:0|0:0,0:0:0:0:
332,164,2928,2,0,L|300:277|300:277|251:122|251:122,1,280,2|0,0:0|0:0,0:0:0:0:
140,164,3369,2,0,L|153:280|153:280|207:126|207:126,1,280,2|0,0:0|0:0,0:0:0:0:
332,164,3810,6,0,L|315:280|315:280|332:118|332:118,1,280,2|0,0:0|0:0,0:0:0:0:
196,164,4252,2,0,L|167:278|167:278|129:120|129:120,1,280,2|0,0:0|0:0,0:0:0:0:
268,164,4693,2,0,L|310:273|310:273|368:121|368:121,1,280,2|0,0:0|0:0,0:0:0:0:
219,169,5134,2,0,L|200:246|200:246|154:310|154:310|219:166|219:166,2,157.999992767334,2|0|8,0:0|0:0|0:0,0:0:0:0:
357,160,5575,6,0,L|404:267|404:267|453:112|453:112,1,280,2|0,0:0|0:0,0:0:0:0:
313,152,6017,2,0,L|296:268|296:268|246:113|246:113,1,280,2|0,0:0|0:0,0:0:0:0:
385,161,6458,2,0,L|388:278|388:278|385:115|385:115,1,280,2|0,0:0|0:0,0:0:0:0:
247,156,6899,2,0,L|261:272|261:272|314:118|314:118,1,280,2|0,0:0|0:0,0:0:0:0:
448,161,7340,6,0,L|410:272|410:272|367:115|367:115,1,280,2|0,0:0|0:0,0:0:0:0:
234,161,7781,2,0,L|281:268|281:268|327:112|327:112,1,280,2|0,0:0|0:0,0:0:0:0:
464,179,8222,2,0,L|417:286|417:286|364:132|364:132,1,280,2|0,0:0|0:0,0:0:0:0:
187,183,8663,6,0,L|238:244|238:244|252:322|252:322|187:178|187:178,2,157.999992767334,2|0|8,0:0|0:0|0:0,0:0:0:0:
371,191,9105,2,0,L|371:349|371:349,1,157.999992767334,2|0,0:0|0:0,0:0:0:0:
283,119,9325,1,8,0:0:0:0:
475,191,9546,2,0,L|475:349|475:349,1,157.999992767334,2|0,0:0|0:0,0:0:0:0:
387,119,9766,2,0,L|341:243|341:243|257:80|257:80,1,315.99998553467,8|2,0:0|0:0,0:0:0:0:
139,119,10097,2,0,L|175:246|175:246|269:88|269:88,1,315.99998553467,8|0,0:0|0:0,0:0:0:0:
491,215,10428,2,0,L|442:277|442:277|426:354|426:354|491:210|491:210,2,157.999992767334,10|0|8,0:0|0:0|0:0,0:0:0:0:
299,63,10869,6,0,L|364:207|364:207,1,157.999992767334,2|0,0:0|0:0,0:0:0:0:
429,63,11090,1,8,0:0:0:0:
235,159,11310,2,0,L|235:317|235:317,1,157.999992767334,2|0,0:0|0:0,0:0:0:0:
323,87,11531,2,0,L|364:213|364:213|453:374|453:374,1,315.99998553467,8|2,0:0|0:0,0:0:0:0:
335,191,11862,2,0,L|288:314|288:314|205:150|205:150,1,315.99998553467,8|0,0:0|0:0,0:0:0:0:
430,295,12193,2,0,L|365:151|365:151,1,157.999992767334,10|0,0:0|0:0,0:0:0:0:
430,247,12413,6,0,L|320:59|320:59|130:294|130:294,1,520.000019836426,8|2,0:0|0:0,0:0:0:0:
190,247,12744,2,0,L|255:103|255:103,1,157.999992767334,0|8,0:0|0:0,0:0:0:0:
451,103,13075,2,0,L|386:247|386:247,1,157.999992767334,2|0,0:0|0:0,0:0:0:0:
451,55,13296,2,0,L|384:169|384:169|321:342|321:342,1,315.99998553467,8|2,0:0|0:0,0:0:0:0:
203,94,13627,2,0,L|261:213|261:213|333:382|333:382,1,315.99998553467,8|0,0:0|0:0,0:0:0:0:
116,217,13958,2,0,L|116:375|116:375,1,157.999992767334,10|0,0:0|0:0,0:0:0:0:
204,145,14178,5,8,0:0:0:0:
397,63,14399,1,2,0:0:0:0:
109,63,14619,1,2,0:0:0:0:
307,175,14840,2,0,L|242:319|242:319,1,157.999992767334
177,175,15060,1,8,0:0:0:0:
371,87,15281,2,0,L|334:157|334:157|306:231|306:231|371:375|371:375,2,157.999992767334,2|0|8,0:0|0:0|0:0,0:0:0:0:
155,103,15722,2,0,L|90:247|90:247,1,157.999992767334
266,40,15943,5,8,0:0:0:0:
459,39,16163,2,0,L|440:116|440:116|394:180|394:180|459:324|459:324,2,157.999992767334,2|0|8,0:0|0:0|0:0,0:0:0:0:
267,207,16605,2,0,L|267:365|267:365,1,157.999992767334,2|0,0:0|0:0,0:0:0:0:
355,143,16825,2,0,L|412:262|412:262|485:93|485:93,1,315.99998553467,8|2,0:0|0:0,0:0:0:0:
367,192,17156,2,0,L|313:313|313:313|237:146|237:146,1,315.99998553467,8|0,0:0|0:0,0:0:0:0:
461,288,17487,2,0,L|414:352|414:352|396:275|396:275|461:131|461:131,2,157.999992767334,10|0|8,0:0|0:0|0:0,0:0:0:0:
267,63,17928,6,0,L|332:207|332:207,1,157.999992767334,2|0,0:0|0:0,0:0:0:0:
397,63,18149,1,8,0:0:0:0:
203,159,18369,2,0,L|203:317|203:317,1,157.999992767334,2|0,0:0|0:0,0:0:0:0:
291,87,18590,2,0,L|359:200|359:200|421:373|421:373,1,315.99998553467,8|2,0:0|0:0,0:0:0:0:
303,190,18921,2,0,L|267:317|267:317|173:159|173:159,1,315.99998553467,8|0,0:0|0:0,0:0:0:0:
399,299,19252,2,0,L|334:155|334:155,1,157.999992767334,10|0,0:0|0:0,0:0:0:0:
399,251,19472,6,0,L|288:64|288:64|99:300|99:300,1,520.000019836426,8|2,0:0|0:0,0:0:0:0:
159,251,19803,2,0,L|224:107|224:107,1,157.999992767334,0|8,0:0|0:0,0:0:0:0:
459,135,20134,2,0,L|414:200|414:200|394:276|394:276|459:132|459:132,2,157.999992767334,2|0|8,0:0|0:0|0:0,0:0:0:0:
179,119,20575,2,0,L|194:196|194:196|244:257|244:257|179:113|179:113,2,157.999992767334,2|8|0,0:0|0:0|0:0,0:0:0:0:
483,111,21016,1,10,0:0:0:0:
155,159,21678,5,8,0:0:0:0:
483,183,22340,1,0,0:0:0:0:
99,103,22560,2,0,L|159:213|159:213|225:320|225:320|279:207|279:207|369:43|369:43,1,563.999982788086,8|0,0:0|0:0,0:0:0:0:
163,142,23002,5,4,0:0:0:0:
242,240,23112,2,0,L|307:384|307:384,1,157.999992767334,2|8,0:2|0:2,0:2:0:0:
163,142,23333,2,0,L|163:300|163:300,1,157.999992767334,0|2,0:2|0:2,0:0:0:0:
251,150,23553,1,0,0:2:0:0:
140,53,23663,2,0,L|205:197|205:197,1,157.999992767334,8|0,0:2|0:2,0:2:0:0:
371,309,23884,2,0,L|306:165|306:165,1,157.999992767334,0|2,0:2|0:2,0:0:0:0:
241,309,24105,1,8,0:2:0:0:
383,256,24215,2,0,L|383:98|383:98,1,157.999992767334,0|2,0:2|0:2,0:0:0:0:
294,193,24435,1,0,0:2:0:0:
404,121,24546,2,0,L|339:265|339:265,1,157.999992767334,8|0,0:2|0:2,0:2:0:0:
170,60,24766,6,0,L|118:120|118:120|105:198|105:198|170:342|170:342,2,157.999992767334,0|2|8,0:2|0:2|0:2,0:0:0:0:
26,228,25097,2,0,L|91:372|91:372,1,157.999992767334,0|2,0:2|0:2,0:0:0:0:
156,225,25318,1,0,0:2:0:0:
45,304,25428,2,0,L|110:160|110:160,1,157.999992767334,8|0,0:2|0:2,0:2:0:0:
277,55,25649,2,0,L|212:199|212:199,1,157.999992767334,0|2,0:2|0:2,0:0:0:0:
147,55,25869,1,8,0:2:0:0:
317,135,25980,2,0,L|354:205|354:205|382:279|382:279|317:135|317:135,2,157.999992767334,0|2|0,0:2|0:2|0:2,0:0:0:0:
485,49,26310,2,0,L|420:193|420:193,1,157.999992767334,10|0,0:2|0:2,0:2:0:0:
254,290,26531,6,0,L|282:364|282:364|319:294|319:294|254:150|254:150,2,157.999992767334,0|2|8,0:2|0:2|0:2,0:0:0:0:
380,249,26862,2,0,L|380:91|380:91,1,157.999992767334,0|2,0:2|0:2,0:0:0:0:
292,177,27083,1,0,0:2:0:0:
402,112,27193,2,0,L|402:270|402:270,1,157.999992767334,8|0,0:2|0:2,0:2:0:0:
235,38,27413,2,0,L|300:182|300:182,1,157.999992767334,0|2,0:2|0:2,0:2:0:0:
365,39,27634,1,8,0:2:0:0:
221,112,27744,2,0,L|176:177|176:177|156:253|156:253|221:109|221:109,2,157.999992767334,0|2|0,0:2|0:2|0:2,0:0:0:0:
112,248,28075,2,0,L|62:310|62:310|47:232|47:232|112:88|112:88,2,157.999992767334,8|0|0,0:2|0:0|0:0,0:2:0:0:
440,192,28516,5,2,0:2:0:0:
224,192,28737,2,0,B|244:270|244:270|282:341|282:341|317:268|317:268|362:201|362:201|376:121|376:121|319:64|319:64|298:142|298:142|224:259|224:259,1,704,2|0,0:2|0:2,0:2:0:0:
80,112,29399,2,0,L|119:170|119:170|112:240|112:240|162:289|162:289|180:357|180:357|122:255|122:255|80:98|80:98,2,280,2|2|0,0:2|0:2|0:2,0:2:0:0:
408,104,30060,6,0,L|372:175|372:175|343:248|343:248|408:104|408:104,2,157.999992767334,4|2|8,0:2|0:2|0:2,0:0:0:0:
264,50,30391,2,0,L|306:117|306:117|329:193|329:193|264:337|264:337,2,157.999992767334,0|2|0,0:2|0:2|0:2,0:0:0:0:
152,223,30722,2,0,L|217:367|217:367,1,157.999992767334,8|0,0:2|0:2,0:2:0:0:
384,150,30943,2,0,L|384:308|384:308,1,157.999992767334,0|2,0:2|0:2,0:0:0:0:
296,86,31163,1,8,0:2:0:0:
438,283,31274,2,0,L|373:139|373:139,1,157.999992767334,0|2,0:2|0:2,0:0:0:0:
308,288,31494,1,0,0:2:0:0:
418,112,31605,2,0,L|418:270|418:270,1,157.999992767334,8|0,0:2|0:2,0:2:0:0:
248,57,31825,6,0,L|214:129|214:129|183:202|183:202|248:346|248:346,2,157.999992767334,0|2|8,0:2|0:2|0:2,0:0:0:0:
104,203,32156,2,0,L|104:361|104:361,1,157.999992767334,0|2,0:2|0:2,0:0:0:0:
192,139,32377,1,0,0:2:0:0:
82,295,32487,2,0,L|82:137|82:137,1,157.999992767334,8|0,0:2|0:2,0:2:0:0:
251,256,32708,2,0,L|292:323|292:323|316:248|316:248|251:104|251:104,2,157.999992767334,0|2|8,0:2|0:2|0:2,0:0:0:0:
419,192,33038,2,0,L|354:336|354:336,1,157.999992767334,0|2,0:2|0:2,0:0:0:0:
291,192,33259,1,0,0:2:0:0:
460,111,33369,2,0,L|395:255|395:255,1,157.999992767334,10|0,0:2|0:2,0:2:0:0:
228,68,33590,6,0,L|260:140|260:140|293:212|293:212|228:356|228:356,2,157.999992767334,0|2|8,0:2|0:2|0:2,0:0:0:0:
358,68,33921,2,0,L|408:130|408:130|423:208|423:208|358:352|358:352,2,157.999992767334,0|2|0,0:2|0:2|0:2,0:0:0:0:
469,230,34252,2,0,L|404:374|404:374,1,157.999992767334,8|0,0:2|0:2,0:2:0:0:
235,110,34472,2,0,L|218:187|218:187|170:250|170:250|235:106|235:106,2,157.999992767334,0|2|8,0:2|0:2|0:2,0:2:0:0:
91,218,34803,2,0,L|91:376|91:376,1,157.999992767334,0|2,0:2|0:2,0:0:0:0:
179,162,35024,1,0,0:2:0:0:
69,90,35134,2,0,L|134:234|134:234,1,157.999992767334,8|0,0:2|0:2,0:2:0:0:
314,268,35355,5,0,0:2:0:0:
352,256,35428,1,2,0:2:0:0:
353,215,35502,1,2,0:2:0:0:
314,203,35575,1,2,0:2:0:0:
231,197,35685,1,0,0:0:0:0:
64,184,35796,2,0,L|64:342|64:342,1,157.999992767334,10|0,0:0|0:0,0:0:0:0:
158,115,36016,2,0,L|93:259|93:259,1,157.999992767334,2|0,0:2|0:0,0:0:0:0:
336,40,36237,6,0,B|388:154|388:154|468:251|468:251|447:375|447:375|338:223|338:223,1,563.999982788086,4|0,0:2|0:2,0:2:0:0:
160,48,36678,2,0,B|104:160|104:160|50:273|50:273|60:148|60:148|158:307|158:307,1,563.999982788086,4|0,0:2|0:2,0:2:0:0:
336,104,37119,6,0,L|336:262|336:262,1,157.999992767334,4|0,0:0|0:0,0:0:0:0:
248,104,37340,1,8,0:0:0:0:
56,72,37450,2,0,L|56:230|56:230,1,157.999992767334
144,72,37671,1,0,0:0:0:0:
328,176,37781,2,0,L|393:320|393:320,1,157.999992767334,8|0,0:0|0:0,0:0:0:0:
208,128,38002,2,0,L|143:272|143:272,1,157.999992767334,2|2,0:0|0:0,0:0:0:0:
240,224,38222,2,0,L|175:368|175:368,1,157.999992767334,8|0,0:0|0:0,0:0:0:0:
432,120,38443,1,2,0:0:0:0:
344,120,38553,1,0,0:0:0:0:
256,120,38663,1,0,0:0:0:0:
136,192,38884,5,2,0:0:0:0:
256,192,38994,1,0,0:0:0:0:
376,192,39105,1,8,0:0:0:0:
192,72,39325,2,0,L|226:144|226:144|257:217|257:217|192:361|192:361,2,157.999992767334,2|2|8,0:0|0:0|0:0,0:0:0:0:
472,88,39766,2,0,L|407:232|407:232,1,157.999992767334,2|0,0:0|0:0,0:0:0:0:
216,88,39987,1,8,0:0:0:0:
296,88,40097,2,0,B|339:206|339:206|432:290|432:290|383:174|383:174|298:7|298:7,1,563.999982788086,8|8,0:0|0:0,0:0:0:0:
88,112,40649,5,2,0:0:0:0:
32,192,40759,2,0,B|94:374|94:374|179:120|179:120,1,460,8|0,0:0|0:0,0:0:0:0:
416,160,41090,1,2,0:0:0:0:
472,240,41200,2,0,B|381:70|381:70|325:332|325:332,1,460,8|0,0:0|0:0,0:0:0:0:
152,192,41531,2,0,L|152:350|152:350,1,157.999992767334
256,120,41752,2,0,L|191:264|191:264,1,157.999992767334,8|0,0:0|0:0,0:0:0:0:
448,120,41972,2,0,B|401:186|401:186|371:261|371:261|331:331|331:331|285:265|285:265|326:195|326:195|350:118|350:118|394:50|394:50|448:177|448:177,1,704,2|0,0:0|0:0,0:0:0:0:
280,240,42524,6,0,L|242:310|242:310|215:384|215:384|280:240|280:240,2,157.999992767334,0|8|0,0:0|0:0|0:0,0:0:0:0:
424,192,42855,2,0,L|382:259|382:259|359:335|359:335|388:261|388:261|424:191|424:191|359:47|359:47,3,157.999992767334,2|2|10|2,0:0|0:0|0:0|0:0,0:0:0:0:
188,145,43296,2,0,L|188:303|188:303,1,157.999992767334
328,24,43516,2,0,B|386:127|386:127|422:239|422:239|392:353|392:353|328:190|328:190,1,528
37,178,43958,2,0,L|102:322|102:322,1,157.999992767334,8|0,0:0|0:0,0:0:0:0:
295,256,44178,6,0,L|230:112|230:112,1,157.999992767334,2|0,0:0|0:0,0:0:0:0:
424,184,44399,2,0,L|359:328|359:328,1,157.999992767334,8|0,0:0|0:0,0:0:0:0:
192,248,44619,2,0,B|235:345|235:345|298:260|298:260|284:155|284:155|239:60|239:60|204:160|204:160|190:265|190:265|228:364|228:364|329:214|329:214,1,920,2|0,0:0|0:0,0:0:0:0:
48,88,45281,1,8,0:0:0:0:
160,88,45502,1,0,0:0:0:0:
48,160,45722,1,8,0:0:0:0:
368,176,45943,6,0,L|368:334|368:334,1,157.999992767334,2|2,0:0|0:0,0:0:0:0:
240,176,46163,2,0,L|240:334|240:334,1,157.999992767334,10|2,0:0|0:0,0:0:0:0:
56,48,46384,2,0,L|121:192|121:192,1,157.999992767334,2|2,0:0|0:0,0:0:0:0:
344,48,46825,1,2,0:0:0:0:
120,48,47046,1,10,0:0:0:0:
400,152,47266,2,0,L|335:296|335:296,1,157.999992767334,2|2,0:0|0:0,0:0:0:0:
120,152,47708,6,0,B|140:222|140:222|181:282|181:282|199:352|199:352|228:286|228:286|235:214|235:214|292:169|292:169|288:97|288:97|336:211|336:211,1,631.999971069337,2|2,0:0|0:0,0:0:0:0:
232,184,48369,1,8,0:0:0:0:
352,72,48590,2,0,L|332:155|332:155|270:213|270:213|228:287|228:287|202:368|202:368|273:245|273:245|352:64|352:64,2,340.000012969971,2|8|2,0:0|0:0|0:0,0:0:0:0:
200,136,49252,2,0,L|275:289|275:289,1,170.000006484986
480,152,49472,6,0,L|423:282|423:282|330:107|330:107,1,340.000012969971,2|8,0:0|0:0,0:0:0:0:
128,152,49803,1,2,0:0:0:0:
40,216,49913,2,0,B|128:45|128:45|184:307|184:307,1,460,2|8,0:0|0:0,0:0:0:0:
264,104,50244,1,0,0:0:0:0:
392,96,50575,2,0,L|327:240|327:240,1,157.999992767334,8|2,0:0|0:0,0:0:0:0:
200,128,50796,2,0,L|265:272|265:272,1,157.999992767334,8|2,0:0|0:0,0:0:0:0:
136,160,51016,2,0,L|136:318|136:318,1,157.999992767334,8|2,0:0|0:0,0:0:0:0:
344,48,51237,6,0,L|409:192|409:192,1,157.999992767334,4|0,0:0|0:0,0:0:0:0:
224,256,51458,2,0,L|250:330|250:330|289:261|289:261|224:117|224:117,2,157.999992767334,10|2|2,0:0|0:0|0:0,0:0:0:0:
348,320,51788,2,0,L|283:176|283:176,1,157.999992767334,2|8,0:0|0:0,0:0:0:0:
160,91,52009,2,0,L|225:235|225:235,1,157.999992767334,2|0,0:0|0:0,0:0:0:0:
424,91,52230,2,0,L|359:235|359:235,1,157.999992767334,2|8,0:0|0:0,0:0:0:0:
192,219,52450,2,0,L|174:296|174:296|127:359|127:359|192:215|192:215,2,157.999992767334,2|2|0,0:0|0:0|0:0,0:0:0:0:
68,169,52781,2,0,L|133:313|133:313,1,157.999992767334,10|0,0:0|0:0,0:0:0:0:
257,81,53002,6,0,L|192:225|192:225,1,157.999992767334,2|0,0:0|0:0,0:0:0:0:
361,153,53222,2,0,L|296:297|296:297,1,157.999992767334,10|2,0:0|0:0,0:0:0:0:
130,153,53443,1,2,0:0:0:0:
303,76,53553,2,0,L|304:234|304:234,1,157.999992767334,2|8,0:0|0:0,0:0:0:0:
186,258,53774,2,0,L|251:114|251:114,1,157.999992767334,2|0,0:0|0:0,0:0:0:0:
420,272,53994,2,0,L|420:114|420:114,1,157.999992767334,10|0,0:0|0:0,0:0:0:0:
332,200,54215,1,2,0:0:0:0:
164,191,54325,2,0,L|99:335|99:335,1,157.999992767334,2|0,0:0|0:0,0:0:0:0:
268,120,54546,2,0,L|203:264|203:264,1,157.999992767334,10|0,0:0|0:0,0:0:0:0:
407,58,54766,6,0,L|342:202|342:202,1,157.999992767334,2|0,0:0|0:0,0:0:0:0:
218,57,54987,2,0,L|218:215|218:215,1,157.999992767334,10|0,0:0|0:0,0:0:0:0:
391,266,55207,2,0,L|391:108|391:108,1,157.999992767334,2|2,0:0|0:0,0:0:0:0:
303,202,55428,1,8,0:0:0:0:
180,157,55538,2,0,L|245:301|245:301,1,157.999992767334,2|0,0:0|0:0,0:0:0:0:
76,189,55759,2,0,L|141:333|141:333,1,157.999992767334,2|8,0:0|0:0,0:0:0:0:
312,101,55980,2,0,L|272:169|272:169|247:244|247:244|312:100|312:100,2,157.999992767334,2|2|0,0:0|0:0|0:0,0:0:0:0:
192,296,56310,2,0,L|127:152|127:152,1,157.999992767334,10|0,0:0|0:0,0:0:0:0:
304,248,56531,5,2,0:0:0:0:
88,64,56751,2,0,L|153:208|153:208,1,157.999992767334,8|0,0:0|0:0,0:0:0:0:
344,64,56972,2,0,L|301:160|301:160,1,105.333328511556
224,128,57119,2,0,L|267:224|267:224,1,105.333328511556
440,72,57303,1,0,0:0:0:0:
288,144,57469,1,2,0:0:0:0:
400,192,57634,1,10,0:0:0:0:
72,248,57855,2,0,L|115:373|115:373|202:211|202:211,1,315.99998553467,2|8,0:0|0:0,0:0:0:0:
424,104,58296,5,0,0:0:0:0:
212,63,58406,2,0,L|273:180|273:180|342:350|342:350,1,315.99998553467
128,112,58737,2,0,L|193:256|193:256,1,157.999992767334,0|2,0:0|0:0,0:0:0:0:
416,144,58958,1,10,0:0:0:0:
488,224,59068,2,0,B|437:369|437:369|351:242|351:242|289:101|289:101|231:322|231:322,1,690,2|8,0:0|0:0,0:0:0:0:
392,64,59619,2,0,L|327:208|327:208,1,157.999992767334,2|2,0:0|0:0,0:0:0:0:
424,64,59840,2,0,L|359:208|359:208,1,157.999992767334,10|2,0:0|0:0,0:0:0:0:
160,120,60060,6,0,L|213:241|213:241|290:74|290:74,1,315.99998553467,2|10,0:0|0:0,0:0:0:0:
424,208,60502,2,0,L|359:352|359:352,1,157.999992767334,2|0,0:0|0:0,0:0:0:0:
160,224,60722,1,10,0:0:0:0:
80,200,60833,2,0,B|157:333|157:333|224:195|224:195|276:50|276:50|315:275|315:275,1,690,2|0,0:0|0:0,0:0:0:0:
104,144,61384,6,0,L|123:301|123:301,1,157.999992767334,2|0,0:0|0:0,0:0:0:0:
264,144,61605,2,0,L|247:301|247:301,1,157.999992767334,10|0,0:0|0:0,0:0:0:0:
128,152,61825,2,0,L|147:309|147:309,1,157.999992767334,2|0,0:0|0:0,0:0:0:0:
248,144,62046,2,0,L|231:301|231:301,1,157.999992767334,8|0,0:0|0:0,0:0:0:0:
144,144,62266,2,0,L|163:301|163:301,1,157.999992767334,2|0,0:0|0:0,0:0:0:0:
263,78,62487,1,8,0:0:0:0:
359,47,62597,6,0,B|403:143|403:143|441:242|441:242|483:339|483:339|461:183|461:183,1,473.999978302003,2|8,0:0|0:0,0:0:0:0:
224,200,63149,2,0,L|183:326|183:326|94:165|94:165,1,315.99998553467,2|8,0:0|0:0,0:0:0:0:
448,88,63590,6,0,L|416:160|416:160|383:232|383:232|448:376|448:376,2,157.999992767334,2|2|10,0:0|0:0|0:0,0:0:0:0:
272,128,63921,2,0,L|337:272|337:272,1,157.999992767334,2|2,0:0|0:0,0:0:0:0:
48,192,64252,2,0,L|113:336|113:336,1,157.999992767334,10|6,0:0|0:0,0:0:0:0:
456,192,64693,1,2,0:0:0:0:
268,248,64913,2,0,L|305:375|305:375|398:216|398:216,1,315.99998553467,10|0,0:0|0:0,0:0:0:0:
120,72,65355,6,0,L|140:148|140:148|185:213|185:213|120:357|120:357,2,157.999992767334,4|2|8,0:0|0:0|0:0,0:0:0:0:
264,162,65685,2,0,L|264:320|264:320,1,157.999992767334,0|2,0:0|0:0,0:0:0:0:
176,154,65906,1,0,0:0:0:0:
287,235,66016,2,0,L|222:379|222:379,1,157.999992767334,8|0,0:0|0:0,0:0:0:0:
55,310,66237,2,0,L|120:166|120:166,1,157.999992767334,0|2,0:0|0:0,0:0:0:0:
185,310,66458,1,8,0:0:0:0:
43,257,66568,2,0,L|43:99|43:99,1,157.999992767334,0|2,0:0|0:0,0:0:0:0:
132,194,66788,1,0,0:0:0:0:
22,130,66899,2,0,L|87:274|87:274,1,157.999992767334,8|0,0:0|0:0,0:0:0:0:
256,59,67119,6,0,L|278:135|278:135|321:201|321:201|256:345|256:345,2,157.999992767334,0|2|8,0:0|0:0|0:0,0:0:0:0:
400,227,67450,2,0,L|335:371|335:371,1,157.999992767334,0|2,0:0|0:0,0:0:0:0:
270,224,67671,1,0,0:0:0:0:
380,304,67781,2,0,L|380:146|380:146,1,157.999992767334,8|0,0:0|0:0,0:0:0:0:
212,84,68002,2,0,L|277:228|277:228,1,157.999992767334,0|2,0:0|0:0,0:0:0:0:
342,84,68222,1,8,0:0:0:0:
172,164,68333,2,0,L|141:236|141:236|107:307|107:307|172:163|172:163,2,157.999992767334,0|2|0,0:0|0:0|0:0,0:0:0:0:
5,97,68663,2,0,L|70:241|70:241,1,157.999992767334,10|0,0:0|0:0,0:0:0:0:
237,310,68884,6,0,L|188:372|188:372|172:295|172:295|237:151|237:151,2,157.999992767334,0|2|8,0:0|0:0|0:0,0:0:0:0:
107,270,69215,2,0,L|107:112|107:112,1,157.999992767334,0|2,0:0|0:0,0:0:0:0:
195,198,69435,1,0,0:0:0:0:
85,131,69546,2,0,L|85:289|85:289,1,157.999992767334,8|0,0:0|0:0,0:0:0:0:
253,53,69766,2,0,L|294:121|294:121|318:196|318:196|253:340|253:340,2,157.999992767334,0|2|8,0:0|0:0|0:0,0:0:0:0:
397,181,70097,2,0,L|397:339|397:339,1,157.999992767334,0|2,0:0|0:0,0:0:0:0:
309,253,70318,1,0,0:0:0:0:
199,203,70428,6,0,L|216:280|216:280|264:343|264:343|199:199|199:199,2,157.999992767334,8|0|0,0:0|0:0|0:0,0:0:0:0:
416,104,70869,1,0,0:0:0:0:
72,104,71090,1,2,0:0:0:0:
208,104,71237,1,0,0:0:0:0:
72,320,71421,2,0,L|72:162|72:162,1,157.999992767334
184,248,71641,2,0,L|228:313|228:313|249:237|249:237|184:93|184:93,2,157.999992767334
320,200,71972,6,0,L|385:344|385:344,1,157.999992767334,2|2,0:0|0:0,0:0:0:0:
216,160,72193,2,0,L|151:304|151:304,1,157.999992767334,0|2,0:0|0:0,0:0:0:0:
364,104,72413,6,0,L|342:180|342:180|299:246|299:246|364:102|364:102,2,157.999992767334,4|2|8,0:0|0:0|0:0,0:0:0:0:
220,224,72744,2,0,L|184:294|184:294|155:367|155:367|220:223|220:223,2,157.999992767334,0|2|0,0:0|0:0|0:0,0:0:0:0:
109,310,73075,2,0,L|174:166|174:166,1,157.999992767334,8|0,0:0|0:0,0:0:0:0:
341,287,73296,2,0,L|341:129|341:129,1,157.999992767334,0|2,0:0|0:0,0:0:0:0:
253,215,73516,1,8,0:0:0:0:
395,156,73627,2,0,L|330:300|330:300,1,157.999992767334,0|2,0:0|0:0,0:0:0:0:
265,156,73847,1,0,0:0:0:0:
375,91,73958,2,0,L|375:249|375:249,1,157.999992767334,8|0,0:0|0:0,0:0:0:0:
208,51,74178,6,0,L|186:127|186:127|143:193|143:193|208:337|208:337,2,157.999992767334,0|2|8,0:0|0:0|0:0,0:0:0:0:
64,126,74509,2,0,L|64:284|64:284,1,157.999992767334,0|2,0:0|0:0,0:0:0:0:
152,118,74730,1,0,0:0:0:0:
42,254,74840,2,0,L|107:110|107:110,1,157.999992767334,8|0,0:0|0:0,0:0:0:0:
276,305,75060,2,0,L|276:147|276:147,1,157.999992767334,0|2,0:0|0:0,0:0:0:0:
188,241,75281,1,8,0:0:0:0:
356,169,75391,2,0,L|291:313|291:313,1,157.999992767334,0|2,0:0|0:0,0:0:0:0:
228,169,75612,1,0,0:0:0:0:
397,87,75722,2,0,L|332:231|332:231,1,157.999992767334,10|0,0:0|0:0,0:0:0:0:
164,303,75943,6,0,L|180:380|180:380|229:318|229:318|164:174|164:174,2,157.999992767334,0|2|8,0:0|0:0|0:0,0:0:0:0:
293,299,76274,2,0,L|336:365|336:365|358:289|358:289|293:145|293:145,2,157.999992767334,0|2|0,0:0|0:0|0:0,0:0:0:0:
404,209,76605,2,0,L|404:367|404:367,1,157.999992767334,8|0,0:0|0:0,0:0:0:0:
236,206,76825,2,0,L|236:364|236:364,1,157.999992767334,0|2,0:0|0:0,0:0:0:0:
322,137,77046,1,8,0:0:0:0:
178,79,77156,2,0,L|146:151|146:151|113:223|113:223|178:367|178:367,2,157.999992767334,0|2|0,0:0|0:0|0:0,0:0:0:0:
67,215,77487,2,0,L|132:359|132:359,1,157.999992767334,8|0,0:0|0:0,0:0:0:0:
298,151,77708,6,0,L|278:227|278:227|233:292|233:292|298:148|298:148,2,157.999992767334,2|10|0,0:0|0:0|0:0,0:0:0:0:
102,86,78038,2,0,L|102:244|102:244,1,157.999992767334
296,314,78259,2,0,L|296:156|296:156,1,157.999992767334,2|0,0:0|0:0,0:0:0:0:
98,223,78480,1,0,0:0:0:0:
298,71,78590,2,0,L|363:215|363:215,1,157.999992767334,2|2,0:0|0:0,0:0:0:0:
162,71,78810,2,0,L|162:229|162:229,1,157.999992767334
360,158,79031,2,0,L|332:232|332:232|295:302|295:302|334:370|334:370|360:295|360:295|295:151|295:151,3,157.999992767334
98,191,79472,5,6,0:0:0:0:
432,192,79693,2,0,L|497:336|497:336,1,157.999992767334,2|0,0:0|0:0,0:0:0:0:
371,239,79913,2,0,L|370:81|370:81,1,157.999992767334,2|0,0:0|0:0,0:0:0:0:
242,148,80134,2,0,L|242:306|242:306,1,157.999992767334,2|0,0:0|0:0,0:0:0:0:
370,132,80355,2,0,L|370:290|370:290,1,157.999992767334,2|0,0:0|0:0,0:0:0:0:
194,268,80575,2,0,L|259:124|259:124,1,157.999992767334,2|0,0:0|0:0,0:0:0:0:
480,232,80796,2,0,L|434:356|434:356|350:193|350:193,1,315.99998553467,2|0,0:0|0:0,0:0:0:0:
48,328,81237,6,0,L|106:209|106:209|178:40|178:40,1,315.99998553467,4|8,0:0|0:0,0:0:0:0:
456,240,81678,2,0,L|406:362|406:362|326:197|326:197,1,315.99998553467,0|8,0:0|0:0,0:0:0:0:
144,208,82119,2,0,L|79:352|79:352,1,157.999992767334,2|2,0:0|0:0,0:0:0:0:
248,208,82340,2,0,L|183:352|183:352,1,157.999992767334,8|2,0:0|0:0,0:0:0:0:
352,208,82560,1,0,0:0:0:0:
184,120,82671,2,0,L|224:246|224:246|314:86|314:86,1,315.99998553467,2|2,0:0|0:0,0:0:0:0:
144,64,83002,6,0,L|174:137|174:137|209:208|209:208|188:284|188:284|144:350|144:350|209:206|209:206,3,157.999992767334,0|0|8|0,0:0|0:0|0:0|0:0,0:0:0:0:
408,64,83443,2,0,L|382:145|382:145|333:214|333:214|384:282|384:282|408:364|408:364|333:211|333:211,3,170.000006484986,0|0|8|0,0:0|0:0|0:0|0:0,0:0:0:0:
104,280,83884,2,0,L|150:359|150:359|189:277|189:277|144:198|144:198|104:116|104:116|189:277|189:277,3,182.000003471375,0|0|8|0,0:0|0:0|0:0|0:0,0:0:0:0:
360,264,84325,6,0,L|425:120|425:120,1,157.999992767334,2|0,0:0|0:0,0:0:0:0:
425,264,84546,2,0,L|360:120|360:120,1,157.999992767334,10|2,0:0|0:0,0:0:0:0:
226,151,84766,6,0,L|291:295|291:295,1,157.999992767334
122,151,84987,2,0,L|122:309|122:309,1,157.999992767334,8|0,0:0|0:0,0:0:0:0:
290,78,85208,2,0,B|265:181|265:181|204:267|204:267|149:357|149:357|102:207|102:207,1,473.999978302003
270,270,85649,6,0,L|270:112|270:112,1,157.999992767334,2|2,0:0|0:0,0:0:0:0:
102,270,85869,2,0,L|167:126|167:126,1,157.999992767334,8|2,0:0|0:0,0:0:0:0:
336,104,86090,1,0,0:0:0:0:
136,96,86200,2,0,L|181:191|181:191|207:293|207:293|274:374|274:374|331:228|331:228,1,473.999978302003,2|0,0:0|0:0,0:0:0:0:
264,96,86641,5,0,0:0:0:0:
50,139,86752,2,0,L|115:283|115:283,1,157.999992767334,10|0,0:0|0:0,0:0:0:0:
284,211,86972,2,0,L|284:369|284:369,1,157.999992767334,2|0,0:0|0:0,0:0:0:0:
114,355,87193,2,0,L|114:197|114:197,1,157.999992767334,10|2,0:0|0:0,0:0:0:0:
282,91,87413,6,0,L|217:235|217:235,1,157.999992767334
112,88,87634,2,0,L|177:232|177:232,1,157.999992767334,8|0,0:0|0:0,0:0:0:0:
346,200,87855,2,0,L|346:358|346:358,1,157.999992767334,2|0,0:0|0:0,0:0:0:0:
240,200,88075,2,0,L|305:344|305:344,1,157.999992767334,10|2,0:0|0:0,0:0:0:0:
101,116,88296,6,0,L|144:183|144:183|166:259|166:259|146:336|146:336|101:271|101:271|166:127|166:127,3,157.999992767334,4|0|8|0,0:0|0:0|0:0|0:0,0:0:0:0:
361,82,88737,2,0,B|287:193|287:193|229:313|229:313|160:198|160:198|132:1|132:1,1,600,2|2,0:0|0:0,0:0:0:0:
307,215,89178,6,0,L|242:359|242:359,1,157.999992767334
354,198,89399,2,0,L|289:342|289:342,1,157.999992767334,8|0,0:0|0:0,0:0:0:0:
467,135,89619,2,0,L|467:293|467:293,1,157.999992767334,2|0,0:0|0:0,0:0:0:0:
361,132,89840,2,0,L|426:276|426:276,1,157.999992767334,10|2,0:0|0:0,0:0:0:0:
291,63,90060,6,0,L|291:221|291:221,1,157.999992767334
123,63,90281,2,0,L|188:207|188:207,1,157.999992767334,10|0,0:0|0:0,0:0:0:0:
358,221,90502,2,0,L|358:379|358:379,1,157.999992767334,2|0,0:0|0:0,0:0:0:0:
251,153,90722,2,0,L|316:297|316:297,1,157.999992767334,10|0,0:0|0:0,0:0:0:0:
439,166,90943,6,0,L|430:235|430:235|389:292|389:292|419:355|419:355|439:288|439:288|389:157|389:157,3,140,0|0|8|0,0:0|0:0|0:0|0:0,0:0:0:0:
160,232,91384,2,0,L|95:376|95:376,1,157.999992767334
95,232,91605,2,0,L|160:376|160:376,1,157.999992767334,8|0,0:0|0:0,0:0:0:0:
272,184,91825,6,0,L|272:342|272:342,1,157.999992767334,2|0,0:0|0:0,0:0:0:0:
440,136,92046,2,0,L|441:294|441:294,1,157.999992767334,8|0,0:0|0:0,0:0:0:0:
196,75,92266,2,0,B|273:223|273:223|396:25|396:25,1,400,2|8,0:0|0:0,0:0:0:0:
72,192,92708,2,0,L|137:336|137:336,1,157.999992767334,2|0,0:0|0:0,0:0:0:0:
243,191,92928,2,0,L|178:335|178:335,1,157.999992767334,8|2,0:0|0:0,0:0:0:0:
348,69,93149,2,0,L|283:213|283:213,1,157.999992767334,0|10,0:0|0:0,0:0:0:0:
488,64,93369,1,0,0:0:0:0:
328,224,93590,6,0,L|272:321|272:321|219:166|219:166,1,276.499987342834
240,296,93810,2,0,L|313:189|313:189|389:16|389:16,1,318.500006074905,10|0,0:0|0:0,0:0:0:0:
360,152,94031,2,0,L|298:285|298:285|176:109|176:109,1,360.499988998413,2|0,0:0|0:0,0:0:0:0:
201,72,94252,2,0,L|308:196|308:196|420:-15|420:-15,1,402.5,8|0,0:0|0:0,0:0:0:0:
393,72,94472,6,0,L|269:244|269:244|103:0|103:0,1,508.000015502931,8|0,0:0|0:0,0:0:0:0:
464,288,94913,2,0,L|444:365|444:365|399:300|399:300|426:226|426:226|464:157|464:157|399:13|399:13,3,157.999992767334,2|0|2|2,0:0|0:0|0:0|0:0,0:0:0:0:
224,192,95355,6,0,L|289:336|289:336,1,157.999992767334,4|0,0:0|0:0,0:0:0:0:
120,152,95575,2,0,L|185:296|185:296,1,157.999992767334,8|0,0:0|0:0,0:0:0:0:
352,144,95796,2,0,B|298:212|298:212|280:296|280:296|236:370|236:370|179:305|179:305|191:219|191:219|234:144|234:144|283:73|283:73|352:203|352:203,1,751.999977050782,0|2,0:0|0:0,0:0:0:0:
417,96,96347,5,2,0:0:0:0:
248,320,96458,2,0,L|248:162|248:162,1,157.999992767334,8|2,0:0|0:0,0:0:0:0:
416,184,96678,1,0,0:0:0:0:
192,160,96788,2,0,L|240:283|240:283|322:119|322:119,1,315.99998553467,2|2,0:0|0:0,0:0:0:0:
152,272,97119,6,0,L|217:128|217:128,1,157.999992767334
321,273,97340,2,0,L|256:129|256:129,1,157.999992767334,8|0,0:0|0:0,0:0:0:0:
431,112,97560,2,0,L|431:270|431:270,1,157.999992767334
263,272,97781,2,0,L|263:114|263:114,1,157.999992767334,8|0,0:0|0:0,0:0:0:0:
480,216,98002,6,0,L|442:299|442:299|395:377|395:377|444:300|444:300|480:216|480:216|395:55|395:55,3,182.000003471375,0|0|8|0,0:0|0:0|0:0|0:0,0:0:0:0:
224,200,98443,2,0,L|159:344|159:344,1,157.999992767334,2|0,0:0|0:0,0:0:0:0:
159,200,98663,2,0,L|224:344|224:344,1,157.999992767334,10|2,0:0|0:0,0:0:0:0:
352,88,98884,6,0,L|300:148|300:148|287:226|287:226|324:296|324:296|352:370|352:370|287:226|287:226,3,157.999992767334,0|0|8|0,0:0|0:0|0:0|0:0,0:0:0:0:
104,280,99325,2,0,B|140:379|140:379|166:277|166:277|239:201|239:201|285:51|285:51,1,473.999978302003
456,240,99766,6,0,L|456:82|456:82,1,157.999992767334,2|2,0:0|0:0,0:0:0:0:
288,160,99987,2,0,L|353:304|353:304,1,157.999992767334,8|2,0:0|0:0,0:0:0:0:
176,160,100207,1,0,0:0:0:0:
344,96,100318,2,0,L|284:183|284:183|254:284|254:284|217:383|217:383|149:241|149:241,1,473.999978302003,2|0,0:0|0:0,0:0:0:0:
214,96,100759,5,0,0:0:0:0:
416,80,100869,2,0,L|351:224|351:224,1,157.999992767334,10|0,0:0|0:0,0:0:0:0:
168,304,101090,2,0,L|168:146|168:146,1,157.999992767334,2|0,0:0|0:0,0:0:0:0:
336,304,101310,2,0,L|336:146|336:146,1,157.999992767334,10|2,0:0|0:0,0:0:0:0:
151,169,101531,6,0,L|216:313|216:313,1,157.999992767334
105,168,101752,2,0,L|170:312|170:312,1,157.999992767334,8|0,0:0|0:0,0:0:0:0:
337,200,101972,2,0,L|337:358|337:358,1,157.999992767334,2|0,0:0|0:0,0:0:0:0:
232,80,102193,2,0,L|297:224|297:224,1,157.999992767334,10|2,0:0|0:0,0:0:0:0:
464,312,102413,6,0,L|424:380|424:380|399:305|399:305|432:233|432:233|464:161|464:161|399:17|399:17,3,157.999992767334,4|0|8|0,0:0|0:0|0:0|0:0,0:0:0:0:
228,225,102855,2,0,L|301:381|301:381|438:184|438:184,1,411.999987426759,2|10,0:0|0:0,0:0:0:0:
133,121,103296,1,0,0:0:0:0:
445,121,103516,1,8,0:0:0:0:
165,121,103737,2,0,L|230:236|230:236|295:64|295:64,1,315.99998553467,2|8,0:0|0:0,0:0:0:0:
493,193,104178,5,0,0:0:0:0:
168,248,104399,2,0,B|229:317|229:317|266:233|266:233|323:161|323:161|355:75|355:75|333:164|333:164|291:246|291:246|248:327|248:327|168:192|168:192,1,800,8|0,0:0|0:0,0:0:0:0:
448,104,105060,2,0,L|383:248|383:248,1,157.999992767334,2|0,0:0|0:0,0:0:0:0:
160,112,105391,2,0,L|225:256|225:256,1,157.999992767334,2|0,0:0|0:0,0:0:0:0:
432,96,105722,1,2,0:0:0:0:
104,176,105943,5,0,0:0:0:0:
256,192,106053,12,0,107266,0:0:0:0:
288,288,107708,5,8,0:0:0:0:
448,200,107928,1,2,0:0:0:0:
336,200,107965,1,0,0:0:0:0:
176,160,108149,1,2,0:0:0:0:
296,160,108259,1,2,0:0:0:0:
480,112,108480,1,2,0:0:0:0:
320,96,108700,1,2,0:0:0:0:
160,64,108921,1,2,0:0:0:0:
160,64,109031,1,2,0:0:0:0:
400,48,109252,1,2,0:0:0:0:
296,48,109362,1,8,0:0:0:0:
64,48,109472,5,4,0:0:0:0:
272,280,109693,2,0,L|342:168|342:168|402:342|402:342,1,315.99998553467,2|8,0:0|0:0,0:0:0:0:
208,208,110134,2,0,L|190:285|190:285|143:348|143:348|208:204|208:204,2,157.999992767334,2|0|8,0:0|0:0|0:0,0:0:0:0:
408,168,110575,2,0,L|342:282|342:282|278:110|278:110,1,315.99998553467,2|8,0:0|0:0,0:0:0:0:
72,120,111016,2,0,L|114:245|114:245|202:84|202:84,1,315.99998553467,2|8,0:0|0:0,0:0:0:0:
400,88,111458,6,0,L|331:201|331:201|270:374|270:374,1,315.99998553467,2|8,0:0|0:0,0:0:0:0:
64,264,111899,2,0,L|64:106|64:106,1,157.999992767334,2|0,0:0|0:0,0:0:0:0:
136,200,112119,1,8,0:0:0:0:
336,184,112340,2,0,L|289:307|289:307|206:143|206:143,1,315.99998553467,2|8,0:0|0:0,0:0:0:0:
416,72,112781,2,0,L|351:216|351:216,1,157.999992767334,2|0,0:0|0:0,0:0:0:0:
154,127,113002,6,0,L|219:271|219:271,1,157.999992767334,2|0,0:0|0:0,0:0:0:0:
413,192,113222,2,0,L|413:350|413:350,1,157.999992767334,2|2,0:0|0:0,0:0:0:0:
218,191,113443,2,0,L|283:335|283:335,1,157.999992767334,10|2,0:0|0:0,0:0:0:0:
89,290,113663,2,0,L|154:146|154:146,1,157.999992767334,0|2,0:0|0:0,0:0:0:0:
350,293,113884,2,0,L|285:149|285:149,1,157.999992767334,2|0,0:0|0:0,0:0:0:0:
479,97,114105,2,0,L|414:241|414:241,1,157.999992767334,0|2,0:0|0:0,0:0:0:0:
215,83,114325,2,0,L|215:241|215:241,1,157.999992767334,8|2,0:0|0:0,0:0:0:0:
410,217,114546,2,0,L|410:375|410:375,1,157.999992767334,0|2,0:0|0:0,0:0:0:0:
245,152,114766,5,0,0:0:0:0:
87,311,114987,2,0,L|154:197|154:197|217:24|217:24,1,315.99998553467,2|8,0:0|0:0,0:0:0:0:
415,255,115428,2,0,L|386:328|386:328|350:258|350:258|415:114|415:114,2,157.999992767334,2|0|8,0:0|0:0|0:0,0:0:0:0:
209,193,115869,2,0,L|228:270|228:270|274:334|274:334|209:190|209:190,2,157.999992767334,2|0|8,0:0|0:0|0:0,0:0:0:0:
52,154,116310,2,0,L|117:298|117:298,1,157.999992767334,2|0,0:0|0:0,0:0:0:0:
312,299,116531,6,0,L|312:141|312:141,1,157.999992767334
117,299,116752,2,0,L|117:141|117:141,1,157.999992767334,2|0,0:0|0:0,0:0:0:0:
312,196,116972,2,0,L|247:340|247:340,1,157.999992767334,10|2,0:0|0:0,0:0:0:0:
443,198,117193,2,0,L|443:356|443:356,1,157.999992767334,0|2,0:0|0:0,0:0:0:0:
249,107,117413,2,0,L|314:251|314:251,1,157.999992767334
117,107,117634,2,0,L|182:251|182:251,1,157.999992767334,0|2,0:0|0:0,0:0:0:0:
381,187,117855,2,0,L|316:331|316:331,1,157.999992767334,10|0,0:0|0:0,0:0:0:0:
122,179,118075,2,0,L|122:337|122:337,1,157.999992767334,2|0,0:0|0:0,0:0:0:0:
290,116,118296,5,2,0:0:0:0:
480,288,118516,2,0,L|426:167|426:167|350:334|350:334,1,315.99998553467,2|8,0:0|0:0,0:0:0:0:
145,208,118958,2,0,L|144:366|144:366,1,157.999992767334,2|0,0:0|0:0,0:0:0:0:
224,136,119178,1,8,0:0:0:0:
410,81,119399,2,0,L|356:202|356:202|280:369|280:369,1,315.99998553467,2|8,0:0|0:0,0:0:0:0:
77,249,119840,2,0,L|77:91|77:91,1,157.999992767334,2|0,0:0|0:0,0:0:0:0:
272,172,120060,6,0,L|337:316|337:316,1,157.999992767334,2|2,0:0|0:0,0:0:0:0:
141,112,120281,2,0,L|206:256|206:256,1,157.999992767334,0|2,0:0|0:0,0:0:0:0:
402,102,120502,2,0,L|337:246|337:246,1,157.999992767334,10|0,0:0|0:0,0:0:0:0:
142,298,120722,2,0,L|142:140|142:140,1,157.999992767334,2|2,0:0|0:0,0:0:0:0:
338,224,120943,2,0,L|403:368|403:368,1,157.999992767334,2|0,0:0|0:0,0:0:0:0:
210,160,121163,2,0,L|275:304|275:304,1,157.999992767334,2|2,0:0|0:0,0:0:0:0:
471,139,121384,2,0,L|472:297|472:297,1,157.999992767334,8|2,0:0|0:0,0:0:0:0:
275,79,121605,2,0,L|210:223|210:223,1,157.999992767334,2|0,0:0|0:0,0:0:0:0:
376,122,121825,5,0,0:0:0:0:
481,56,122046,2,0,L|433:179|433:179|351:343|351:343,1,315.99998553467,2|8,0:0|0:0,0:0:0:0:
101,160,122597,1,2,0:0:0:0:
293,192,122708,2,0,B|223:304|223:304|163:130|163:130,1,315.99998553467,0|8,0:0|0:0,0:0:0:0:
397,88,123259,2,0,L|334:204|334:204|267:375|267:375,1,315.99998553467
69,120,123590,6,0,L|69:278|69:278,1,157.999992767334,6|0,0:0|0:0,0:0:0:0:
269,288,123810,2,0,L|204:144|204:144,1,157.999992767334,10|2,0:0|0:0,0:0:0:0:
397,240,124031,2,0,L|462:384|462:384,1,157.999992767334,0|2,0:0|0:0,0:0:0:0:
269,184,124252,2,0,L|334:328|334:328,1,157.999992767334,0|10,0:0|0:0,0:0:0:0:
141,168,124472,2,0,L|76:312|76:312,1,157.999992767334,0|2,0:0|0:0,0:0:0:0:
333,144,124693,2,0,L|333:302|333:302,1,157.999992767334,2|2,0:0|0:0,0:0:0:0:
141,280,124913,2,0,L|206:136|206:136,1,157.999992767334,10|0,0:0|0:0,0:0:0:0:
397,280,125134,2,0,L|332:136|332:136,1,157.999992767334,2|0,0:0|0:0,0:0:0:0:
397,280,125355,5,0,0:0:0:0:
194,138,125575,2,0,L|254:256|254:256|324:86|324:86,1,315.99998553467,2|8,0:0|0:0,0:0:0:0:
121,194,126016,2,0,L|159:321|159:321|251:162|251:162,1,315.99998553467,2|8,0:0|0:0,0:0:0:0:
424,144,126458,2,0,L|424:302|424:302,1,157.999992767334,2|0,0:0|0:0,0:0:0:0:
344,80,126678,1,8,0:0:0:0:
125,270,126899,2,0,L|125:112|125:112,1,157.999992767334,2|0,0:0|0:0,0:0:0:0:
321,269,127119,6,0,L|386:125|386:125,1,157.999992767334
189,190,127340,2,0,L|254:334|254:334,1,157.999992767334,10|2,0:0|0:0,0:0:0:0:
59,169,127560,2,0,L|59:327|59:327,1,157.999992767334,2|0,0:0|0:0,0:0:0:0:
255,150,127781,2,0,L|255:308|255:308,1,157.999992767334,2|8,0:0|0:0,0:0:0:0:
59,63,128002,2,0,L|124:207|124:207,1,157.999992767334,2|2,0:0|0:0,0:0:0:0:
317,78,128222,2,0,L|252:222|252:222,1,157.999992767334,0|2,0:0|0:0,0:0:0:0:
58,148,128443,2,0,L|123:292|123:292,1,157.999992767334,10|2,0:0|0:0,0:0:0:0:
319,293,128663,2,0,L|254:149|254:149,1,157.999992767334,0|2,0:0|0:0,0:0:0:0:
319,293,128884,5,0,0:0:0:0:
100,199,129105,2,0,L|169:312|169:312|230:139|230:139,1,315.99998553467,2|8,0:0|0:0,0:0:0:0:
436,293,129546,2,0,L|382:172|382:172|306:5|306:5,1,315.99998553467,2|8,0:0|0:0,0:0:0:0:
106,126,129987,1,2,0:0:0:0:
171,125,130097,1,0,0:0:0:0:
235,126,130208,1,8,0:0:0:0:
32,80,130428,2,0,L|97:224|97:224,1,157.999992767334,2|2,0:0|0:0,0:0:0:0:
293,86,130649,6,0,L|228:230|228:230,1,157.999992767334,2|0,0:0|0:0,0:0:0:0:
423,157,130869,2,0,L|358:301|358:301,1,157.999992767334,8|2,0:0|0:0,0:0:0:0:
162,287,131090,2,0,L|162:129|162:129,1,157.999992767334,2|0,0:0|0:0,0:0:0:0:
357,190,131310,2,0,L|358:348|358:348,1,157.999992767334,2|10,0:0|0:0,0:0:0:0:
161,143,131531,2,0,L|226:287|226:287,1,157.999992767334,2|0,0:0|0:0,0:0:0:0:
30,87,131752,2,0,L|95:231|95:231,1,157.999992767334
290,39,131972,2,0,L|355:183|355:183,1,157.999992767334,10|2,0:0|0:0,0:0:0:0:
159,109,132193,2,0,L|224:253|224:253,1,157.999992767334,0|2,0:0|0:0,0:0:0:0:
289,108,132413,5,0,0:0:0:0:
88,304,132634,2,0,L|158:192|158:192|218:18|218:18,1,315.99998553467,2|8,0:0|0:0,0:0:0:0:
421,207,133075,2,0,L|378:332|378:332|291:170|291:170,1,315.99998553467,2|8,0:0|0:0,0:0:0:0:
88,136,133516,2,0,L|88:294|88:294,1,157.999992767334,2|0,0:0|0:0,0:0:0:0:
166,72,133737,1,8,0:0:0:0:
384,96,133958,2,0,L|319:240|319:240,1,157.999992767334,2|2,0:0|0:0,0:0:0:0:
125,195,134178,6,0,L|190:339|190:339,1,157.999992767334
386,193,134399,2,0,L|386:351|386:351,1,157.999992767334,10|0,0:0|0:0,0:0:0:0:
191,114,134619,2,0,L|126:258|126:258,1,157.999992767334,2|2,0:0|0:0,0:0:0:0:
322,300,134840,2,0,L|257:156|257:156,1,157.999992767334,0|8,0:0|0:0,0:0:0:0:
62,244,135060,2,0,L|62:86|62:86,1,157.999992767334,2|2,0:0|0:0,0:0:0:0:
258,231,135281,2,0,L|258:73|258:73,1,157.999992767334,2|2,0:0|0:0,0:0:0:0:
62,98,135501,2,0,L|127:242|127:242,1,157.999992767334,10|0,0:0|0:0,0:0:0:0:
323,152,135722,2,0,L|258:296|258:296,1,157.999992767334,2|0,0:0|0:0,0:0:0:0:
193,150,135943,5,2,0:0:0:0:
424,48,136163,2,0,L|381:173|381:173|294:335|294:335,1,315.99998553467,2|8,0:0|0:0,0:0:0:0:
96,120,136605,2,0,L|161:264|161:264,1,157.999992767334,2|0,0:0|0:0,0:0:0:0:
344,112,136825,1,2,0:0:0:0:
96,272,136935,2,0,B|140:340|140:340|167:264|167:264|216:200|216:200|226:120|226:120|223:39|223:39|205:118|205:118|144:171|144:171|96:301|96:301,1,704,2|0,0:0|0:0,0:0:0:0:
309,173,137487,2,0,L|244:317|244:317,1,157.999992767334
458,100,137708,6,0,L|434:175|434:175|393:243|393:243|458:99|458:99,2,157.999992767334,4|2|8,0:0|0:0|0:0,0:0:0:0:
328,170,138038,2,0,L|306:246|306:246|263:312|263:312|328:168|328:168,2,157.999992767334,0|2|0,0:0|0:0|0:0,0:0:0:0:
217,262,138369,2,0,L|282:118|282:118,1,157.999992767334,8|0,0:0|0:0,0:0:0:0:
451,48,138590,2,0,L|386:192|386:192,1,157.999992767334,0|2,0:0|0:0,0:0:0:0:
322,48,138810,1,8,0:0:0:0:
464,188,138921,2,0,L|464:346|464:346,1,157.999992767334,0|2,0:0|0:0,0:0:0:0:
376,124,139141,1,0,0:0:0:0:
486,243,139252,2,0,L|421:99|421:99,1,157.999992767334,8|0,0:0|0:0,0:0:0:0:
253,199,139472,6,0,L|233:275|233:275|188:340|188:340|253:196|253:196,2,157.999992767334,0|2|8,0:0|0:0|0:0,0:0:0:0:
109,204,139803,2,0,L|109:362|109:362,1,157.999992767334,0|2,0:0|0:0,0:0:0:0:
197,140,140024,1,0,0:0:0:0:
87,64,140134,2,0,L|152:208|152:208,1,157.999992767334,8|0,0:0|0:0,0:0:0:0:
320,290,140355,2,0,L|320:132|320:132,1,157.999992767334,0|2,0:0|0:0,0:0:0:0:
232,226,140575,1,8,0:0:0:0:
400,154,140685,2,0,L|335:298|335:298,1,157.999992767334,0|2,0:0|0:0,0:0:0:0:
272,154,140906,1,0,0:0:0:0:
441,73,141016,2,0,L|376:217|376:217,1,157.999992767334,10|0,0:0|0:0,0:0:0:0:
209,264,141237,6,0,L|250:331|250:331|274:256|274:256|209:112|209:112,2,157.999992767334,0|2|8,0:0|0:0|0:0,0:0:0:0:
340,246,141568,2,0,L|275:102|275:102,1,157.999992767334,0|2,0:0|0:0,0:0:0:0:
210,238,141788,1,0,0:0:0:0:
320,107,141899,2,0,L|320:265|320:265,1,157.999992767334,8|0,0:0|0:0,0:0:0:0:
152,64,142119,2,0,L|217:208|217:208,1,157.999992767334,0|2,0:0|0:0,0:0:0:0:
282,64,142340,1,8,0:0:0:0:
139,148,142450,2,0,L|104:219|104:219|74:292|74:292|139:148|139:148,2,157.999992767334,0|2|0,0:0|0:0|0:0,0:0:0:0:
28,235,142781,2,0,L|93:379|93:379,1,157.999992767334,8|0,0:0|0:0,0:0:0:0:
289,320,143001,6,0,L|289:162|289:162,1,157.999992767334,2|2,0:0|0:0,0:0:0:0:
121,240,143222,2,0,L|121:82|121:82,1,157.999992767334,2|2,0:0|0:0,0:0:0:0:
413,151,143443,1,2,0:0:0:0:
237,151,143553,1,2,0:0:0:0:
69,159,143663,6,0,L|222:347|222:347|419:73|419:73,1,580.000005531311,2|2,0:0|0:0,0:0:0:0:
286,72,144105,2,0,L|351:216|351:216,1,157.999992767334
142,72,144325,2,0,L|124:203|124:203|142:386|142:386,1,315.99998553467,8|0,0:0|0:0,0:0:0:0:
230,72,144656,1,0,0:0:0:0:
433,97,144766,6,0,L|394:166|394:166|368:241|368:241|433:385|433:385,2,157.999992767334,4|2|8,0:0|0:0|0:0,0:0:0:0:
302,43,145097,2,0,L|320:120|320:120|367:183|367:183|302:327|302:327,2,157.999992767334,0|2|0,0:0|0:0|0:0,0:0:0:0:
191,157,145428,2,0,L|256:301|256:301,1,157.999992767334,8|0,0:0|0:0,0:0:0:0:
424,304,145649,2,0,L|359:160|359:160,1,157.999992767334,0|2,0:0|0:0,0:0:0:0:
294,304,145869,1,8,0:0:0:0:
436,245,145980,2,0,L|436:87|436:87,1,157.999992767334,0|2,0:0|0:0,0:0:0:0:
347,182,146200,1,0,0:0:0:0:
457,111,146310,2,0,L|392:255|392:255,1,157.999992767334,8|0,0:0|0:0,0:0:0:0:
225,63,146531,6,0,L|188:133|188:133|160:207|160:207|225:351|225:351,2,157.999992767334,0|2|8,0:0|0:0|0:0,0:0:0:0:
81,140,146862,2,0,L|81:298|81:298,1,157.999992767334,0|2,0:0|0:0,0:0:0:0:
169,132,147083,1,0,0:0:0:0:
59,254,147193,2,0,L|124:110|124:110,1,157.999992767334,8|0,0:0|0:0,0:0:0:0:
294,287,147413,2,0,L|294:129|294:129,1,157.999992767334,0|2,0:0|0:0,0:0:0:0:
206,223,147634,1,8,0:0:0:0:
375,181,147744,2,0,L|310:325|310:325,1,157.999992767334,0|2,0:0|0:0,0:0:0:0:
247,181,147965,1,0,0:0:0:0:
416,98,148075,2,0,L|351:242|351:242,1,157.999992767334,10|0,0:0|0:0,0:0:0:0:
184,281,148296,6,0,L|231:344|231:344|249:267|249:267|184:123|184:123,2,157.999992767334,0|2|8,0:0|0:0|0:0,0:0:0:0:
313,285,148626,2,0,L|313:127|313:127,1,157.999992767334,0|2,0:0|0:0,0:0:0:0:
225,221,148847,1,0,0:0:0:0:
335,143,148958,2,0,L|270:287|270:287,1,157.999992767334,8|0,0:0|0:0,0:0:0:0:
100,110,149178,2,0,L|100:268|100:268,1,157.999992767334,0|2,0:0|0:0,0:0:0:0:
188,109,149399,1,8,0:0:0:0:
44,53,149509,2,0,L|109:197|109:197,1,157.999992767334,0|2,0:0|0:0,0:0:0:0:
174,53,149730,1,0,0:0:0:0:
64,273,149840,2,0,L|129:129|129:129,1,157.999992767334,8|0,0:0|0:0,0:0:0:0:
296,160,150060,6,0,L|296:318|296:318,1,157.999992767334,2|10,0:0|0:0,0:0:0:0:
208,96,150281,1,0,0:0:0:0:
408,48,150391,2,0,L|343:192|343:192,1,157.999992767334
144,216,150612,2,0,L|144:374|144:374,1,157.999992767334,2|0,0:0|0:0,0:0:0:0:
344,208,150833,1,0,0:0:0:0:
148,64,150943,2,0,L|83:208|83:208,1,157.999992767334,2|2,0:0|0:0,0:0:0:0:
279,62,151163,2,0,L|344:206|344:206,1,157.999992767334
148,193,151384,2,0,L|196:255|196:255|213:332|213:332|168:267|168:267|148:191|148:191|213:47|213:47,3,157.999992767334
424,192,151825,5,6,0:0:0:0:
144,192,152046,2,0,L|144:350|144:350,1,157.999992767334,2|0,0:0|0:0,0:0:0:0:
272,120,152266,2,0,L|207:264|207:264,1,157.999992767334,2|0,0:0|0:0,0:0:0:0:
336,88,152487,2,0,L|336:246|336:246,1,157.999992767334,2|0,0:0|0:0,0:0:0:0:
208,56,152708,2,0,L|273:200|273:200,1,157.999992767334,2|0,0:0|0:0,0:0:0:0:
144,88,152928,2,0,L|209:232|209:232,1,157.999992767334,2|0,0:0|0:0,0:0:0:0:
379,281,153149,2,0,L|314:137|314:137,1,157.999992767334,2|0,0:0|0:0,0:0:0:0:
128,256,153369,1,0,0:0:0:0:
328,192,153480,6,0,B|288:260|288:260|280:339|280:339|226:281|226:281|197:208|197:208|158:140|158:140|147:62|147:62|168:138|168:138|198:211|198:211|245:334|245:334|328:170|328:170,1,947.999956604007,6|0,0:0|0:0,0:0:0:0:
192,144,154472,2,0,L|236:210|236:210|257:286|257:286|192:142|192:142,2,157.999992767334,2|2|8,0:0|0:0|0:0,0:0:0:0:
360,56,154803,2,0,L|295:200|295:200,1,157.999992767334,2|0,0:0|0:0,0:0:0:0:
128,72,155024,2,0,L|193:216|193:216,1,157.999992767334,2|8,0:0|0:0,0:0:0:0:
392,184,155244,2,0,B|353:253|353:253|330:329|330:329|297:257|297:257|272:182|272:182|235:112|235:112|187:49|187:49|153:120|153:120|152:199|152:199|206:290|206:290|214:185|214:185|257:88|257:88|319:232|319:232,1,1105.99994937134,2|8,0:0|0:0,0:0:0:0:
152,192,156458,1,8,0:0:0:0:
320,232,156678,6,0,L|320:74|320:74,1,157.999992767334,2|0,0:0|0:0,0:0:0:0:
152,128,156899,1,10,0:0:0:0:
352,128,157009,2,0,B|339:206|339:206|287:266|287:266|269:343|269:343|240:269|240:269|186:212|186:212|155:139|155:139|108:76|108:76|108:155|108:155|135:257|135:257|157:360|157:360|200:263|200:263|236:110|236:110,1,1105.99994937134,2|8,0:0|0:0,0:0:0:0:
376,176,158002,6,0,L|342:248|342:248|311:321|311:321|376:177|376:177,2,157.999992767334,2|2|8,0:0|0:0|0:0,0:0:0:0:
208,208,158333,2,0,L|273:352|273:352,1,157.999992767334,2|0,0:0|0:0,0:0:0:0:
104,200,158553,2,0,L|104:358|104:358,1,157.999992767334,2|8,0:0|0:0,0:0:0:0:
296,88,158774,2,0,L|257:214|257:214|166:374|166:374,1,315.99998553467,2|0,0:0|0:0,0:0:0:0:
362,177,159105,2,0,L|348:255|348:255|316:327|316:327|262:384|262:384|232:311|232:311|286:190|286:190|362:23|362:23,2,315.99998553467,10|2|10,0:0|0:0|0:0,0:0:0:0:
165,42,159656,2,0,B|198:142|198:142|268:221|268:221|293:324|293:324|341:174|341:174,1,473.999978302003,2|8,0:0|0:0,0:0:0:0:
136,160,160208,6,0,L|201:304|201:304,1,157.999992767334,2|0,0:0|0:0,0:0:0:0:
32,232,160428,1,10,0:0:0:0:
97,232,160538,2,0,B|143:327|143:327|159:223|159:223|136:120|136:120|97:272|97:272,1,473.999978302003,2|8,0:0|0:0,0:0:0:0:
376,192,161090,6,0,L|311:336|311:336,1,157.999992767334,2|0,0:0|0:0,0:0:0:0:
480,232,161310,1,10,0:0:0:0:
415,232,161421,2,0,B|363:324|363:324|355:219|355:219|371:115|371:115|415:266|415:266,1,473.999978302003,2|8,0:0|0:0,0:0:0:0:
136,176,161972,6,0,L|201:320|201:320,1,157.999992767334,2|0,0:0|0:0,0:0:0:0:
32,232,162193,1,10,0:0:0:0:
98,233,162303,2,0,B|129:334|129:334|177:240|177:240|223:145|223:145|281:291|281:291,1,473.999978302003,2|10,0:0|0:0,0:0:0:0:
54,142,162744,5,0,0:0:0:0:
224,160,162855,2,0,L|289:304|289:304,1,157.999992767334,2|0,0:0|0:0,0:0:0:0:
56,64,163075,1,10,0:0:0:0:
121,64,163185,2,0,B|170:157|170:157|197:259|197:259|260:344|260:344|315:197|315:197,1,473.999978302003,2|8,0:0|0:0,0:0:0:0:
80,160,163958,1,8,0:0:0:0:
296,96,164178,6,0,L|320:199|320:199|395:273|395:273|427:374|427:374|491:230|491:230,1,473.999978302003,2|0,0:0|0:0,0:0:0:0:
360,224,164619,2,0,L|303:313|303:313|268:213|268:213|239:112|239:112|165:251|165:251,1,473.999978302003,2|0,0:0|0:0,0:0:0:0:
299,127,165060,2,0,L|347:250|347:250|429:86|429:86,1,315.99998553467,2|8,0:0|0:0,0:0:0:0:
256,64,165391,2,0,L|308:185|308:185|386:351|386:351,1,315.99998553467,2|0,0:0|0:0,0:0:0:0:
216,192,165722,2,0,L|191:294|191:294|126:377|126:377|81:282|81:282|21:137|21:137,1,473.999978302003,10|0,0:0|0:0,0:0:0:0:
188,271,166163,6,0,L|253:127|253:127,1,157.999992767334,10|0,0:0|0:0,0:0:0:0:
76,296,166384,2,0,L|90:367|90:367|142:316|142:316|175:251|175:251|188:180|188:180|242:132|242:132|267:64|267:64|277:136|277:136|336:245|336:245,1,631.999971069337,2|0,0:0|0:0,0:0:0:0:
160,176,167046,1,8,0:0:0:0:
328,200,167266,2,0,L|393:344|393:344,1,157.999992767334,2|0,0:0|0:0,0:0:0:0:
192,128,167487,1,10,0:0:0:0:
387,130,167597,2,0,B|346:198|346:198|313:270|313:270|290:345|290:345|274:268|274:268|210:222|210:222|189:146|189:146|167:70|167:70|195:144|195:144|214:248|214:248|255:345|255:345|295:247|295:247|357:103|357:103,1,1105.99994937134,6|8,0:0|0:0,0:0:0:0:
149,241,168590,6,0,L|168:318|168:318|214:382|214:382|149:238|149:238,2,157.999992767334,2|2|8,0:0|0:0|0:0,0:0:0:0:
317,105,168921,2,0,L|382:249|382:249,1,157.999992767334,2|0,0:0|0:0,0:0:0:0:
213,97,169141,2,0,L|148:241|148:241,1,157.999992767334,2|8,0:0|0:0,0:0:0:0:
317,105,169362,2,0,B|363:169|363:169|376:247|376:247|401:322|401:322|455:380|455:380|443:302|443:302|470:228|470:228|494:153|494:153|485:75|485:75|480:180|480:180|438:277|438:277|415:380|415:380|351:236|351:236,1,1105.99994937134,2|8,0:0|0:0,0:0:0:0:
104,192,170575,5,8,0:0:0:0:
312,192,170796,2,0,L|247:336|247:336,1,157.999992767334,2|0,0:0|0:0,0:0:0:0:
416,136,171016,1,10,0:0:0:0:
222,137,171127,2,0,B|261:206|261:206|292:279|292:279|320:353|320:353|320:274|320:274|386:231|386:231|380:152|380:152|444:105|444:105|448:26|448:26|472:129|472:129|489:233|489:233|485:339|485:339|441:188|441:188,1,1105.99994937134,2|8,0:0|0:0,0:0:0:0:
240,256,172119,6,0,L|190:318|190:318|175:240|175:240|240:96|240:96,2,157.999992767334,2|2|8,0:0|0:0|0:0,0:0:0:0:
408,200,172450,2,0,L|343:344|343:344,1,157.999992767334,2|0,0:0|0:0,0:0:0:0:
176,104,172671,2,0,L|241:248|241:248,1,157.999992767334,2|8,0:0|0:0,0:0:0:0:
72,104,172891,2,0,L|141:217|141:217|202:44|202:44,1,315.99998553467,2|0,0:0|0:0,0:0:0:0:
400,128,173222,6,0,L|350:189|350:189|344:268|344:268|300:334|300:334|270:261|270:261|308:134|308:134|400:293|400:293,2,315.99998553467,10|2|10,0:0|0:0|0:0,0:0:0:0:
203,58,173774,2,0,B|147:147|147:147|139:252|139:252|151:357|151:357|198:207|198:207,1,473.999978302003,2|8,0:0|0:0,0:0:0:0:
376,160,174325,6,0,L|311:304|311:304,1,157.999992767334,2|0,0:0|0:0,0:0:0:0:
480,232,174546,1,10,0:0:0:0:
415,232,174656,2,0,B|383:333|383:333|342:236|342:236|362:132|362:132|415:280|415:280,1,473.999978302003,2|8,0:0|0:0,0:0:0:0:
136,192,175208,6,0,L|201:336|201:336,1,157.999992767334,2|0,0:0|0:0,0:0:0:0:
32,232,175428,1,10,0:0:0:0:
97,232,175538,2,0,B|149:324|149:324|171:221|171:221|138:121|138:121|97:273|97:273,1,473.999978302003,2|8,0:0|0:0,0:0:0:0:
376,176,176090,6,0,L|311:320|311:320,1,157.999992767334,2|0,0:0|0:0,0:0:0:0:
480,232,176310,1,10,0:0:0:0:
416,232,176421,2,0,B|369:326|369:326|322:231|322:231|273:138|273:138|221:286|221:286,1,473.999978302003,2|8,0:0|0:0,0:0:0:0:
384,120,177193,5,8,0:0:0:0:
175,90,177413,2,0,L|237:207|237:207|305:378|305:378,1,315.99998553467,2|8,0:0|0:0,0:0:0:0:
472,192,177744,2,0,L|407:307|407:307|342:135|342:135,1,315.99998553467,2|8,0:0|0:0,0:0:0:0:
176,288,178075,2,0,L|241:144|241:144,1,157.999992767334,2|0,0:0|0:0,0:0:0:0:
72,224,178296,6,0,B|112:292|112:292|143:365|143:365|162:288|162:288|205:222|205:222|218:144|218:144|279:94|279:94|298:17|298:17|332:88|332:88|340:167|340:167|303:237|303:237|293:315|293:315|252:383|252:383|207:318|207:318|202:239|202:239|166:169|166:169|121:104|121:104|80:44|80:44|53:111|53:111|29:179|29:179|14:250|14:250|48:314|48:314|56:242|56:242|97:182|97:182|151:70|151:70,1,1895.99991320801,10|0,0:0|0:0,0:0:0:0:
432,64,180060,5,4,0:0:0:0:
104,64,180502,1,4,0:0:0:0:
288,192,180943,2,0,L|216:303|216:303|158:129|158:129,1,315.99998553467,2|0,0:0|0:0,0:0:0:0:
328,256,181274,2,0,L|377:379|377:379|458:214|458:214,1,315.99998553467,10|0,0:0|0:0,0:0:0:0:
288,320,181605,2,0,L|353:176|353:176,1,157.999992767334,10|0,0:0|0:0,0:0:0:0:
184,288,181825,6,0,B|222:357|222:357|230:278|230:278|277:215|277:215|322:150|322:150|327:71|327:71|355:145|355:145|416:195|416:195|438:271|438:271|483:336|483:336|426:281|426:281|398:207|398:207|388:129|388:129|334:72|334:72|296:3|296:3|261:74|261:74|247:152|247:152|215:224|215:224|199:301|199:301|148:361|148:361|122:287|122:287|98:212|98:212|114:135|114:135|131:58|131:58|170:127|170:127|208:196|208:196|219:274|219:274|276:329|276:329|308:257|308:257|314:178|314:178|352:109|352:109|391:40|391:40|409:117|409:117|365:242|365:242|289:75|289:75,1,2843.99986981201,6|0,0:0|0:0,0:0:0:0:
44,263,184472,6,0,L|112:376|112:376|174:203|174:203,1,315.99998553467,2|0,0:0|0:0,0:0:0:0:
291,139,184803,2,0,L|255:266|255:266|161:108|161:108,1,315.99998553467,2|0,0:0|0:0,0:0:0:0:
279,204,185134,2,0,L|214:348|214:348,1,157.999992767334,2|0,0:0|0:0,0:0:0:0:
384,72,185355,6,0,B|364:148|364:148|329:219|329:219|292:289|292:289|255:359|255:359|229:285|229:285|170:232|170:232|162:153|162:153|124:84|124:84|99:9|99:9|138:78|138:78|158:155|158:155|189:228|189:228|239:290|239:290|265:365|265:365|281:288|281:288|324:221|324:221|366:154|366:154|386:77|386:77|413:3|413:3|405:82|405:82|374:155|374:155|335:224|335:224|295:292|295:292|273:368|273:368|239:268|239:268|176:183|176:183|126:90|126:90|78:240|78:240,1,2369.99989151001,4|0,0:0|0:0,0:0:0:0:
216,288,187119,6,0,B|237:357|237:357|257:287|257:287|319:249|319:249|338:179|338:179|349:107|349:107|395:51|395:51|391:123|391:123|443:236|443:236,1,631.999971069337,2|0,0:0|0:0,0:0:0:0:
152,192,188002,2,0,B|176:267|176:267|205:340|205:340|236:268|236:268|301:223|301:223|334:151|334:151|355:75|355:75|388:3|388:3|346:70|346:70|284:155|284:155|253:256|253:256|206:350|206:350|151:203|151:203,1,1105.99994937134,2|0,0:0|0:0,0:0:0:0:
320,136,188884,6,0,B|292:210|292:210|240:269|240:269|221:346|221:346|180:278|180:278|151:205|151:205|116:134|116:134|103:56|103:56|72:129|72:129|36:199|36:199|72:269|72:269|100:343|100:343|124:268|124:268|165:200|165:200|190:125|190:125|215:50|215:50|250:121|250:121|279:194|279:194|311:266|311:266|333:342|333:342|386:283|386:283|408:207|408:207|427:130|427:130|476:68|476:68|468:147|468:147|418:208|418:208|407:286|407:286|373:357|373:357|350:281|350:281|315:210|315:210|272:144|272:144|239:72|239:72|219:148|219:148|180:274|180:274|94:111|94:111,1,2843.99986981201,4|0,0:0|0:0,0:0:0:0:
268,279,191531,6,0,L|228:153|228:153|138:313|138:313,1,315.99998553467,2|0,0:0|0:0,0:0:0:0:
262,216,191862,2,0,L|310:339|310:339|392:175|392:175,1,315.99998553467,2|0,0:0|0:0,0:0:0:0:
224,141,192193,2,0,L|289:285|289:285,1,157.999992767334,2|0,0:0|0:0,0:0:0:0:
120,57,192413,6,0,B|133:135|133:135|176:201|176:201|198:277|198:277|235:347|235:347|266:274|266:274|298:202|298:202|337:133|337:133|369:61|369:61|387:138|387:138|424:208|424:208|411:286|411:286|379:358|379:358|367:280|367:280|321:216|321:216|280:149|280:149|254:74|254:74|222:2|222:2|181:70|181:70|161:146|161:146|110:206|110:206|89:282|89:282|71:359|71:359|46:284|46:284|44:205|44:205|80:106|80:106|142:20|142:20|185:116|185:116|239:264|239:264,1,2369.99989151001,4|0,0:0|0:0,0:0:0:0:
372,196,194178,6,0,B|427:286|427:286|458:185|458:185|444:80|444:80|373:220|373:220,1,473.999978302003,2|0,0:0|0:0,0:0:0:0:
239,196,194619,2,0,B|188:288|188:288|141:383|141:383|165:280|165:280|238:141|238:141,1,473.999978302003,2|0,0:0|0:0,0:0:0:0:
372,109,195060,2,0,L|320:201|320:201|268:293|268:293|233:193|233:193|177:46|177:46,1,473.999978302003,2|0,0:0|0:0,0:0:0:0:
312,61,195502,2,0,L|269:157|269:157|212:246|212:246|195:350|195:350|117:214|117:214,1,473.999978302003,2|0,0:0|0:0,0:0:0:0:
328,112,195943,6,0,B|284:177|284:177|273:255|273:255|240:327|240:327|228:249|228:249|170:195|170:195|166:116|166:116|114:57|114:57|93:133|93:133|80:211|80:211|45:282|45:282|-4:344|-4:344|31:273|31:273|61:200|61:200|71:122|71:122|103:50|103:50|120:127|120:127|151:256|151:256|208:81|208:81,1,1579.99992767334,4|0,0:0|0:0,0:0:0:0:
392,128,197487,2,0,L|302:293|302:293,1,187.999994262696,2|0,0:0|0:0,0:0:0:0:
392,128,197708,6,0,B|424:200|424:200|435:278|435:278|462:352|462:352|493:279|493:279|476:202|476:202|485:124|485:124|477:45|477:45|446:118|446:118|394:210|394:210|377:314|377:314|327:221|327:221|270:74|270:74,1,1105.99994937134,2|0,0:0|0:0,0:0:0:0:
140,192,198590,2,0,L|183:288|183:288|213:187|213:187|270:98|270:98|335:241|335:241,1,473.999978302003,2|0,0:0|0:0,0:0:0:0:
466,112,199031,2,0,L|437:213|437:213|365:290|365:290|320:385|320:385|271:236|271:236,1,473.999978302003,2|0,0:0|0:0,0:0:0:0:
101,50,199472,6,0,B|140:119|140:119|180:187|180:187|196:264|196:264|215:341|215:341|258:275|258:275|285:201|285:201|335:140|335:140|348:62|348:62|385:161|385:161|409:264|409:264|414:369|414:369|455:217|455:217,1,1105.99994937134,4|0,0:0|0:0,0:0:0:0:
321,283,200355,2,0,B|294:357|294:357|263:284|263:284|215:221|215:221|187:147|187:147|169:70|169:70|127:3|127:3|97:76|97:76|85:154|85:154|42:220|42:220|48:299|48:299|86:368|86:368|103:291|103:291|159:235|159:235|183:160|183:160|215:88|215:88|234:11|234:11|298:127|298:127|352:303|352:303,1,1579.99992767334,2|0,0:0|0:0,0:0:0:0:
112,72,202119,6,0,B|139:146|139:146|161:222|161:222|228:264|228:264|239:342|239:342|268:268|268:268|282:190|282:190|318:120|318:120|349:47|349:47|375:149|375:149|397:252|397:252|402:357|402:357|416:200|416:200,1,1105.99994937134,2|0,0:0|0:0,0:0:0:0:
248,170,203002,6,0,B|229:247|229:247|193:317|193:317|141:377|141:377|131:299|131:299|102:226|102:226|78:151|78:151|76:72|76:72|87:150|87:150|109:226|109:226|151:293|151:293|171:369|171:369|210:300|210:300|219:222|219:222|267:160|267:160|303:90|303:90|329:15|329:15|340:87|340:87|386:143|386:143|403:213|403:213|383:283|383:283|350:348|350:348|317:283|317:283|308:211|308:211|257:98|257:98,1,1895.99991320801,6|0,0:0|0:0,0:0:0:0:
133,321,204766,6,0,B|168:250|168:250|214:185|214:185|228:107|228:107|245:30|245:30|298:89|298:89|307:168|307:168|344:238|344:238|327:315|327:315|276:223|276:223|232:127|232:127|184:33|184:33|135:182|135:182,1,1105.99994937134,2|0,0:0|0:0,0:0:0:0:
256,184,205649,2,0,B|236:260|236:260|197:328|197:328|173:253|173:253|115:199|115:199|108:120|108:120|48:69|48:69|46:148|46:148|78:220|78:220|110:321|110:321|160:228|160:228|200:130|200:130|270:271|270:271,1,1105.99994937134,2|0,0:0|0:0,0:0:0:0:
104,192,206531,6,0,B|134:265|134:265|153:342|153:342|203:281|203:281|211:202|211:202|242:129|242:129|282:61|282:61|304:137|304:137|345:205|345:205|355:283|355:283|306:345|306:345|269:275|269:275|250:198|250:198|232:121|232:121|203:48|203:48|167:119|167:119|129:188|129:188|116:259|116:259|86:325|86:325|39:380|39:380|25:309|25:309|24:236|24:236|59:173|59:173|89:107|89:107|144:218|144:218,1,1895.99991320801,6|0,0:0|0:0,0:0:0:0:
432,192,208296,5,0,0:0:0:0:
256,192,208516,12,0,210060,0:0:0:0:
376,208,210538,5,0,0:0:0:0:
208,208,210833,1,0,0:0:0:0:
376,120,211053,1,0,0:0:0:0:
272,120,211219,2,0,B|239:199|239:199|212:280|212:280|183:361|183:361|157:226|157:226,1,394.999981918337
389,72,211605,2,0,L|432:168|432:168|389:264|389:264|432:360|432:360,3,105.333328511556
112,208,212046,6,0,L|47:352|47:352,1,157.999992767334,2|0,0:0|0:0,0:0:0:0:
215,207,212266,2,0,L|150:351|150:351,1,157.999992767334,2|0,0:0|0:0,0:0:0:0:
318,182,212487,2,0,L|318:340|318:340,1,157.999992767334,2|0,0:0|0:0,0:0:0:0:
150,150,212708,2,0,L|150:308|150:308,1,157.999992767334,2|0,0:0|0:0,0:0:0:0:
318,286,212928,2,0,L|253:142|253:142,1,157.999992767334,2|0,0:0|0:0,0:0:0:0:
24,256,213149,2,0,L|53:385|53:385|139:222|139:222,1,315.99998553467,2|0,0:0|0:0,0:0:0:0:
419,161,213590,6,0,L|354:305|354:305,1,157.999992767334,4|0,0:0|0:0,0:0:0:0:
236,145,213810,2,0,L|301:289|301:289,1,157.999992767334,8|0,0:0|0:0,0:0:0:0:
471,115,214031,2,0,L|471:273|471:273,1,157.999992767334
353,51,214252,2,0,L|418:195|418:195,1,157.999992767334,8|0,0:0|0:0,0:0:0:0:
222,312,214472,6,0,L|287:168|287:168,1,157.999992767334,2|2,0:0|0:0,0:0:0:0:
404,314,214693,2,0,L|339:170|339:170,1,157.999992767334,8|2,0:0|0:0,0:0:0:0:
168,208,214913,2,0,L|202:279|202:279|233:352|233:352|204:279|204:279|168:209|168:209|233:65|233:65,3,157.999992767334,0|2|8|2,0:0|0:0|0:0|0:0,0:0:0:0:
401,148,215355,5,0,0:0:0:0:
303,147,215465,1,0,0:0:0:0:
205,145,215575,1,8,0:0:0:0:
107,146,215685,1,0,0:0:0:0:
274,61,215796,2,0,L|209:205|209:205,1,157.999992767334
327,38,216016,2,0,L|262:182|262:182,1,157.999992767334,8|0,0:0|0:0,0:0:0:0:
95,191,216237,6,0,L|95:349|95:349,1,157.999992767334
280,328,216457,2,0,L|280:170|280:170,1,157.999992767334,8|0,0:0|0:0,0:0:0:0:
96,248,216678,2,0,L|31:104|31:104,1,157.999992767334,2|0,0:0|0:0,0:0:0:0:
216,192,216899,2,0,L|151:336|151:336,1,157.999992767334,10|2,0:0|0:0,0:0:0:0:
325,121,217119,6,0,L|260:265|260:265,1,157.999992767334
143,121,217340,2,0,L|208:265|208:265,1,157.999992767334,8|0,0:0|0:0,0:0:0:0:
378,241,217560,2,0,L|443:385|443:385,1,157.999992767334
326,232,217781,2,0,L|391:376|391:376,1,157.999992767334,8|0,0:0|0:0,0:0:0:0:
222,80,218002,6,0,L|222:238|222:238,1,157.999992767334,2|2,0:0|0:0,0:0:0:0:
390,80,218222,2,0,L|455:224|455:224,1,157.999992767334,8|2,0:0|0:0,0:0:0:0:
288,200,218443,2,0,L|288:358|288:358,1,157.999992767334,0|2,0:0|0:0,0:0:0:0:
376,200,218663,2,0,L|376:358|376:358,1,157.999992767334,8|2,0:0|0:0,0:0:0:0:
192,96,218884,6,0,L|127:240|127:240,1,157.999992767334
245,97,219105,2,0,L|310:241|310:241,1,157.999992767334,10|0,0:0|0:0,0:0:0:0:
136,296,219325,2,0,L|182:360|182:360|201:283|201:283|180:207|180:207|136:141|136:141|201:285|201:285,3,157.999992767334,2|0|10|2,0:0|0:0|0:0|0:0,0:0:0:0:
371,199,219766,5,0,0:0:0:0:
267,201,219877,1,0,0:0:0:0:
163,200,219987,1,8,0:0:0:0:
267,201,220097,1,0,0:0:0:0:
448,80,220208,2,0,L|448:238|448:238,1,157.999992767334,2|0,0:0|0:0,0:0:0:0:
331,64,220428,2,0,L|396:208|396:208,1,157.999992767334,10|2,0:0|0:0,0:0:0:0:
200,80,220649,6,0,L|135:224|135:224,1,157.999992767334
253,144,220869,2,0,L|188:288|188:288,1,157.999992767334,8|0,0:0|0:0,0:0:0:0:
370,202,221090,2,0,L|305:346|305:346,1,157.999992767334,2|0,0:0|0:0,0:0:0:0:
187,202,221310,2,0,L|252:346|252:346,1,157.999992767334,10|2,0:0|0:0,0:0:0:0:
432,152,221531,6,0,L|432:310|432:310,1,157.999992767334
344,152,221752,2,0,L|344:310|344:310,1,157.999992767334,8|0,0:0|0:0,0:0:0:0:
148,82,221972,2,0,L|213:226|213:226,1,157.999992767334,2|0,0:0|0:0,0:0:0:0:
303,80,222193,2,0,L|303:238|303:238,1,157.999992767334,10|2,0:0|0:0,0:0:0:0:
125,318,222413,6,0,L|125:160|125:160,1,157.999992767334
242,221,222634,2,0,L|177:365|177:365,1,157.999992767334,10|0,0:0|0:0,0:0:0:0:
353,294,222855,2,0,L|316:364|316:364|288:290|288:290|328:222|328:222|353:147|353:147|288:3|288:3,3,157.999992767334,2|0|10|2,0:0|0:0|0:0|0:0,0:0:0:0:
104,200,223296,6,0,L|169:344|169:344,1,157.999992767334
352,208,223516,2,0,L|287:352|287:352,1,157.999992767334,8|0,0:0|0:0,0:0:0:0:
104,144,223737,2,0,L|104:302|104:302,1,157.999992767334
288,72,223958,2,0,L|288:230|288:230,1,157.999992767334,8|0,0:0|0:0,0:0:0:0:
103,264,224178,2,0,L|136:336|136:336|168:264|168:264|146:188|146:188|103:122|103:122|168:266|168:266,3,157.999992767334
352,144,224619,2,0,L|287:288|287:288,1,157.999992767334,2|0,0:0|0:0,0:0:0:0:
404,153,224840,2,0,L|339:297|339:297,1,157.999992767334,8|0,0:0|0:0,0:0:0:0:
144,72,225060,5,2,0:0:0:0:
248,72,225171,1,0,0:0:0:0:
352,72,225281,1,8,0:0:0:0:
248,24,225391,1,2,0:0:0:0:
56,176,225502,2,0,L|112:296|112:296|186:128|186:128,1,315.99998553467,0|10,0:0|0:0,0:0:0:0:
368,216,225943,6,0,L|305:309|305:309|254:153|254:153,1,276.499987342834
280,288,226163,2,0,L|341:173|341:173|429:6|429:6,1,318.500006074905,10|0,0:0|0:0,0:0:0:0:
400,144,226384,2,0,L|340:278|340:278|216:104|216:104,1,360.499988998413,2|0,0:0|0:0,0:0:0:0:
241,65,226605,2,0,L|311:213|311:213|460:26|460:26,1,402.5,8|0,0:0|0:0,0:0:0:0:
433,65,226825,6,0,L|316:242|316:242|143:2|143:2,1,508.000015502931,8|0,0:0|0:0,0:0:0:0:
207,64,227156,1,0,0:0:0:0:
325,139,227266,2,0,L|260:283|260:283,1,157.999992767334,2|0,0:0|0:0,0:0:0:0:
144,216,227487,2,0,L|209:360|209:360,1,157.999992767334,2|2,0:0|0:0,0:0:0:0:
389,240,227708,6,0,L|389:82|389:82,1,157.999992767334,4|0,0:0|0:0,0:0:0:0:
272,240,227928,2,0,L|337:384|337:384,1,157.999992767334,8|0,0:0|0:0,0:0:0:0:
169,113,228149,2,0,L|104:257|104:257,1,157.999992767334
222,113,228369,2,0,L|287:257|287:257,1,157.999992767334,8|0,0:0|0:0,0:0:0:0:
120,192,228590,6,0,L|120:350|120:350,1,157.999992767334,2|2,0:0|0:0,0:0:0:0:
208,192,228810,2,0,L|208:350|208:350,1,157.999992767334,8|2,0:0|0:0,0:0:0:0:
392,72,229031,2,0,L|368:147|368:147|327:215|327:215|378:275|378:275|392:353|392:353|327:209|327:209,3,157.999992767334,0|2|8|2,0:0|0:0|0:0|0:0,0:0:0:0:
144,80,229472,6,0,L|209:224|209:224,1,157.999992767334
92,48,229693,2,0,L|157:192|157:192,1,157.999992767334,8|0,0:0|0:0,0:0:0:0:
325,80,229913,2,0,L|260:224|260:224,1,157.999992767334
377,110,230134,2,0,L|377:268|377:268,1,157.999992767334,8|0,0:0|0:0,0:0:0:0:
205,176,230355,6,0,L|140:320|140:320,1,157.999992767334
328,312,230575,2,0,L|393:168|393:168,1,157.999992767334,8|0,0:0|0:0,0:0:0:0:
208,233,230796,2,0,L|208:75|208:75,1,157.999992767334,2|0,0:0|0:0,0:0:0:0:
392,184,231016,2,0,L|391:342|391:342,1,157.999992767334,10|2,0:0|0:0,0:0:0:0:
143,112,231237,2,0,L|184:180|184:180|208:255|208:255|188:332|188:332|143:267|143:267|208:123|208:123,3,157.999992767334,0|0|8|0,0:0|0:0|0:0|0:0,0:0:0:0:
392,64,231678,2,0,L|392:222|392:222,1,157.999992767334
304,56,231899,2,0,L|304:214|304:214,1,157.999992767334,8|0,0:0|0:0,0:0:0:0:
120,248,232119,6,0,L|185:104|185:104,1,157.999992767334,2|2,0:0|0:0,0:0:0:0:
81,211,232340,2,0,L|81:369|81:369,1,157.999992767334,8|2,0:0|0:0,0:0:0:0:
262,128,232560,2,0,L|219:183|219:183|212:253|212:253|240:317|240:317|262:383|262:383|212:252|212:252,3,140,0|2|8|2,0:0|0:0|0:0|0:0,0:0:0:0:
407,56,233002,6,0,L|472:200|472:200,1,157.999992767335
288,64,233222,2,0,L|223:208|223:208,1,157.999992767335,10|0,0:0|0:0,0:0:0:0:
392,274,233443,2,0,L|392:116|392:116,1,157.999992767335,2|0,0:0|0:0,0:0:0:0:
274,210,233663,2,0,L|339:354|339:354,1,157.999992767335,10|2,0:0|0:0,0:0:0:0:
158,112,233884,6,0,L|223:256|223:256,1,157.999992767335
341,79,234105,2,0,L|276:223|276:223,1,157.999992767335,8|0,0:0|0:0,0:0:0:0:
106,256,234325,2,0,L|106:98|106:98,1,157.999992767335,2|0,0:0|0:0,0:0:0:0:
224,192,234546,2,0,L|159:336|159:336,1,157.999992767335,10|2,0:0|0:0,0:0:0:0:
344,112,234766,5,0,0:0:0:0:
240,112,234877,1,0,0:0:0:0:
136,112,234987,1,8,0:0:0:0:
32,112,235097,1,0,0:0:0:0:
216,264,235208,6,0,L|259:139|259:139|346:301|346:301,1,315.99998553467,2|10,0:0|0:0,0:0:0:0:
144,160,235649,1,0,0:0:0:0:
432,152,235869,1,8,0:0:0:0:
144,112,236090,2,0,L|201:231|201:231|274:62|274:62,1,315.99998553467,2|0,0:0|0:0,0:0:0:0:
445,177,236531,6,0,L|380:321|380:321,1,157.999992767335
96,232,236752,2,0,B|134:309|134:309|161:227|161:227|234:181|234:181|244:95|244:95|268:12|268:12|218:82|218:82|195:165|195:165|120:292|120:292,1,751.999977050782,8|8,0:0|0:0,0:0:0:0:
400,152,237413,2,0,L|335:296|335:296,1,157.999992767334,2|0,0:0|0:0,0:0:0:0:
120,152,237744,2,0,L|185:296|185:296,1,157.999992767334,2|0,0:0|0:0,0:0:0:0:
384,80,238075,1,2,0:0:0:0:
96,72,238296,5,0,0:0:0:0:
256,192,238406,12,4,240060,0:0:0:0:
328,192,240281,6,0,L|393:336|393:336,1,157.999992767334,2|0,0:0|0:0,0:0:0:0:
208,128,240502,2,0,L|273:272|273:272,1,157.999992767334,2|0,0:0|0:0,0:0:0:0:
88,256,240722,2,0,L|88:98|88:98,1,157.999992767334,2|0,0:0|0:0,0:0:0:0:
272,264,240943,2,0,L|308:335|308:335|337:262|337:262|272:118|272:118,2,157.999992767334,2|0|2,0:0|0:0|0:0,0:0:0:0:
88,144,241384,2,0,L|143:264|143:264|218:96|218:96,1,315.99998553467,2|2,0:0|0:0,0:0:0:0:
32,88,241715,2,0,L|79:143|79:143|89:215|89:215|134:272|134:272|135:345|135:345|200:377|200:377|193:305|193:305|258:273|258:273|292:154|292:154,1,631.999971069337,2|0,0:0|0:0,0:0:0:0:
56,200,242266,5,4,0:0:0:0:
208,192,242487,1,8,0:0:0:0:
360,192,242708,2,0,L|320:260|320:260|295:335|295:335|360:191|360:191,2,157.999992767334,2|2|8,0:0|0:0|0:0,0:0:0:0:
176,192,243038,2,0,L|103:302|103:302|46:127|46:127,1,315.99998553467,2|2,0:0|0:0,0:0:0:0:
416,128,243480,2,0,B|366:190|366:190|365:269|365:269|324:337|324:337|281:271|281:271|248:199|248:199|209:130|209:130|241:58|241:58|291:119|291:119|303:191|303:191|344:251|344:251|396:302|396:302|377:372|377:372|346:307|346:307|308:245|308:245|269:184|269:184|235:65|235:65,1,1263.99994213867,2|0,0:0|0:0,0:0:0:0:
128,96,244472,5,0,0:0:0:0:
296,224,244693,1,8,0:0:0:0:
136,144,244913,1,2,0:0:0:0:
240,144,245024,1,0,0:0:0:0:
344,152,245134,1,10,0:0:0:0:
160,64,245244,2,0,B|202:131|202:131|225:207|225:207|256:280|256:280|297:348|297:348|326:274|326:274|344:197|344:197|336:118|336:118|290:54|290:54|252:181|252:181|160:340|160:340,1,947.999956604007,2|0,0:0|0:0,0:0:0:0:
320,192,246237,5,2,0:0:0:0:
136,192,246347,2,0,L|136:350|136:350,1,157.999992767334,2|8,0:0|0:0,0:0:0:0:
320,112,246568,2,0,L|255:256|255:256,1,157.999992767334,2|0,0:0|0:0,0:0:0:0:
440,72,246788,2,0,L|440:230|440:230,1,157.999992767334,2|8,0:0|0:0,0:0:0:0:
256,48,247009,2,0,B|295:146|295:146|332:245|332:245|386:336|386:336|451:193|451:193,1,473.999978302003,2|10,0:0|0:0,0:0:0:0:
232,144,247560,5,2,0:0:0:0:
376,176,247781,1,10,0:0:0:0:
192,184,247891,2,0,L|238:279|238:279|279:376|279:376|336:287|336:287|387:138|387:138,1,473.999978302003,10|8,0:0|0:0,0:0:0:0:
160,96,248443,2,0,L|180:173|180:173|225:238|225:238|160:382|160:382,2,157.999992767334,2|0|10,0:0|0:0|0:0,0:0:0:0:
344,168,248774,2,0,L|301:264|301:264|245:354|245:354|196:261|196:261|149:111|149:111,1,473.999978302003,2|8,0:0|0:0,0:0:0:0:
344,239,249325,6,0,L|304:307|304:307|279:382|279:382|344:238|344:238,2,157.999992767334,2|0|10,0:0|0:0|0:0,0:0:0:0:
160,312,249656,2,0,L|210:219|210:219|250:121|250:121|306:32|306:32|355:181|355:181,1,473.999978302003,2|8,0:0|0:0,0:0:0:0:
152,192,250207,2,0,L|152:350|152:350,1,157.999992767334,2|0,0:0|0:0,0:0:0:0:
240,128,250428,1,10,0:0:0:0:
432,72,250538,2,0,B|399:152|399:152|356:227|356:227|323:307|323:307|320:221|320:221|343:138|343:138|399:72|399:72|387:158|387:158|315:287|315:287,1,751.999977050782
112,72,251090,5,2,0:0:0:0:
208,72,251200,1,2,0:0:0:0:
304,72,251310,1,8,0:0:0:0:
96,232,251421,2,0,B|110:303|110:303|159:356|159:356|164:284|164:284|196:219|196:219|251:172|251:172|270:102|270:102|278:30|278:30|308:151|308:151,1,631.999971069337,2|0,0:0|0:0,0:0:0:0:
88,160,252193,1,8,0:0:0:0:
272,88,252413,6,0,L|216:177|216:177|192:280|192:280|132:367|132:367|77:220|77:220,1,473.999978302003,2|0,0:0|0:0,0:0:0:0:
248,232,252855,2,0,L|290:329|290:329|346:239|346:239|373:137|373:137|443:278|443:278,1,473.999978302003,2|0,0:0|0:0,0:0:0:0:
272,136,253296,2,0,L|232:262|232:262|142:102|142:102,1,315.99998553467,2|8,0:0|0:0,0:0:0:0:
312,64,253627,2,0,L|362:186|362:186|442:351|442:351,1,315.99998553467,2|0,0:0|0:0,0:0:0:0:
272,200,253958,2,0,L|241:301|241:301|185:211|185:211|148:112|148:112|77:252|77:252,1,473.999978302003,14|0,0:0|0:0,0:0:0:0:
248,296,254399,6,0,L|248:138|248:138,1,157.999992767334,10|0,0:0|0:0,0:0:0:0:
80,296,254619,2,0,L|145:152|145:152,1,157.999992767334,2|0,0:0|0:0,0:0:0:0:
312,232,254840,2,0,L|286:307|286:307|247:376|247:376|312:232|312:232,2,157.999992767334,0|0|2,0:0|0:0|0:0,0:0:0:0:
133,209,255281,1,8,0:0:0:0:
320,120,255502,6,0,L|385:264|385:264,1,157.999992767334,2|0,0:0|0:0,0:0:0:0:
200,120,255722,1,10,0:0:0:0:
135,120,255833,2,0,B|153:197|153:197|218:242|218:242|223:321|223:321|274:381|274:381|312:312|312:312|313:233|313:233|354:166|354:166|395:98|395:98|366:31|366:31|346:101|346:101|316:167|316:167|283:231|283:231|236:286|236:286|212:354|212:354|178:290|178:290|135:174|135:174,1,1263.99994213867,2|0,0:0|0:0,0:0:0:0:
320,216,256825,6,0,L|270:278|270:278|255:356|255:356|320:212|320:212,2,157.999992767334,2|2|8,0:0|0:0|0:0,0:0:0:0:
136,272,257156,2,0,L|136:114|136:114,1,157.999992767334,2|0,0:0|0:0,0:0:0:0:
224,200,257377,1,2,0:0:0:0:
40,128,257487,1,8,0:0:0:0:
106,129,257597,2,0,B|152:194|152:194|177:269|177:269|218:337|218:337|229:259|229:259|250:183|250:183|317:141|317:141|318:62|318:62|278:130|278:130|236:189|236:189|215:259|215:259|200:330|200:330|213:259|213:259|259:203|259:203|264:131|264:131|320:85|320:85|354:204|354:204,1,1263.99994213867,2|0,0:0|0:0,0:0:0:0:
248,72,258590,5,0,0:0:0:0:
392,80,258810,1,8,0:0:0:0:
160,208,259031,1,2,0:0:0:0:
265,217,259141,1,0,0:0:0:0:
368,220,259252,1,10,0:0:0:0:
184,120,259362,2,0,B|156:194|156:194|136:270|136:270|130:349|130:349|161:276|161:276|196:205|196:205|208:127|208:127|252:61|252:61|284:133|284:133|339:223|339:223|375:322|375:322|330:227|330:227|257:88|257:88,1,1105.99994937134,2|8,0:0|0:0,0:0:0:0:
416,248,260355,6,0,L|402:326|402:326|351:266|351:266|416:122|416:122,2,157.999992767334,2|2|8,0:0|0:0|0:0,0:0:0:0:
232,248,260685,2,0,L|297:104|297:104,1,157.999992767334,2|0,0:0|0:0,0:0:0:0:
112,248,260906,2,0,L|177:104|177:104,1,157.999992767334,2|8,0:0|0:0,0:0:0:0:
360,160,261127,2,0,L|305:280|305:280|230:112|230:112,1,315.99998553467,2|0,0:0|0:0,0:0:0:0:
40,152,261458,6,0,L|105:296|105:296,1,157.999992767334,10|0,0:0|0:0,0:0:0:0:
288,72,261678,2,0,L|268:149|268:149|223:214|223:214|288:358|288:358,2,157.999992767334,2|0|10,0:0|0:0|0:0,0:0:0:0:
472,280,262009,1,10,0:0:0:0:
200,232,262340,1,8,0:0:0:0:
344,160,262560,2,0,L|404:278|404:278|474:108|474:108,1,315.99998553467,2|10,0:0|0:0,0:0:0:0:
288,64,262891,2,0,B|257:165|257:165|197:252|197:252|165:353|165:353|113:205|113:205,1,473.999978302003,2|8,0:0|0:0,0:0:0:0:
248,160,263443,6,0,L|193:280|193:280|118:112|118:112,1,315.99998553467,2|10,0:0|0:0,0:0:0:0:
304,64,263774,2,0,B|326:167|326:167|368:264|368:264|433:347|433:347|479:197|479:197,1,473.999978302003,2|8,0:0|0:0,0:0:0:0:
304,152,264325,2,0,L|344:278|344:278|434:118|434:118,1,315.99998553467,2|10,0:0|0:0,0:0:0:0:
216,56,264656,2,0,B|170:120|170:120|152:197|152:197|124:271|124:271|80:336|80:336|80:257|80:257|42:188|42:188|53:110|53:110|29:35|29:35|36:107|36:107|39:180|39:180|51:252|51:252|65:323|65:323|90:255|90:255|103:184|103:184|149:128|149:128|199:14|199:14,1,1263.99994213867,2|0,0:0|0:0,0:0:0:0:
368,248,265869,5,8,0:0:0:0:
152,112,266090,1,2,0:0:0:0:
256,112,266200,1,0,0:0:0:0:
360,112,266310,1,10,0:0:0:0:
176,192,266421,2,0,L|236:279|236:279|252:383|252:383|309:294|309:294|371:150|371:150,1,473.999978302003,2|8,0:0|0:0,0:0:0:0:
144,272,266972,6,0,L|176:344|176:344|209:272|209:272|144:128|144:128,2,157.999992767334,2|0|10,0:0|0:0|0:0,0:0:0:0:
328,152,267303,2,0,L|285:248|285:248|225:335|225:335|185:237|185:237|133:89|133:89,1,473.999978302003,2|8,0:0|0:0,0:0:0:0:
360,80,267855,2,0,L|295:224|295:224,1,157.999992767334,2|0,0:0|0:0,0:0:0:0:
112,80,268075,2,0,L|177:224|177:224,1,157.999992767334,10|0,0:0|0:0,0:0:0:0:
360,144,268296,6,0,B|343:214|343:214|307:277|307:277|286:347|286:347|241:290|241:290|258:219|258:219|281:150|281:150|293:78|293:78|359:183|359:183,1,631.999971069337,2|0,0:0|0:0,0:0:0:0:
64,216,268958,2,0,L|79:287|79:287|141:325|141:325|138:253|138:253|174:190|174:190|214:130|214:130|232:60|232:60|277:3|277:3|324:118|324:118,1,631.999971069337,10|8,0:0|0:0,0:0:0:0:
120,152,269619,6,0,L|120:310|120:310,1,157.999992767334,2|0,0:0|0:0,0:0:0:0:
208,88,269840,1,2,0:0:0:0:
424,88,269950,2,0,L|395:189|395:189|328:271|328:271|286:368|286:368|229:222|229:222,1,473.999978302003,2|0,0:0|0:0,0:0:0:0:
424,192,270502,6,0,L|388:262|388:262|359:335|359:335|424:191|424:191,2,157.999992767334,2|2|2,0:0|0:0|0:0,0:0:0:0:
256,293,270833,2,0,L|317:379|317:379|348:278|348:278|398:185|398:185|451:37|451:37,1,473.999978302003,2|0,0:0|0:0,0:0:0:0:
264,176,271384,1,2,0:0:0:0:
160,176,271494,1,2,0:0:0:0:
56,176,271605,1,2,0:0:0:0:
248,288,271715,2,0,L|196:380|196:380|152:284|152:284|135:180|135:180|53:46|53:46,1,473.999978302003,2|0,0:0|0:0,0:0:0:0:
272,216,272266,5,0,0:0:0:0:
128,216,272487,1,0,0:0:0:0:
408,112,272708,2,0,L|351:231|351:231|278:62|278:62,1,315.99998553467,4|0,0:0|0:0,0:0:0:0:
112,112,273038,2,0,L|178:226|178:226|242:54|242:54,1,315.99998553467,2|0,0:0|0:0,0:0:0:0:
416,216,273369,2,0,L|351:360|351:360,1,157.999992767334
144,216,273590,5,4,0:0:0:0:
256,192,273810,12,4,275355,0:0:0:0:
352,48,276237,6,0,B|398:165|398:165|472:266|472:266|442:144|442:144|354:309|354:309,1,563.999982788086,4|0,0:2|0:2,0:2:0:0:
176,56,276678,2,0,B|100:156|100:156|73:279|73:279|96:156|96:156|174:326|174:326,1,563.999982788086,4|0,0:2|0:2,0:2:0:0:
387,120,277119,6,0,L|354:192|354:192|322:264|322:264|387:120|387:120,2,157.999992767334,4|2|8,0:0|0:0|0:0,0:0:0:0:
243,184,277450,2,0,L|210:256|210:256|178:328|178:328|243:184|243:184,2,157.999992767334,0|2|0,0:0|0:0|0:0,0:0:0:0:
132,316,277781,2,0,L|197:172|197:172,1,157.999992767334,8|0,0:0|0:0,0:0:0:0:
364,91,278002,2,0,L|299:235|299:235,1,157.999992767334,0|2,0:0|0:0,0:0:0:0:
235,91,278222,1,8,0:0:0:0:
377,253,278333,2,0,L|377:95|377:95,1,157.999992767334,0|2,0:0|0:0,0:0:0:0:
289,189,278553,1,0,0:0:0:0:
399,32,278663,2,0,L|399:190|399:190,1,157.999992767334,8|0,0:0|0:0,0:0:0:0:
232,33,278884,6,0,L|218:111|218:111|167:171|167:171|232:315|232:315,2,157.999992767334,0|2|8,0:0|0:0|0:0,0:0:0:0:
89,171,279215,2,0,L|89:329|89:329,1,157.999992767334,0|2,0:0|0:0,0:0:0:0:
177,107,279435,1,0,0:0:0:0:
67,250,279546,2,0,L|132:106|132:106,1,157.999992767334,8|0,0:0|0:0,0:0:0:0:
301,46,279766,2,0,L|236:190|236:190,1,157.999992767334,0|2,0:0|0:0,0:0:0:0:
171,46,279987,1,8,0:0:0:0:
337,128,280097,2,0,L|337:286|337:286,1,157.999992767334,0|2,0:0|0:0,0:0:0:0:
249,120,280318,1,0,0:0:0:0:
418,278,280428,2,0,L|353:134|353:134,1,157.999992767334,10|0,0:0|0:0,0:0:0:0:
184,267,280649,6,0,L|211:341|211:341|249:272|249:272|184:128|184:128,2,157.999992767334,0|2|8,0:0|0:0|0:0,0:0:0:0:
315,231,280980,2,0,L|315:73|315:73,1,157.999992767334,0|2,0:0|0:0,0:0:0:0:
227,167,281200,1,0,0:0:0:0:
337,70,281310,2,0,L|272:214|272:214,1,157.999992767334,8|0,0:0|0:0,0:0:0:0:
104,98,281531,2,0,L|104:256|104:256,1,157.999992767334,0|2,0:0|0:0,0:0:0:0:
192,97,281752,1,8,0:0:0:0:
48,51,281862,2,0,L|113:195|113:195,1,157.999992767334,0|2,0:0|0:0,0:0:0:0:
178,51,282083,1,0,0:0:0:0:
67,209,282193,2,0,L|132:353|132:353,1,157.999992767334,8|0,0:0|0:0,0:0:0:0:
376,264,282413,6,0,L|326:142|326:142|246:307|246:307,1,315.99998553467,2|0,0:0|0:0,0:0:0:0:
40,264,282855,2,0,L|105:120|105:120,1,157.999992767334,2|0,0:0|0:0,0:0:0:0:
320,264,283075,2,0,L|255:120|255:120,1,157.999992767334
88,192,283296,2,0,L|88:350|88:350,1,157.999992767334,2|0,0:0|0:0,0:0:0:0:
256,184,283516,2,0,L|191:328|191:328,1,157.999992767334
360,120,283737,6,0,L|425:264|425:264,1,157.999992767334
425,120,283958,2,0,L|360:264|360:264,1,157.999992767334
101,100,284178,6,0,L|142:168|142:168|166:243|166:243|101:99|101:99,2,157.999992767334,4|2|8,0:0|0:0|0:0,0:0:0:0:
232,40,284509,2,0,L|186:105|186:105|167:182|167:182|232:326|232:326,2,157.999992767334,0|2|0,0:0|0:0|0:0,0:0:0:0:
343,208,284840,2,0,L|278:352|278:352,1,157.999992767334,8|0,0:0|0:0,0:0:0:0:
109,295,285060,2,0,L|174:151|174:151,1,157.999992767334,0|2,0:0|0:0,0:0:0:0:
239,295,285281,1,8,0:0:0:0:
97,236,285391,2,0,L|97:78|97:78,1,157.999992767334,0|2,0:0|0:0,0:0:0:0:
186,173,285612,1,0,0:0:0:0:
76,87,285722,2,0,L|76:245|76:245,1,157.999992767334,8|0,0:0|0:0,0:0:0:0:
245,70,285943,6,0,L|280:141|280:141|310:214|310:214|245:358|245:358,2,157.999992767334,0|2|8,0:0|0:0|0:0,0:0:0:0:
389,237,286274,2,0,L|389:79|389:79,1,157.999992767334,0|2,0:0|0:0,0:0:0:0:
301,173,286494,1,0,0:0:0:0:
411,319,286605,2,0,L|411:161|411:161,1,157.999992767334,8|0,0:0|0:0,0:0:0:0:
240,304,286825,2,0,L|204:374|204:374|175:301|175:301|240:157|240:157,2,157.999992767334,0|2|8,0:0|0:0|0:0,0:0:0:0:
72,240,287156,2,0,L|137:384|137:384,1,157.999992767334,0|2,0:0|0:0,0:0:0:0:
200,240,287377,1,0,0:0:0:0:
31,159,287487,2,0,L|96:303|96:303,1,157.999992767334,10|0,0:0|0:0,0:0:0:0:
264,227,287708,6,0,L|215:289|215:289|199:366|199:366|264:222|264:222,2,157.999992767334,0|2|8,0:0|0:0|0:0,0:0:0:0:
133,163,288038,2,0,L|133:321|133:321,1,157.999992767334,0|2,0:0|0:0,0:0:0:0:
221,99,288259,1,0,0:0:0:0:
111,38,288369,2,0,L|176:182|176:182,1,157.999992767334,8|0,0:0|0:0,0:0:0:0:
345,82,288590,2,0,L|345:240|345:240,1,157.999992767334,0|2,0:0|0:0,0:0:0:0:
257,81,288810,1,8,0:0:0:0:
401,39,288921,2,0,L|336:183|336:183,1,157.999992767334,0|2,0:0|0:0,0:0:0:0:
271,39,289141,1,0,0:0:0:0:
381,153,289252,2,0,L|316:297|316:297,1,157.999992767334,8|0,0:0|0:0,0:0:0:0:
93,193,289472,5,2,0:0:0:0:
381,169,289693,2,0,L|381:327|381:327,1,157.999992767334,2|0,0:0|0:0,0:0:0:0:
253,169,289913,2,0,L|318:313|318:313,1,157.999992767334,10|0,0:0|0:0,0:0:0:0:
445,113,290134,2,0,L|380:257|380:257,1,157.999992767334,2|0,0:0|0:0,0:0:0:0:
189,41,290355,6,0,B|148:160|148:160|72:260|72:260|89:384|89:384|187:225|187:225,1,563.999982788086,4|0,0:2|0:2,0:2:0:0:
365,49,290796,2,0,B|441:149|441:149|480:268|480:268|455:145|455:145|367:310|367:310,1,563.999982788086,4|0,0:2|0:2,0:2:0:0:
133,57,291237,6,0,L|223:222|223:222,1,187.999994262696
461,57,291458,5,6,0:0:0:0:
256,192,291568,12,0,295097,0:0:0:0:
