osu file format v14

[General]
AudioFilename: Miracle Of Sound - Forever Blue.mp3
AudioLeadIn: 0
PreviewTime: 174941
Countdown: 0
SampleSet: None
StackLeniency: 0.7
Mode: 0
LetterboxInBreaks: 0
WidescreenStoryboard: 0

[Editor]
Bookmarks: 18941,30941,42941,66941,78941,87941,99941,105941,117941,129941,141941,150941,162941,174941,186941,198941,210941,222941
DistanceSpacing: 1.8
BeatDivisor: 4
GridSize: 32
TimelineZoom: 2.1

[Metadata]
Title:Forever Blue
TitleUnicode:Forever Blue
Artist:Miracle Of Sound
ArtistUnicode:Miracle Of Sound
Creator:AlexaBM
Version:Challenging
Source:
Tags:
BeatmapID:844632
BeatmapSetID:386935

[Difficulty]
HPDrainRate:6
CircleSize:5
OverallDifficulty:6
ApproachRate:7.5
SliderMultiplier:2
SliderTickRate:1

[Events]
//Background and Video events
0,0,"bg.jpg",0,0
//Break Periods
2,43140,66116
//Storyboard Layer 0 (Background)
//Storyboard Layer 1 (Fail)
//Storyboard Layer 2 (Pass)
//Storyboard Layer 3 (Foreground)
//Storyboard Sound Samples

[TimingPoints]
6941,750,4,2,0,38,1,0
174941,-100,4,2,0,38,0,1
198847,-100,4,2,0,38,0,0
198941,-100,4,2,0,38,0,1
222941,-100,4,2,0,38,0,0

[Colours]
Combo1 : 151,101,235
Combo2 : 70,163,255
Combo3 : 102,128,170
Combo4 : 18,136,175

[HitObjects]
203,351,18941,6,0,L|200:243,1,100
272,197,19503,1,0,0:0:0:0:
272,197,19691,2,0,L|274:296,1,100
449,341,20441,2,0,B|450:279|450:279|434:212|434:212|437:143,1,200
164,175,21941,6,0,P|137:134|0:147,1,200
55,315,23066,1,0,0:0:0:0:
55,315,23253,1,0,0:0:0:0:
55,315,23441,2,0,L|131:331,1,50
193,247,23816,2,0,L|117:263,1,50
256,332,24191,2,0,L|273:273,1,50
352,248,24566,2,0,L|368:285,2,33.3333333333333
341,188,24941,6,0,P|368:133|420:97,1,100
475,62,25503,1,0,0:0:0:0:
394,21,25691,2,0,L|288:26,1,100
93,176,26441,1,0,0:0:0:0:
182,161,26628,1,0,0:0:0:0:
197,249,26816,1,0,0:0:0:0:
109,265,27003,1,0,0:0:0:0:
93,176,27191,2,0,P|96:119|121:67,1,100
237,209,27941,6,0,P|286:242|461:110,2,300
184,135,30378,1,0,0:0:0:0:
115,193,30566,2,0,P|86:199|56:191,1,50
3,130,30941,6,0,P|28:189|26:290,1,150
80,348,31691,2,0,P|139:355|184:342,1,100
321,236,32441,2,0,L|326:293,1,50
386,219,32816,2,0,L|391:276,1,50
451,202,33191,2,0,L|458:314,1,100
302,209,33941,6,0,P|226:193|172:215,1,100
134,252,34503,1,0,0:0:0:0:
134,252,34691,2,0,L|126:131,1,100
281,58,35441,1,0,0:0:0:0:
370,47,35628,1,0,0:0:0:0:
459,37,35816,2,0,L|461:92,1,50
441,175,36191,2,0,P|424:155|397:137,1,50
315,128,36566,2,0,L|266:133,2,33.3333333333333
289,68,36941,6,0,B|236:80|191:43|191:43|138:36|90:76,1,200
26,230,38066,1,0,0:0:0:0:
170,337,38441,2,0,P|203:282|180:179,1,150
119,250,39191,2,0,P|174:283|277:260,1,150
316,206,39941,2,0,B|325:98|226:40|226:40|126:132|17:92,2,400
420,92,66941,6,0,L|419:234,1,100
372,268,67503,2,0,P|306:245|271:215,1,100
245,142,68066,1,0,0:0:0:0:
92,47,68441,1,0,0:0:0:0:
84,226,68816,1,0,0:0:0:0:
190,81,69191,2,0,P|252:73|317:77,1,100
447,22,69941,6,0,L|452:228,1,200
457,311,70878,1,0,0:0:0:0:
457,311,71066,1,0,0:0:0:0:
308,209,71441,2,0,L|313:151,1,50
233,116,71816,2,0,L|237:165,1,50
168,223,72191,2,0,P|165:164|143:120,1,100
14,248,72941,6,0,L|15:360,1,100
190,307,73691,2,0,P|259:304|297:314,1,100
362,363,74253,2,0,L|361:213,1,150
440,256,75003,1,0,0:0:0:0:
440,256,75191,2,0,P|444:180|422:145,1,100
286,57,75941,6,0,B|232:39|185:63|187:51|117:91|65:49,1,200
42,235,77066,2,0,P|44:273|53:296,1,50
124,331,77441,2,0,L|237:331,1,100
268,156,78191,2,0,P|228:202|228:255,1,100
314,234,78753,6,0,P|354:188|354:135,1,100
262,303,79503,2,0,P|319:320|372:300,1,100
205,211,80253,2,0,B|141:211|141:211|41:234,1,150
194,113,81191,2,0,L|325:119,1,100
332,293,81941,6,0,P|341:222|470:150,1,200
449,329,83066,1,0,0:0:0:0:
269,327,83441,2,0,L|199:324,1,50
169,249,83816,2,0,L|239:246,1,50
289,190,84191,2,0,P|299:140|277:75,1,100
120,25,84941,6,0,P|108:73|118:121,1,100
244,284,85691,2,0,P|256:236|246:188,1,100
171,234,86253,2,0,L|353:227,1,150
391,172,87003,1,0,0:0:0:0:
455,235,87191,2,0,P|475:294|460:364,1,100
391,172,87941,6,0,P|399:105|501:21,1,200
314,27,89066,1,0,0:0:0:0:
208,172,89441,2,0,L|204:105,1,50
137,62,89816,2,0,L|134:111,1,50
65,171,90191,2,0,L|59:71,1,100
17,246,90941,6,0,B|68:275|125:251|143:211|143:211|175:224|219:201,1,200
332,93,92066,1,0,0:0:0:0:
420,249,92441,1,0,0:0:0:0:
420,249,92628,1,0,0:0:0:0:
420,249,92816,2,0,L|417:324,1,50
334,334,93191,2,0,P|280:337|261:329,1,50
184,289,93566,2,0,P|238:286|257:294,1,50
138,352,93941,6,0,B|96:303|119:250|119:250|141:198|114:158,1,200
4,23,95066,1,0,0:0:0:0:
177,71,95441,2,0,P|204:75|237:67,1,50
310,38,95816,2,0,P|367:54|439:39,2,100
141,99,96941,6,0,B|104:134|97:188|97:188|149:222|136:313,2,200
306,27,98816,1,0,0:0:0:0:
432,154,99191,2,0,L|435:266,1,100
198,299,99941,6,0,P|229:249|366:207,1,200
269,362,101066,1,0,0:0:0:0:
122,258,101441,2,0,L|121:196,1,50
144,120,101816,2,0,P|180:70|225:50,2,100
312,184,102941,6,0,B|388:183|388:183|436:164|436:164|524:164,2,200
146,256,104816,1,0,0:0:0:0:
22,124,105191,2,0,P|14:87|19:55,2,50
146,256,105941,6,0,P|216:230|274:235,1,100
420,243,106691,2,0,P|448:183|435:115,1,100
369,105,107253,2,0,P|314:119|214:84,1,150
199,272,108191,2,0,P|212:220|178:160,1,100
11,120,108941,6,0,P|44:209|138:227,1,200
249,84,110066,2,0,P|291:88|323:83,1,50
376,42,110441,1,0,0:0:0:0:
480,188,110816,1,0,0:0:0:0:
404,351,111191,1,0,0:0:0:0:
303,201,111566,1,0,0:0:0:0:
131,146,111941,6,0,P|77:185|38:278,2,150
208,190,113253,1,0,0:0:0:0:
130,236,113441,2,0,P|72:159|83:62,1,200
359,177,114566,1,0,0:0:0:0:
392,353,114941,6,0,P|327:359|249:304,1,150
211,49,116066,2,0,P|245:107|225:199,1,150
144,203,116816,2,0,P|150:145|161:132,1,50
78,93,117191,2,0,P|35:133|17:180,1,100
97,332,117941,6,0,B|147:337|147:337|215:317,1,100
350,233,118691,2,0,B|397:218|397:218|447:223,1,100
404,302,119253,2,0,L|392:125,1,150
243,52,120191,2,0,L|235:183,1,100
157,265,120753,6,0,P|211:233|323:230,1,150
173,355,121691,1,0,0:0:0:0:
59,215,122066,2,0,L|45:156,1,50
137,162,122441,2,0,L|139:109,1,50
216,158,122816,2,0,L|251:103,1,50
301,184,123191,2,0,L|354:165,1,50
381,250,123566,2,0,L|439:254,1,50
469,334,123941,6,0,P|445:245|510:138,1,200
345,46,125066,2,0,P|278:27|134:86,1,200
36,198,126191,1,0,0:0:0:0:
174,313,126566,1,0,0:0:0:0:
125,105,126941,6,0,L|106:316,1,200
275,239,128066,2,0,P|344:242|460:328,1,200
468,67,129191,1,0,0:0:0:0:
468,67,129566,1,0,0:0:0:0:
468,67,129941,6,0,P|399:53|353:58,1,100
295,106,130503,2,0,P|245:105|196:93,1,100
31,37,131253,1,0,0:0:0:0:
31,37,131441,2,0,L|21:162,1,100
10,316,132191,2,0,P|54:264|97:249,1,100
172,256,132753,1,0,0:0:0:0:
247,306,132941,6,0,B|304:306|340:278|340:278|314:224|341:179,1,200
461,47,134066,1,0,0:0:0:0:
372,64,134253,1,0,0:0:0:0:
289,28,134441,2,0,L|224:33,1,50
159,122,134816,2,0,P|180:108|197:91,1,50
121,42,135191,2,0,P|64:31|13:51,1,100
12,223,135941,6,0,P|68:231|106:289,1,100
253,349,136691,1,0,0:0:0:0:
323,293,136878,2,0,P|340:233|313:154,1,100
307,110,137441,2,0,P|397:109|423:93,1,100
454,30,138003,1,0,0:0:0:0:
498,108,138191,2,0,L|501:188,1,50
461,239,138566,1,0,0:0:0:0:
376,207,138753,1,0,0:0:0:0:
303,260,138941,6,0,L|299:371,1,100
128,300,139691,2,0,L|124:200,1,100
226,79,140253,1,0,0:0:0:0:
226,79,140441,2,0,L|228:140,1,50
281,201,140816,2,0,L|304:138,1,50
350,227,141191,2,0,L|345:288,1,50
397,351,141566,2,0,L|423:292,1,50
505,323,141941,6,0,P|503:280|466:231,1,100
390,194,142503,2,0,L|405:68,1,100
361,14,143066,1,0,0:0:0:0:
290,69,143253,2,0,P|221:95|132:69,1,150
20,206,144191,2,0,P|86:189|127:138,1,100
209,318,144941,6,0,P|276:332|399:264,1,200
385,95,146066,1,0,0:0:0:0:
306,50,146253,1,0,0:0:0:0:
227,94,146441,2,0,L|210:163,1,50
282,202,146816,2,0,L|292:264,1,50
346,321,147191,1,0,0:0:0:0:
346,321,147378,1,0,0:0:0:0:
346,321,147566,2,0,P|395:309|419:310,1,50
479,338,147941,5,0,0:0:0:0:
479,308,149441,5,0,0:0:0:0:
481,278,150941,5,0,0:0:0:0:
491,98,151316,2,0,P|483:60|460:30,2,50
324,167,152066,2,0,L|265:167,1,50
201,112,152441,2,0,B|130:113|130:113|82:131|82:131|-5:131,1,200
42,49,153378,1,0,0:0:0:0:
132,48,153566,2,0,L|192:47,1,50
255,99,153941,6,0,B|279:155|251:197|251:197|216:244|255:314,1,200
415,344,155066,2,0,P|403:313|377:287,1,50
319,246,155441,1,0,0:0:0:0:
314,254,155628,1,0,0:0:0:0:
284,168,155816,2,0,P|288:129|303:104,1,50
363,63,156191,1,0,0:0:0:0:
452,51,156378,1,0,0:0:0:0:
464,139,156566,1,0,0:0:0:0:
375,151,156753,1,0,0:0:0:0:
241,58,156941,6,0,P|165:49|93:81,1,150
79,164,157691,2,0,L|75:274,1,100
241,334,158441,2,0,P|214:262|145:217,1,150
239,184,159191,2,0,P|291:199|350:197,1,100
456,65,159941,6,0,P|365:50|298:133,1,200
341,299,161066,2,0,P|292:289|273:291,1,50
206,316,161441,1,0,0:0:0:0:
128,270,161628,1,0,0:0:0:0:
42,299,161816,2,0,L|48:237,1,50
94,105,162191,2,0,L|103:181,1,50
172,208,162566,1,0,0:0:0:0:
199,122,162753,1,0,0:0:0:0:
276,75,162941,6,0,P|328:65|402:80,1,100
357,240,163503,1,0,0:0:0:0:
357,240,163691,2,0,P|332:197|329:148,1,100
416,169,164253,1,0,0:0:0:0:
449,252,164441,2,0,L|447:357,1,100
278,306,165003,1,0,0:0:0:0:
278,306,165191,2,0,P|226:321|210:333,1,50
148,356,165566,2,0,P|146:318|136:294,1,50
57,337,165941,6,0,P|41:252|69:172,1,150
127,134,166691,1,0,0:0:0:0:
396,125,167253,1,0,0:0:0:0:
392,34,167441,2,0,P|454:57|484:151,1,150
474,248,168191,1,0,0:0:0:0:
474,248,168378,1,0,0:0:0:0:
474,248,168566,2,0,P|405:253|384:246,1,50
356,197,168941,6,0,P|285:173|179:187,1,150
160,251,169691,2,0,P|174:183|155:95,1,150
92,44,170441,1,0,0:0:0:0:
59,311,171003,1,0,0:0:0:0:
132,260,171191,2,0,P|157:255|182:256,1,50
249,196,171566,2,0,P|253:171|252:146,1,50
181,90,171941,6,0,P|273:109|342:74,1,150
373,14,172691,1,0,0:0:0:0:
256,257,173253,1,0,0:0:0:0:
203,183,173441,2,0,L|193:120,1,50
309,183,173816,2,0,L|319:120,1,50
210,48,174191,2,0,P|172:41|154:48,1,50
302,48,174566,2,0,P|340:41|358:48,1,50
412,109,174941,6,0,L|415:233,1,100
323,295,175503,1,0,0:0:0:0:
323,295,175691,2,0,P|326:235|346:192,1,100
163,227,176441,2,0,P|88:246|3:137,1,200
130,39,177566,1,0,0:0:0:0:
130,39,177753,1,0,0:0:0:0:
130,39,177941,6,0,L|246:40,1,100
408,63,178691,1,0,0:0:0:0:
408,63,178878,2,0,P|435:130|425:191,1,100
398,239,179441,2,0,P|401:288|424:332,1,100
484,265,180003,1,0,0:0:0:0:
307,242,180191,2,0,L|246:240,1,50
205,166,180566,2,0,L|266:164,1,50
162,234,180941,6,0,P|131:174|169:88,1,150
114,19,181691,2,0,P|63:81|52:129,1,100
281,90,182441,2,0,P|333:88|354:82,1,50
402,34,182816,1,0,0:0:0:0:
402,34,183003,1,0,0:0:0:0:
467,96,183191,2,0,L|475:222,1,100
422,269,183753,1,0,0:0:0:0:
461,350,183941,5,0,0:0:0:0:
288,297,184316,1,0,0:0:0:0:
112,336,184691,1,0,0:0:0:0:
58,263,184878,2,0,P|35:209|36:133,1,100
118,194,185441,2,0,P|178:160|212:50,1,150
133,46,186191,2,0,P|125:103|130:121,1,50
223,233,186566,1,0,0:0:0:0:
310,214,186753,1,0,0:0:0:0:
351,133,186941,6,0,P|425:162|516:68,1,200
336,52,188066,2,0,L|263:59,1,50
210,105,188441,2,0,B|160:117|160:117|88:96,2,100
286,56,189378,1,0,0:0:0:0:
340,127,189566,2,0,L|345:189,1,50
429,204,189941,6,0,L|433:86,2,100
322,348,191066,1,0,0:0:0:0:
322,348,191253,2,0,P|243:302|146:316,1,150
100,329,192003,1,0,0:0:0:0:
49,222,192191,2,0,L|43:149,1,50
135,171,192566,2,0,L|152:107,1,50
209,218,192941,6,0,P|261:182|377:187,1,150
420,225,193691,1,0,0:0:0:0:
473,53,194066,1,0,0:0:0:0:
473,53,194253,1,0,0:0:0:0:
473,53,194441,2,0,P|409:54|370:71,1,100
282,221,195191,1,0,0:0:0:0:
198,188,195378,1,0,0:0:0:0:
114,154,195566,1,0,0:0:0:0:
30,120,195753,1,0,0:0:0:0:
30,120,195941,6,0,P|8:171|29:253,1,100
181,154,196691,1,0,0:0:0:0:
181,154,196878,2,0,P|182:104|162:59,1,100
79,161,197441,2,0,P|72:196|77:229,1,50
180,272,197816,2,0,P|163:253|142:240,1,50
104,322,198191,1,0,0:0:0:0:
182,363,198379,1,0,0:0:0:0:
258,315,198566,1,0,0:0:0:0:
256,225,198754,1,0,0:0:0:0:
180,272,198941,6,0,P|212:327|307:351,1,150
363,300,199691,2,0,L|360:186,1,100
273,42,200441,2,0,P|235:88|228:151,1,100
246,214,201003,1,0,0:0:0:0:
181,277,201191,2,0,P|154:281|115:278,1,50
34,87,201566,1,0,0:0:0:0:
34,87,201753,1,0,0:0:0:0:
34,87,201941,6,0,P|96:103|152:219,1,200
398,351,203066,1,0,0:0:0:0:
398,351,203253,1,0,0:0:0:0:
308,242,203441,2,0,P|350:231|380:233,1,50
481,166,203816,2,0,P|448:136|434:110,1,50
329,53,204191,2,0,P|319:95|304:121,1,50
204,184,204566,1,0,0:0:0:0:
204,184,204753,1,0,0:0:0:0:
204,184,204941,6,0,P|165:140|150:68,1,100
93,272,205691,2,0,P|86:335|47:375,1,100
9,290,206253,1,0,0:0:0:0:
9,290,206441,2,0,L|5:171,1,100
113,46,207191,2,0,L|179:47,1,50
240,93,207566,1,0,0:0:0:0:
293,164,207753,1,0,0:0:0:0:
335,243,207941,6,0,B|255:242|255:242|214:224|214:224|138:224,1,200
71,56,209066,2,0,L|61:122,1,50
156,315,209441,1,0,0:0:0:0:
139,224,209628,1,0,0:0:0:0:
228,234,209816,2,0,P|266:230|293:213,1,50
323,148,210191,1,0,0:0:0:0:
461,126,210378,1,0,0:0:0:0:
323,148,210566,1,0,0:0:0:0:
461,126,210753,1,0,0:0:0:0:
290,56,210941,6,0,P|223:49|164:65,1,100
122,112,211503,1,0,0:0:0:0:
177,249,211691,2,0,P|185:206|180:184,1,50
100,234,212066,1,0,0:0:0:0:
100,234,212253,2,0,P|113:293|163:330,1,100
303,307,212816,2,0,P|312:275|312:243,1,50
402,248,213191,2,0,P|392:216|374:189,1,50
245,265,213566,1,0,0:0:0:0:
370,329,213753,6,0,P|429:332|464:308,1,100
487,157,214316,1,0,0:0:0:0:
487,157,214503,1,0,0:0:0:0:
487,157,214691,2,0,L|483:101,1,50
438,28,215066,1,0,0:0:0:0:
361,75,215253,2,0,P|301:84|246:68,1,100
172,173,215816,2,0,P|196:167|217:153,1,50
113,215,216191,2,0,P|163:247|183:246,1,50
241,240,216566,1,0,0:0:0:0:
241,240,216753,1,0,0:0:0:0:
365,300,216941,5,0,0:0:0:0:
186,325,217316,2,0,L|115:335,1,50
61,281,217691,2,0,P|52:244|55:222,2,50
123,216,218253,2,0,L|122:82,1,100
254,66,218816,2,0,L|241:138,1,50
293,191,219191,2,0,P|339:202|357:197,1,50
419,158,219566,1,0,0:0:0:0:
480,223,219753,2,0,L|475:335,1,100
350,335,220316,6,0,P|349:295|358:272,1,50
322,163,220691,2,0,P|285:199|257:203,1,50
167,161,221066,2,0,P|189:151|214:148,1,50
310,67,221441,2,0,P|312:42|308:17,1,50
134,30,221816,2,0,P|132:98|138:113,1,50
171,191,222191,1,0,0:0:0:0:
306,124,222378,1,0,0:0:0:0:
296,264,222566,1,0,0:0:0:0:
256,192,222753,1,0,0:0:0:0:
376,288,222941,1,0,0:0:0:0:
256,192,223128,12,0,234941,0:0:0:0:
