osu file format v14

[General]
AudioFilename: audio.mp3
AudioLeadIn: 0
PreviewTime: 64119
Countdown: 0
SampleSet: Soft
StackLeniency: 0.3
Mode: 0
LetterboxInBreaks: 0
WidescreenStoryboard: 1

[Editor]
Bookmarks: 17363,36560,55757,65356,84552,94752,113949,133146,152343,171541,181139,185939,190738,195537,200337
DistanceSpacing: 1
BeatDivisor: 6
GridSize: 32
TimelineZoom: 1.5

[Metadata]
Title:MARCH
TitleUnicode:MARCH
Artist:Miracle Chimpanzee
ArtistUnicode:ミラクルチンパンジー
Creator:Flask
Version:alevi's Insane
Source:映画「佐々木と宮野―卒業編―」
Tags:sasamiya eiga sasaki to miyano sotsugyou hen and miyano: Graduation graduate anime movie jpop pop j-pop 佐々木 秀鳴 shyuumei shuumei 宮野 由美 yoshikazu 平野 大河 hirano taiga 鍵浦 昭 kagiura akira 大西洋平 澁江夏奈 mirakuru chinpanji alevi japanese bl boys boys' love 少年愛 shounen shonen shōnen ai
BeatmapID:4168432
BeatmapSetID:1941054

[Difficulty]
HPDrainRate:4.8
CircleSize:3.9
OverallDifficulty:7.8
ApproachRate:8.8
SliderMultiplier:2.5
SliderTickRate:1

[Events]
//Background and Video events
0,0,"kv2 (1).jpg",0,0
//Break Periods
2,15662,16733
2,114149,131617
//Storyboard Layer 0 (Background)
//Storyboard Layer 1 (Fail)
//Storyboard Layer 2 (Pass)
//Storyboard Layer 3 (Foreground)
//Storyboard Layer 4 (Overlay)
//Storyboard Sound Samples

[TimingPoints]
2965,599.916011758354,4,2,1,40,1,0
5364,-166.666666666667,4,2,1,40,0,0
13463,-285.714285714286,4,2,1,40,0,0
13513,-200,4,2,1,5,0,0
17362,-125,4,2,2,50,0,0
36560,-142.857142857143,4,2,2,50,0,0
37460,-250,4,2,2,50,0,0
38959,-142.857142857143,4,2,2,50,0,0
42259,-250.000000000001,4,2,2,50,0,0
43759,-142.857142857143,4,2,2,50,0,0
47058,-250.000000000001,4,2,2,50,0,0
48558,-142.857142857143,4,2,2,50,0,0
55607,-142.857142857143,4,2,1,60,0,0
55757,-111.111111111111,4,2,1,60,0,0
64156,-333.333333333332,4,2,1,50,0,0
65356,-66.6666666666667,4,2,1,75,0,0
67455,-90.9090909090909,4,2,1,75,0,0
67755,-66.6666666666667,4,2,1,75,0,0
72255,-90.9090909090909,4,2,1,75,0,0
72555,-66.6666666666667,4,2,1,75,0,0
74654,-90.9090909090909,4,2,1,75,0,0
74954,-66.6666666666667,4,2,1,75,0,0
81853,-90.9090909090909,4,2,1,75,0,0
83353,-66.6666666666667,4,2,1,75,0,0
91452,-90.9090909090909,4,2,1,75,0,0
92652,-66.6666666666667,4,2,1,75,0,0
94152,-66.6666666666667,4,2,1,80,0,0
94752,599.916011758354,4,2,1,60,1,0
94752,-111.111111111111,4,2,1,60,0,0
113949,-100,4,2,1,50,0,0
131646,-100,4,2,1,60,0,0
133146,-111.111111111111,4,2,1,60,0,0
142744,-100,4,2,1,70,0,0
147543,-100,4,2,1,60,0,0
148144,-100,4,2,1,65,0,0
148744,-100,4,2,1,75,0,0
149344,-100,4,2,1,85,0,0
149944,-100,4,2,1,60,0,0
151143,-500,4,2,1,60,0,0
152343,-62.5,4,2,1,85,0,0
159242,-90.9090909090909,4,2,1,85,0,0
159542,-90.9090909090909,4,2,1,85,0,0
160442,-62.5,4,2,1,85,0,0
161642,-90.9090909090909,4,2,1,85,0,0
161942,-62.5,4,2,1,85,0,0
166441,-90.9090909090909,4,2,1,85,0,0
166741,-62.5,4,2,1,85,0,0
168841,-90.9090909090909,4,2,1,85,0,0
170041,-62.5,4,2,1,85,0,0
171541,-66.6666666666667,4,2,1,85,0,0
178440,-90.9090909090909,4,2,1,85,0,0
178740,-66.6666666666667,4,2,1,85,0,0
181139,-71.4285714285714,4,2,1,85,0,0
190738,-83.3333333333333,4,2,1,85,0,0
199737,-100,4,2,1,70,0,0
200037,-100,4,2,1,55,0,0
200337,-250,4,2,1,40,0,0
202836,-100,4,2,1,80,0,0
202936,-100,4,2,1,5,0,0

[Colours]
Combo1 : 45,187,255
Combo2 : 173,255,91
Combo3 : 255,255,89
Combo4 : 255,149,149
Combo5 : 255,179,102

[HitObjects]
317,0,4164,5,0,0:0:0:0:
358,66,4764,1,0,0:0:0:0:
308,124,5364,2,0,L|324:212,1,74.9999977111817,2|0,0:0|0:0,0:0:0:0:
393,231,5814,1,2,0:0:0:0:
384,335,6164,1,2,0:0:0:0:
282,321,6464,6,0,P|229:327|176:364,1,99.9999969482423,2|2,0:0|0:0,0:0:0:0:
162,193,7164,2,0,P|182:220|219:238,1,74.9999977111817,2|2,0:0|0:0,0:0:0:0:
14,381,7764,6,0,B|9:362|9:362|26:305,1,74.9999977111817,2|0,0:0|0:0,0:0:0:0:
89,224,8264,2,0,L|69:147,1,74.9999977111817,2|2,0:0|0:0,0:0:0:0:
144,289,8864,2,0,L|223:314,2,74.9999977111817,2|2|2,0:0|0:0|0:0,0:0:0:0:
375,169,10163,6,0,L|466:152,1,74.9999977111817,2|2,0:0|0:0,0:0:0:0:
499,90,10663,2,0,P|506:47|464:17,1,74.9999977111817,2|2,0:0|0:0,0:0:0:0:
281,130,11263,2,0,P|293:178|304:235,1,99.9999969482423,2|2,0:0|0:0,0:0:0:0:
474,380,11963,1,2,0:0:0:0:
358,308,12263,1,2,0:0:0:0:
512,291,12563,6,0,L|410:310,1,74.9999977111817,2|2,0:0|0:0,0:0:0:0:
267,367,13163,1,2,0:0:0:0:
267,367,13463,2,0,B|215:301|259:233|311:262|359:185|300:108,1,291.666657765707,2|0,0:0|0:0,0:0:0:0:
512,36,17362,6,0,P|424:39|385:135,1,200,2|8,3:2|0:0,0:0:0:0:
333,192,18162,2,0,P|312:197|263:209,1,66.6666666666667
187,123,18462,2,0,P|126:111|65:98,1,100
18,142,18862,1,0,3:0:0:0:
135,331,19162,1,0,0:0:0:0:
63,347,19362,2,0,P|50:303|93:270,1,100
131,208,19762,5,2,3:2:0:0:
334,384,20362,2,0,P|339:349|346:300,1,66.6666666666667,8|0,0:0|0:0,0:0:0:0:
268,294,20662,2,0,P|263:259|256:210,1,66.6666666666667,2|0,0:0|0:0,0:0:0:0:
322,179,20962,2,0,P|367:171|430:160,1,100,0|0,0:0|3:0,0:0:0:0:
216,64,21562,1,0,0:0:0:0:
152,111,21762,2,0,P|103:101|87:54,1,100
32,0,22162,5,2,3:2:0:0:
217,179,22762,2,0,P|266:169|282:122,1,100,8|2,0:0|0:0,0:0:0:0:
264,257,23262,2,0,P|313:266|368:288,1,100
359,283,23662,1,0,3:0:0:0:
505,182,23962,2,0,P|454:195|442:254,1,100
194,384,24561,6,0,B|105:359|158:310|48:292,1,166.666666666667,2|0,3:2|0:0,0:0:0:0:
60,294,25161,1,8,0:0:0:0:
211,299,25461,2,0,B|310:271|251:216|373:196,1,200,2|0,0:0|3:0,0:0:0:0:
134,34,26661,1,0,0:0:0:0:
134,34,26961,6,0,P|149:94|165:203,1,166.666666666667,2|0,3:2|0:0,0:0:0:0:
253,292,27561,2,0,P|287:282|299:236,1,66.6666666666667,8|0,0:0|0:0,0:0:0:0:
378,252,27861,2,0,P|386:217|352:184,1,66.6666666666667,2|0,0:0|0:0,0:0:0:0:
326,129,28161,2,0,P|274:120|222:97,2,100,0|0|0,0:0|3:0|0:0,0:0:0:0:
475,93,28961,2,0,P|494:55|507:-7,1,100
419,175,29361,6,0,B|437:264|485:210|499:315,1,166.666666666667,2|0,3:2|0:0,0:0:0:0:
498,314,29961,1,8,0:0:0:0:
349,285,30261,2,0,P|315:289|296:320,1,66.6666666666667,2|0,0:0|0:0,0:0:0:0:
238,367,30561,2,0,P|193:350|132:340,1,100,0|0,0:0|3:0,0:0:0:0:
38,152,31161,1,0,0:0:0:0:
3,239,31361,2,0,P|52:230|98:212,1,100
249,235,31760,6,0,P|279:172|211:122,1,166.666666666667,2|0,3:2|0:0,0:0:0:0:
141,84,32360,2,0,P|121:60|126:18,1,66.6666666666667,8|0,0:0|0:0,0:0:0:0:
196,0,32660,1,2,0:0:0:0:
196,0,32960,2,0,P|241:17|309:25,1,100,0|0,0:0|3:0,0:0:0:0:
364,111,33460,1,0,0:0:0:0:
512,5,33860,1,0,0:0:0:0:
425,171,34160,6,0,B|440:253|377:224|395:316,2,150,2|0|2,3:2|0:0|0:0,0:0:0:0:
249,376,35660,1,0,3:0:0:0:
249,376,35960,2,0,P|225:338|173:329,1,100,0|2,0:0|0:0,0:0:0:0:
55,378,36560,6,0,P|0:349|17:272,1,145.833328882853,2|2,0:0|0:0,0:0:0:0:
12,275,37160,1,8,0:0:0:0:
143,205,37460,2,0,P|207:206|242:135,1,150,2|0,0:0|0:0,0:0:0:0:
242,136,38959,6,0,P|230:87|225:35,1,87.499997329712,2|2,0:0|0:0,0:0:0:0:
339,153,39559,1,8,0:0:0:0:
234,248,39859,1,2,0:0:0:0:
299,288,40159,2,0,P|311:337|316:389,1,87.499997329712,2|0,0:0|0:0,0:0:0:0:
455,204,40759,2,0,P|407:210|379:247,1,87.499997329712,2|0,0:0|0:0,0:0:0:0:
174,162,41359,6,0,P|102:149|34:122,1,145.833328882853,2|2,0:0|0:0,0:0:0:0:
34,122,41959,1,8,0:0:0:0:
245,119,42259,2,0,P|301:79|283:3,1,150,2|0,0:0|0:0,0:0:0:0:
4,230,43759,6,0,B|25:330|73:270|86:386,1,174.999994659424,2|8,0:0|0:0,0:0:0:0:
298,238,44659,1,2,0:0:0:0:
371,360,45559,5,2,0:0:0:0:
223,281,45858,1,2,0:0:0:0:
451,320,46158,6,0,P|437:246|425:168,1,145.833328882853,2|2,0:0|0:0,0:0:0:0:
426,176,46758,1,8,0:0:0:0:
301,45,47058,2,0,P|240:51|226:133,1,150,2|0,0:0|0:0,0:0:0:0:
222,127,48558,6,0,P|172:133|120:158,1,87.499997329712,2|0,0:0|0:0,0:0:0:0:
0,226,49158,1,8,0:0:0:0:
113,306,49458,1,2,0:0:0:0:
143,376,49758,2,0,P|183:360|227:356,1,87.499997329712,2|0,0:0|0:0,0:0:0:0:
400,260,50358,2,0,P|434:274|443:321,1,87.499997329712,2|0,0:0|0:0,0:0:0:0:
270,287,50958,6,0,P|258:209|239:141,1,145.833328882853,2|2,0:0|0:0,0:0:0:0:
240,144,51558,1,8,0:0:0:0:
433,186,51858,2,0,P|445:108|464:40,1,145.833328882853,2|0,0:0|0:0,0:0:0:0:
462,43,52458,1,2,0:0:0:0:
322,0,52758,2,0,P|287:15|227:24,1,87.499997329712,2|2,0:0|0:0,0:0:0:0:
139,135,53357,6,0,P|71:106|-9:92,1,145.833328882853,2|0,0:0|0:0,0:0:0:0:
0,92,53957,1,8,0:0:0:0:
256,192,54257,1,2,0:0:0:0:
256,192,55457,2,0,L|251:215,3,21.874999332428,0|0|4|4,0:0|0:0|0:3|0:3,0:0:0:0:
173,244,55757,6,0,P|190:292|196:367,1,112.499996566773,10|0,0:0|0:0,0:0:0:0:
344,330,56207,1,8,0:0:0:0:
344,330,56357,2,0,P|334:358|331:401,1,56.2499982833863,2|0,0:0|0:0,0:0:0:0:
497,313,56657,2,0,P|464:267|404:268,1,112.499996566773,8|0,0:0|0:0,0:0:0:0:
512,123,57107,2,0,P|491:134|458:138,1,56.2499982833863,8|0,0:0|0:0,0:0:0:0:
301,27,57407,1,0,0:0:0:0:
301,27,57557,2,0,P|350:31|386:92,1,112.499996566773,8|4,0:0|0:3,0:0:0:0:
322,121,57932,2,0,P|318:132|314:152,2,28.1249991416931,4|4|4,0:3|0:3|0:3,0:0:0:0:
366,211,58157,5,10,0:0:0:0:
236,151,58307,2,0,P|206:156|175:173,1,56.2499982833863,2|0,0:0|0:0,0:0:0:0:
45,92,58607,2,0,P|1:62|4:7,1,112.499996566773,8|2,0:0|0:0,0:0:0:0:
104,145,59057,2,0,P|95:170|91:213,1,56.2499982833863,8|2,0:0|0:0,0:0:0:0:
0,298,59357,1,0,0:0:0:0:
0,298,59507,2,0,P|26:287|53:282,1,56.2499982833863,10|2,0:0|0:0,0:0:0:0:
193,377,59807,1,2,0:0:0:0:
193,377,59957,2,0,P|237:347|234:292,1,112.499996566773,10|2,0:0|0:0,0:0:0:0:
281,226,60331,2,0,P|276:209|274:189,2,28.1249991416931,0|4|4,0:0|0:3|0:3,0:0:0:0:
197,168,60556,6,0,P|213:116|218:55,1,112.499996566773,10|2,0:0|0:0,0:0:0:0:
320,0,61006,1,8,0:0:0:0:
320,0,61156,2,0,P|339:17|340:54,1,56.2499982833863,2|0,0:0|0:0,0:0:0:0:
398,173,61456,2,0,P|453:180|514:207,1,112.499996566773,8|0,0:0|0:0,0:0:0:0:
512,83,61906,2,0,P|488:92|454:98,1,56.2499982833863,8|0,0:0|0:0,0:0:0:0:
363,252,62206,1,0,0:0:0:0:
363,252,62356,2,0,B|376:314|407:283|417:362,1,112.499996566773,8|0,0:0|0:0,0:0:0:0:
488,384,62806,2,0,P|492:367|497:340,2,28.1249991416931,0|0|2,0:0|0:0|0:0,0:0:0:0:
256,192,63556,5,2,0:0:0:0:
256,192,64156,2,0,P|251:151|246:110,1,74.9999977111817,2|2,0:0|0:0,0:0:0:0:
475,191,65356,6,0,B|468:262|430:230|421:309,1,125.000004768372,4|0,3:2|0:0,0:0:0:0:
422,300,65656,1,2,1:2:0:0:
253,384,65856,1,0,0:0:0:0:
185,356,65956,2,0,P|168:334|171:294,1,62.5000023841859,8|0,0:0|0:0,0:0:0:0:
250,182,66156,2,0,P|308:200|373:213,1,125.000004768372,2|0,0:0|0:0,0:0:0:0:
188,121,66456,1,0,3:2:0:0:
188,121,66556,6,0,P|129:139|65:152,1,125.000004768372,0|0,3:0|0:0,0:0:0:0:
234,4,66856,2,0,P|278:29|260:108,1,125.000004768372,2|0,3:2|0:0,0:0:0:0:
163,233,67156,1,8,0:0:0:0:
163,233,67455,2,0,P|180:271|187:321,1,91.6666694641114,2|2,1:2|1:2,0:0:0:0:
0,357,67755,6,0,P|40:313|117:314,1,125.000004768372,2|0,3:2|0:0,0:0:0:0:
102,307,68055,1,2,1:2:0:0:
300,240,68255,1,2,1:2:0:0:
366,287,68355,2,0,P|382:265|380:226,1,62.5000023841859,8|0,0:0|0:0,0:0:0:0:
246,179,68555,2,0,P|203:132|218:73,1,125.000004768372,2|0,3:2|0:0,0:0:0:0:
367,13,68855,1,2,3:2:0:0:
367,13,68955,6,0,P|346:66|337:143,1,125.000004768372,0|2,3:0|0:0,0:0:0:0:
216,261,69255,2,0,P|162:272|87:320,1,125.000004768372,0|2,3:0|0:0,0:0:0:0:
0,147,69555,2,0,P|53:178|114:192,1,125.000004768372,8|0,0:0|0:0,0:0:0:0:
114,192,69855,1,0,1:0:0:0:
417,377,70155,6,0,B|410:306|372:338|363:259,1,125.000004768372,2|0,3:2|0:0,0:0:0:0:
364,267,70455,1,2,1:2:0:0:
453,77,70655,1,0,0:0:0:0:
512,126,70755,2,0,P|488:145|448:149,1,62.5000023841859,8|0,0:0|0:0,0:0:0:0:
319,199,70955,2,0,P|269:174|192:161,1,125.000004768372,2|0,0:0|0:0,0:0:0:0:
43,58,71255,1,0,3:2:0:0:
43,58,71355,6,0,P|103:60|139:116,1,125.000004768372,0|0,3:0|0:0,0:0:0:0:
64,299,71655,2,0,B|71:228|109:260|118:181,1,125.000004768372,2|0,3:2|0:0,0:0:0:0:
0,229,71955,1,8,0:0:0:0:
178,384,72255,2,0,P|172:340|164:287,1,91.6666694641114,2|2,1:2|1:2,0:0:0:0:
319,199,72555,6,0,P|401:184|505:162,2,187.500007152558,2|2|8,3:2|1:2|0:0,0:0:0:0:
147,14,73455,1,2,1:2:0:0:
302,117,73655,1,0,3:0:0:0:
302,117,73755,6,0,P|245:137|244:207,1,125.000004768372,0|2,3:0|1:2,0:0:0:0:
116,317,74055,2,0,P|52:328|-3:358,1,125.000004768372,2|0,3:2|0:0,0:0:0:0:
175,253,74355,1,8,0:0:0:0:
31,162,74654,2,0,P|66:179|125:191,1,91.6666694641114,2|0,1:1|0:0,0:0:0:0:
247,304,74954,6,0,P|308:311|347:374,1,125.000004768372,2|0,3:2|0:0,0:0:0:0:
344,358,75254,1,2,1:2:0:0:
499,230,75454,1,2,0:0:0:0:
422,192,75554,2,0,P|416:166|409:130,1,62.5000023841859,8|0,0:0|0:0,0:0:0:0:
512,12,75754,2,0,P|502:76|494:140,1,125.000004768372,2|0,0:0|0:0,0:0:0:0:
335,206,76054,1,0,3:2:0:0:
335,206,76154,6,0,B|267:196|298:159|231:141,1,125.000004768372,0|0,3:0|1:0,0:0:0:0:
117,31,76454,2,0,P|63:46|69:121,1,125.000004768372,2|0,3:2|0:0,0:0:0:0:
0,185,76754,2,0,P|66:196|124:233,1,125.000004768372,8|0,0:0|0:0,0:0:0:0:
115,225,77054,1,2,0:2:0:0:
79,384,77354,6,0,P|132:353|194:343,1,125.000004768372,2|0,3:2|0:0,0:0:0:0:
194,343,77654,1,2,1:2:0:0:
352,235,77854,1,2,0:0:0:0:
289,187,77954,2,0,P|275:203|270:244,1,62.5000023841859,8|0,0:0|0:0,0:0:0:0:
424,373,78154,2,0,P|396:326|320:317,1,125.000004768372
184,198,78454,1,0,3:2:0:0:
184,198,78554,6,0,P|174:134|164:69,1,125.000004768372,0|2,3:0|0:0,0:0:0:0:
313,0,78854,2,0,P|285:54|252:119,1,125.000004768372,0|0,3:0|0:0,0:0:0:0:
383,70,79154,2,0,P|447:58|513:47,1,125.000004768372,8|0,0:0|0:0,0:0:0:0:
506,48,79454,1,0,1:0:0:0:
299,197,79754,6,0,B|290:267|339:236|330:318,1,125.000004768372,2|0,3:2|0:0,0:0:0:0:
331,313,80054,1,2,1:2:0:0:
510,370,80254,1,2,0:0:0:0:
471,301,80354,2,0,P|441:306|408:332,1,62.5000023841859,8|0,0:0|0:0,0:0:0:0:
280,382,80554,2,0,P|228:356|148:339,1,125.000004768372
25,264,80854,1,0,3:2:0:0:
25,264,80954,6,0,P|61:315|73:391,1,125.000004768372,0|0,3:0|0:0,0:0:0:0:
131,250,81254,2,0,P|157:193|216:144,1,125.000004768372,2|0,3:2|0:0,0:0:0:0:
270,201,81553,1,8,0:0:0:0:
85,94,81853,2,0,P|39:87|0:64,1,91.6666694641114,2|2,1:2|0:0,0:0:0:0:
244,9,82153,6,0,P|294:40|270:115,2,137.500004196167,2|2|8,3:2|1:2|0:0,0:0:0:0:
416,229,83053,1,2,1:2:0:0:
317,302,83253,1,0,3:0:0:0:
317,302,83353,6,0,P|327:241|337:178,1,125.000004768372,0|2,3:0|1:2,0:0:0:0:
498,57,83653,2,0,P|440:78|380:101,1,125.000004768372,2|0,3:2|0:0,0:0:0:0:
236,198,83953,2,0,P|225:138|212:73,1,125.000004768372,8|0,0:0|0:0,0:0:0:0:
212,75,84253,1,2,1:1:0:0:
5,384,84553,6,0,P|36:337|105:329,1,125.000004768372,4|0,3:2|0:0,0:0:0:0:
100,327,84853,1,2,1:2:0:0:
282,362,85053,1,2,0:2:0:0:
207,384,85153,2,0,P|200:318|191:254,1,125.000004768372,8|0,0:0|0:0,0:0:0:0:
191,259,85453,1,2,1:2:0:0:
371,135,85653,1,0,3:0:0:0:
371,135,85753,6,0,B|364:206|326:174|317:253,1,125.000004768372,2|0,3:2|0:0,0:0:0:0:
170,179,86053,2,0,P|101:164|27:148,1,125.000004768372,2|2,3:2|0:0,0:0:0:0:
177,18,86353,2,0,P|217:36|216:119,1,125.000004768372,8|0,0:0|0:0,0:0:0:0:
223,109,86653,1,2,1:2:0:0:
446,368,86953,6,0,P|463:301|434:363,2,187.500007152558,2|2|8,3:2|1:2|0:0,0:0:0:0:
240,201,87853,1,2,1:2:0:0:
333,303,88053,1,0,3:0:0:0:
333,303,88153,2,0,P|268:314|198:329,1,125.000004768372,0|0,3:0|1:0,0:0:0:0:
210,326,88453,5,2,3:2:0:0:
109,232,88603,5,2,0:0:0:0:
19,297,88752,5,10,0:0:0:0:
72,384,88902,5,2,0:0:0:0:
128,328,89052,5,2,1:1:0:0:
0,141,89352,6,0,P|61:130|122:117,1,125.000004768372,2|0,3:2|0:0,0:0:0:0:
122,117,89652,1,2,1:2:0:0:
274,7,89852,1,2,0:0:0:0:
198,39,89952,2,0,P|256:48|285:118,1,125.000004768372,8|0,0:0|0:0,0:0:0:0:
359,126,90252,2,0,P|356:161|330:184,1,62.5000023841859,2|0,1:2|0:0,0:0:0:0:
264,263,90452,1,0,3:0:0:0:
264,263,90552,6,0,P|201:273|132:299,1,125.000004768372,2|0,3:2|0:0,0:0:0:0:
84,384,90852,2,0,P|61:325|26:274,1,125.000004768372,2|2,3:2|0:0,0:0:0:0:
26,274,91152,1,8,0:0:0:0:
242,175,91452,2,0,P|251:130|266:84,1,91.6666694641114,2|0,1:2|1:0,0:0:0:0:
116,97,91752,6,0,B|41:82|80:40|-3:25,2,137.500004196167,2|2|8,3:2|1:2|0:0,0:0:0:0:
271,256,92652,2,0,P|325:267|393:299,1,125.000004768372,2|0,1:2|3:0,0:0:0:0:
436,361,92952,6,0,P|487:327|474:266,1,125.000004768372,0|0,3:0|0:0,0:0:0:0:
347,183,93252,2,0,P|339:124|389:92,1,125.000004768372,2|0,3:2|0:0,0:0:0:0:
462,120,93552,1,10,0:0:0:0:
256,0,93752,1,0,0:0:0:0:
256,0,93852,1,2,0:1:0:0:
256,0,94752,6,0,P|247:61|239:128,1,112.499996566773,4|0,3:2|0:0,0:0:0:0:
240,111,95351,2,0,P|285:117|319:182,1,112.499996566773,10|2,0:2|0:0,0:0:0:0:
229,261,95851,1,0,0:0:0:0:
229,261,95951,2,0,P|175:271|120:301,2,112.499996566773,2|2|10,1:2|3:2|0:2,0:0:0:0:
371,344,96751,2,0,P|411:319|408:255,1,112.499996566773,0|2,0:0|0:0,0:0:0:0:
347,208,97151,6,0,B|354:147|389:177|399:109,1,112.499996566773,2|0,3:2|1:0,0:0:0:0:
494,10,97751,2,0,P|456:25|395:34,1,74.9999977111817,10|2,0:2|0:0,0:0:0:0:
329,69,98051,2,0,P|291:54|230:45,1,74.9999977111817,2|8,0:0|0:0,0:0:0:0:
257,46,98351,1,2,1:2:0:0:
103,2,98551,1,0,3:0:0:0:
103,2,98651,2,0,P|115:34|127:91,1,74.9999977111817,2|0,3:2|0:0,0:0:0:0:
223,160,98951,2,0,P|204:209|196:276,1,112.499996566773,10|2,0:2|1:0,0:0:0:0:
42,360,99451,1,0,0:0:0:0:
42,360,99551,6,0,P|71:319|132:315,1,112.499996566773,2|0,3:2|1:2,0:0:0:0:
282,231,100151,2,0,P|324:248|344:323,1,112.499996566773,10|2,0:2|1:2,0:0:0:0:
236,384,100651,1,0,0:0:0:0:
236,384,100751,2,0,P|230:341|224:292,1,74.9999977111817,2|0,1:2|0:0,0:0:0:0:
126,176,101051,2,0,P|121:213|117:251,1,74.9999977111817,2|2,3:2|0:0,0:0:0:0:
117,250,101351,1,10,0:2:0:0:
202,124,101551,1,2,0:0:0:0:
202,124,101651,2,0,P|241:116|282:107,1,74.9999977111817,2|0,1:2|0:0,0:0:0:0:
119,87,101950,6,0,P|55:70|1:55,2,112.499996566773,2|0|10,3:2|1:0|0:2,0:0:0:0:
291,282,102850,2,0,P|287:264|282:240,1,37.4999988555909,2|0,3:2|0:0,0:0:0:0:
338,187,103050,2,0,P|397:173|457:160,1,112.499996566773,0|0,3:0|3:0,0:0:0:0:
447,161,103450,1,2,3:2:0:0:
512,0,103750,2,0,P|477:12|465:53,1,74.9999977111817,10|2,0:2|0:0,0:0:0:0:
463,45,104050,1,2,1:1:0:0:
294,119,104350,6,0,P|249:88|250:35,1,112.499996566773,2|0,3:2|1:0,0:0:0:0:
237,184,104950,2,0,P|196:192|148:210,1,74.9999977111817,10|0,0:2|0:0,0:0:0:0:
29,125,105250,2,0,P|64:136|101:143,1,74.9999977111817,2|0,0:0|0:0,0:0:0:0:
112,306,105550,2,0,P|73:284|91:217,1,112.499996566773,2|2,1:2|3:2,0:0:0:0:
174,377,106050,1,0,0:0:0:0:
174,377,106150,2,0,P|221:369|245:310,1,112.499996566773,10|2,0:2|1:2,0:0:0:0:
386,222,106650,1,2,3:2:0:0:
386,222,106750,6,0,P|438:237|499:246,2,112.499996566773,2|0|10,3:2|1:0|0:2,0:0:0:0:
241,153,107550,1,0,0:0:0:0:
241,153,107650,2,0,P|235:114|228:68,1,74.9999977111817,2|0,0:0|3:0,0:0:0:0:
157,37,107950,2,0,P|105:54|36:62,1,112.499996566773,2|2,1:2|3:2,0:0:0:0:
0,233,108550,1,10,0:2:0:0:
109,136,108750,2,0,B|121:192|152:163|162:232,1,112.499996566773,2|0,3:2|3:0,0:0:0:0:
270,315,109149,6,0,P|319:325|381:351,2,112.499996566773,2|0|10,3:2|1:2|0:2,0:0:0:0:
244,239,110049,1,2,1:2:0:0:
388,178,110249,1,0,0:0:0:0:
388,178,110349,2,0,P|397:142|405:93,1,74.9999977111817,2|0,1:2|0:0,0:0:0:0:
304,13,110649,2,0,P|313:49|321:98,1,74.9999977111817,2|2,3:2|0:0,0:0:0:0:
477,68,110949,2,0,P|450:26|382:26,1,112.499996566773,10|2,0:2|1:2,0:0:0:0:
261,166,111549,6,0,P|201:173|142:201,1,112.499996566773,2|0,3:2|1:0,0:0:0:0:
33,94,112049,1,0,3:0:0:0:
33,94,112149,2,0,P|65:105|79:151,1,74.9999977111817,10|0,0:2|0:0,0:0:0:0:
80,140,112449,1,2,3:2:0:0:
56,334,112649,2,0,P|72:273|85:218,1,112.499996566773,8|0,0:0|3:0,0:0:0:0:
152,298,113049,2,0,P|171:329|201:382,1,74.9999977111817,2|0,3:2|3:2,0:0:0:0:
255,304,113349,2,0,P|305:297|374:288,1,112.499996566773,14|4,3:2|3:0,0:0:0:0:
256,192,113949,5,4,0:0:0:0:
489,19,132246,5,2,0:0:0:0:
414,39,132546,1,2,1:2:0:0:
349,117,132846,1,2,1:2:0:0:
321,189,133146,6,0,P|338:241|344:314,1,112.499996566773,12|0,0:0|0:0,0:0:0:0:
492,325,133595,2,0,P|442:329|407:378,1,112.499996566773,8|0,0:0|0:0,0:0:0:0:
267,366,134045,2,0,P|298:378|341:384,1,56.2499982833863,8|0,0:0|0:0,0:0:0:0:
206,307,134345,1,0,0:0:0:0:
206,307,134495,2,0,P|164:270|171:210,1,112.499996566773,8|0,0:0|0:0,0:0:0:0:
289,150,134945,2,0,P|314:136|325:104,1,56.2499982833863,8|0,0:0|0:0,0:0:0:0:
228,0,135245,2,0,P|232:27|238:55,1,56.2499982833863,4|4,0:3|0:3,0:0:0:0:
114,143,135545,6,0,P|59:149|-1:175,1,112.499996566773,8|0,0:0|3:0,0:0:0:0:
107,51,135995,2,0,P|124:62|175:72,1,56.2499982833863,8|0,0:0|0:0,0:0:0:0:
289,150,136295,1,0,0:0:0:0:
289,150,136445,2,0,P|331:129|409:121,1,112.499996566773,8|0,0:0|0:0,0:0:0:0:
505,248,136895,1,8,0:0:0:0:
426,248,137045,2,0,P|409:229|405:196,1,56.2499982833863,2|0,0:0|0:0,0:0:0:0:
491,56,137345,2,0,P|484:80|478:125,1,56.2499982833863,10|0,0:0|0:0,0:0:0:0:
365,20,137644,2,0,P|336:12|311:-1,1,56.2499982833863,0|4,3:0|0:3,0:0:0:0:
188,98,137944,6,0,P|144:121|151:187,1,112.499996566773,0|0,3:0|3:0,0:0:0:0:
263,249,138394,2,0,P|244:224|206:214,1,56.2499982833863,8|0,0:0|0:0,0:0:0:0:
44,290,138694,1,0,0:0:0:0:
44,290,138844,2,0,P|83:273|164:259,1,112.499996566773,8|0,0:0|0:0,0:0:0:0:
151,259,139294,1,0,3:0:0:0:
216,311,139444,1,2,3:2:0:0:
262,384,139594,1,10,0:2:0:0:
371,367,139744,2,0,P|399:362|436:348,1,56.2499982833863,10|2,0:2|0:0,0:0:0:0:
504,240,140044,2,0,P|491:262|486:300,1,56.2499982833863,0|0,3:0|3:0,0:0:0:0:
346,211,140344,6,0,P|338:152|317:94,1,112.499996566773,10|2,0:0|0:0,0:0:0:0:
407,0,140794,1,8,0:0:0:0:
466,68,140944,2,0,P|439:71|411:83,1,56.2499982833863,2|2,0:0|0:0,0:0:0:0:
246,142,141244,2,0,P|198:114|205:54,1,112.499996566773,8|0,0:0|1:0,0:0:0:0:
134,0,141694,2,0,P|120:22|117:57,1,56.2499982833863,8|2,0:0|0:0,0:0:0:0:
43,172,141994,1,2,0:0:0:0:
43,172,142144,2,0,P|26:152|22:112,1,56.2499982833863,8|2,0:0|0:0,0:0:0:0:
104,235,142444,2,0,P|126:239|167:261,1,56.2499982833863,2|8,3:2|0:0,0:0:0:0:
0,382,142744,6,0,B|68:366|31:331|123:320,1,125,4|0,3:2|0:0,0:0:0:0:
293,228,143194,1,2,3:2:0:0:
204,142,143344,2,0,P|211:164|218:212,1,62.5,10|0,0:2|0:0,0:0:0:0:
321,303,143644,2,0,P|375:314|442:340,1,125,2|0,3:2|1:0,0:0:0:0:
505,225,144094,1,10,0:0:0:0:
505,225,144244,2,0,P|479:237|433:244,1,62.5,8|0,0:0|0:0,0:0:0:0:
330,182,144544,1,8,0:0:0:0:
295,108,144694,1,2,0:0:0:0:
358,66,144843,1,2,0:0:0:0:
397,138,144993,1,0,3:0:0:0:
232,50,145143,6,0,P|170:61|96:74,1,125,2|0,3:2|1:0,0:0:0:0:
120,237,145593,1,10,0:0:0:0:
5,162,145743,2,0,P|31:168|83:181,1,62.5,10|0,0:0|0:0,0:0:0:0:
263,235,146043,1,2,3:2:0:0:
196,277,146193,2,0,B|187:340|146:316|139:388,1,125,2|8,0:0|0:0,0:0:0:0:
139,384,146643,1,2,0:0:0:0:
348,214,146943,2,0,P|342:179|337:146,1,62.5,10|0,0:0|0:0,0:0:0:0:
217,88,147243,2,0,P|223:53|228:20,1,62.5,2|0,0:0|3:0,0:0:0:0:
390,89,147543,6,0,P|453:101|526:116,2,125,2|0|0,3:2|3:0|3:0,0:0:0:0:
195,253,148443,2,0,P|163:260|113:270,1,62.5,8|8,0:0|0:0,0:0:0:0:
373,384,148743,5,8,0:0:0:0:
311,332,148893,1,8,0:0:0:0:
424,269,149043,2,0,P|451:265|495:257,1,62.5,8|8,0:0|0:0,0:0:0:0:
271,115,149343,5,8,0:0:0:0:
344,257,149493,1,8,0:0:0:0:
186,129,149643,5,8,0:0:0:0:
383,191,149793,1,8,0:0:0:0:
97,266,149943,5,2,0:0:0:0:
97,266,151143,2,0,P|83:250|80:221,1,50,0|8,0:0|0:0,0:0:0:0:
0,384,152343,6,0,P|52:363|142:351,1,133.333333333333,4|0,3:2|0:0,0:0:0:0:
128,351,152643,1,2,1:2:0:0:
299,240,152843,1,0,0:0:0:0:
243,175,152943,2,0,P|225:197|223:239,1,66.6666666666667,8|0,0:0|0:0,0:0:0:0:
323,321,153143,2,0,P|410:338|514:386,1,200,2|0,0:0|3:2,0:0:0:0:
512,263,153543,6,0,P|491:203|486:125,1,133.333333333333,0|0,3:0|0:0,0:0:0:0:
485,133,153843,1,2,3:2:0:0:
243,175,154143,2,0,B|176:186|203:228|126:247,1,133.333333333333,8|0,0:0|0:0,0:0:0:0:
133,244,154443,1,2,1:2:0:0:
119,52,154643,1,2,1:2:0:0:
119,52,154743,6,0,P|167:64|252:87,1,133.333333333333,2|0,3:2|0:0,0:0:0:0:
247,85,155043,1,2,1:2:0:0:
405,241,155243,1,2,1:2:0:0:
340,178,155343,2,0,P|336:201|327:251,1,66.6666666666667,8|0,0:0|0:0,0:0:0:0:
465,355,155543,2,0,B|457:277|411:312|404:232,1,133.333333333333,2|0,0:0|0:0,0:0:0:0:
246,328,155843,1,0,3:2:0:0:
246,328,155943,6,0,P|174:340|106:370,1,133.333333333333,0|0,3:0|0:0,0:0:0:0:
0,226,156243,2,0,P|61:250|127:260,1,133.333333333333,2|0,3:2|0:0,0:0:0:0:
250,167,156543,2,0,B|258:89|304:124|311:44,1,133.333333333333,8|0,0:0|0:0,0:0:0:0:
310,52,156843,1,2,1:2:0:0:
111,0,157143,6,0,P|124:51|138:139,1,133.333333333333,2|0,3:2|0:0,0:0:0:0:
137,130,157443,1,2,1:2:0:0:
23,272,157643,1,2,0:0:0:0:
0,199,157743,2,0,P|53:199|99:269,1,133.333333333333,8|0,0:0|0:0,0:0:0:0:
274,384,158043,2,0,B|205:364|250:332|153:315,1,133.333333333333,2|0,1:2|3:2,0:0:0:0:
278,245,158343,6,0,B|346:232|421:218|421:217,1,133.333333333333,0|0,3:0|0:0,0:0:0:0:
420,42,158643,2,0,P|381:90|335:157,1,133.333333333333,2|0,3:2|0:0,0:0:0:0:
340,148,158943,1,8,0:0:0:0:
251,0,159242,2,0,P|259:43|268:101,1,91.6666694641114,2|2,1:2|1:2,0:0:0:0:
135,174,159542,6,0,B|68:186|-16:202,2,137.500004196167,2|2|8,3:2|1:2|0:0,0:0:0:0:
311,323,160442,1,2,1:2:0:0:
181,246,160642,1,0,3:0:0:0:
181,246,160742,6,0,B|192:317|229:283|238:374,1,133.333333333333,2|2,3:2|1:2,0:0:0:0:
376,271,161042,2,0,B|387:200|424:234|433:143,1,133.333333333333,2|0,1:1|0:0,0:0:0:0:
431,153,161342,1,8,0:0:0:0:
512,370,161642,2,0,P|477:353|421:344,1,91.6666694641114,0|0,1:1|0:0,0:0:0:0:
299,214,161942,6,0,P|246:191|256:118,1,133.333333333333,4|0,3:2|0:0,0:0:0:0:
250,123,162242,1,2,1:2:0:0:
423,10,162442,1,2,0:0:0:0:
391,81,162542,2,0,P|348:86|308:109,1,66.6666666666667,8|0,0:0|0:0,0:0:0:0:
207,33,162742,2,0,P|147:10|77:-1,1,133.333333333333,2|0,0:0|0:0,0:0:0:0:
0,89,163042,1,2,3:2:0:0:
0,89,163142,6,0,B|-22:169|41:138|21:232,1,133.333333333333,0|0,3:0|1:0,0:0:0:0:
148,352,163442,2,0,P|205:318|196:251,1,133.333333333333,2|0,3:2|0:0,0:0:0:0:
123,279,163742,2,0,P|71:288|-3:325,1,133.333333333333,8|0,0:0|0:0,0:0:0:0:
0,323,164042,1,2,0:2:0:0:
166,158,164242,1,2,0:0:0:0:
166,158,164342,6,0,P|217:180|302:194,1,133.333333333333,2|0,3:2|0:0,0:0:0:0:
293,193,164642,1,2,1:2:0:0:
414,304,164842,1,2,0:0:0:0:
345,339,164942,2,0,P|325:311|330:268,1,66.6666666666667,8|0,0:0|0:0,0:0:0:0:
449,226,165142,2,0,P|497:183|473:114,1,133.333333333333
392,59,165442,1,0,3:2:0:0:
392,59,165542,6,0,P|330:79|253:94,1,133.333333333333,0|0,3:0|0:0,0:0:0:0:
166,158,165842,2,0,P|231:171|294:191,1,133.333333333333,0|0,3:0|0:0,0:0:0:0:
294,191,166142,1,8,0:0:0:0:
212,0,166441,2,0,P|178:25|190:81,1,91.6666694641114,2|0,1:2|1:0,0:0:0:0:
71,141,166741,6,0,P|91:205|102:282,1,133.333333333333,2|0,3:2|0:0,0:0:0:0:
101,270,167041,1,2,1:2:0:0:
231,381,167241,1,2,0:0:0:0:
185,312,167341,2,0,P|218:306|259:294,1,66.6666666666667,8|0,0:0|0:0,0:0:0:0:
365,369,167541,2,0,P|418:333|401:260,1,133.333333333333,2|0,0:0|0:0,0:0:0:0:
331,226,167841,1,2,3:2:0:0:
331,226,167941,6,0,P|315:164|306:88,1,133.333333333333,0|0,3:0|0:0,0:0:0:0:
389,0,168241,2,0,P|439:38|415:108,1,133.333333333333,2|0,3:2|0:0,0:0:0:0:
425,99,168541,1,10,0:0:0:0:
229,203,168841,2,0,P|178:212|133:235,1,91.6666694641114,2|2,1:2|0:0,0:0:0:0:
326,309,169141,6,0,B|406:322|361:362|451:378,2,137.500004196167,2|2|12,3:2|1:2|0:0,0:0:0:0:
512,183,170041,2,0,P|447:189|421:259,1,133.333333333333,2|0,1:2|3:0,0:0:0:0:
419,244,170341,5,0,3:0:0:0:
302,131,170541,2,0,P|294:69|282:-5,1,133.333333333333,10|0,0:2|0:0,0:0:0:0:
282,0,170841,1,0,3:0:0:0:
208,89,170941,2,0,P|169:140|124:200,1,133.333333333333,10|0,0:0|0:0,0:0:0:0:
16,121,171241,2,0,P|51:115|96:108,2,66.6666666666667,2|0|8,1:1|0:0|0:0,0:0:0:0:
127,195,171541,6,0,P|180:227|171:306,1,125.000004768372,4|0,3:2|0:0,0:0:0:0:
184,285,171841,1,2,1:2:0:0:
77,384,172041,1,2,0:2:0:0:
1,339,172141,2,0,B|73:318|28:283|121:272,1,125.000004768372,8|0,0:0|0:0,0:0:0:0:
286,209,172441,2,0,P|337:231|414:241,1,125.000004768372,2|0,1:2|3:0,0:0:0:0:
211,183,172741,6,0,P|189:103|177:-9,2,187.500007152558,2|2|8,3:2|3:2|0:0,0:0:0:0:
486,265,173640,2,0,P|466:310|454:389,1,125.000004768372,2|2,1:2|0:0,0:0:0:0:
377,259,173940,6,0,P|412:178|509:190,2,187.500007152558,2|2|8,3:2|1:2|0:0,0:0:0:0:
182,384,174840,1,2,3:2:0:0:
353,342,175040,6,0,B|280:324|325:294|243:274,1,125.000004768372,0|0,3:0|0:0,0:0:0:0:
147,112,175340,1,0,1:0:0:0:
147,112,175440,2,0,P|160:163|179:241,1,125.000004768372,2|0,3:2|0:0,0:0:0:0:
67,353,175740,2,0,P|54:297|117:272,1,125.000004768372,10|0,0:0|0:0,0:0:0:0:
105,268,176040,1,2,1:1:0:0:
283,194,176340,6,0,P|351:184|409:159,1,125.000004768372,2|0,3:2|0:0,0:0:0:0:
402,162,176640,1,2,1:2:0:0:
499,12,176840,1,2,0:0:0:0:
505,89,176940,2,0,P|440:72|420:18,1,125.000004768372,8|0,0:0|0:0,0:0:0:0:
419,22,177240,1,2,1:2:0:0:
501,174,177440,1,0,3:0:0:0:
501,174,177540,6,0,P|484:241|474:306,1,125.000004768372,2|0,3:2|0:0,0:0:0:0:
349,349,177840,2,0,P|281:360|211:399,1,125.000004768372,2|2,3:2|0:0,0:0:0:0:
396,280,178140,1,8,0:0:0:0:
221,154,178440,2,0,P|176:144|125:122,1,91.6666694641114,2|0,1:2|1:0,0:0:0:0:
286,102,178740,6,0,B|297:30|345:66|355:-17,1,125.000004768372,2|0,3:2|0:0,0:0:0:0:
351,0,179040,1,2,1:2:0:0:
330,178,179240,1,0,3:0:0:0:
330,178,179340,2,0,B|341:250|389:214|399:297,1,125.000004768372,12|0,0:0|0:0,0:0:0:0:
487,286,179640,2,0,P|474:308|464:361,1,62.5000023841859,2|0,3:2|0:0,0:0:0:0:
334,384,179840,6,0,P|253:358|142:339,1,187.500007152558,0|0,3:0|3:0,0:0:0:0:
152,340,180240,1,0,3:0:0:0:
12,211,180539,2,0,P|72:218|103:287,1,125.000004768372,10|0,0:0|3:0,0:0:0:0:
104,270,180839,1,10,0:0:0:0:
265,173,181039,1,8,0:0:0:0:
265,173,181139,6,0,P|253:86|241:0,2,174.999994659424,4|2|8,3:2|1:2|0:0,0:0:0:0:
106,372,182039,2,0,P|159:348|216:340,1,116.666663106283,2|8,3:2|0:0,0:0:0:0:
216,340,182339,5,2,1:2:0:0:
370,254,182539,1,0,3:0:0:0:
370,254,182639,2,0,P|414:284|399:351,1,116.666663106283,2|2,3:2|0:0,0:0:0:0:
408,341,182939,1,10,0:0:0:0:
274,269,183139,1,0,3:0:0:0:
274,269,183239,2,0,P|286:213|296:154,1,116.666663106283,2|0,1:2|0:0,0:0:0:0:
214,84,183539,6,0,P|142:111|46:131,1,174.999994659424,2|0,3:2|1:2,0:0:0:0:
291,25,184039,1,0,3:0:0:0:
291,25,184139,2,0,P|340:48|420:62,1,116.666663106283,8|0,0:0|0:0,0:0:0:0:
401,61,184439,1,2,3:2:0:0:
512,225,184639,6,0,P|463:194|458:138,1,116.666663106283,8|0,0:0|0:0,0:0:0:0:
391,246,184939,1,0,3:0:0:0:
391,246,185039,2,0,P|338:256|277:289,1,116.666663106283,2|0,3:2|0:0,0:0:0:0:
286,362,185339,1,10,0:0:0:0:
209,196,185639,2,0,P|200:256|182:326,1,116.666663106283,2|0,1:0|0:0,0:0:0:0:
297,183,185939,6,0,P|276:97|261:11,1,174.999994659424,4|2,3:2|1:2,0:0:0:0:
53,173,186439,1,2,0:0:0:0:
16,89,186539,2,0,P|71:100|132:111,1,116.666663106283,8|0,0:0|0:0,0:0:0:0:
130,110,186839,1,2,3:2:0:0:
220,275,187039,1,8,0:0:0:0:
112,256,187139,6,0,B|177:237|141:210|213:195,1,116.666663106283,2|0,1:2|3:0,0:0:0:0:
208,195,187439,1,2,3:2:0:0:
392,96,187738,2,0,P|428:58|402:-7,1,116.666663106283,10|0,0:0|3:0,0:0:0:0:
412,0,188038,1,2,1:2:0:0:
300,236,188338,6,0,P|308:260|315:306,1,58.3333315531413,2|0,3:2|0:0,0:0:0:0:
384,384,188538,2,0,P|395:323|406:256,1,116.666663106283,8|0,0:0|0:0,0:0:0:0:
403,269,188838,1,0,3:0:0:0:
512,159,188938,2,0,P|459:153|419:206,1,116.666663106283,12|0,0:0|0:0,0:0:0:0:
420,197,189238,1,2,3:2:0:0:
285,149,189438,6,0,P|230:127|149:114,1,116.666663106283,8|0,0:0|0:0,0:0:0:0:
9,67,189738,1,0,3:0:0:0:
45,0,189838,2,0,P|85:27|82:102,1,116.666663106283,2|0,3:2|0:0,0:0:0:0:
179,198,190138,1,10,0:0:0:0:
0,288,190438,1,2,1:0:0:0:
90,200,190638,1,8,0:0:0:0:
90,200,190738,6,0,B|100:284|143:242|158:344,1,149.999995422363,4|2,3:2|1:2,0:0:0:0:
364,384,191238,1,2,0:0:0:0:
426,335,191338,2,0,P|397:291|342:289,1,99.9999969482423,8|0,0:0|0:0,0:0:0:0:
353,285,191638,1,2,3:2:0:0:
237,187,191838,1,8,0:0:0:0:
237,187,191938,6,0,P|295:177|388:152,2,149.999995422363,2|2|10,1:2|3:2|0:0,0:0:0:0:
456,186,192838,2,0,P|494:155|482:103,1,99.9999969482423,2|0,1:2|0:0,0:0:0:0:
384,28,193138,6,0,P|329:18|278:-6,1,99.9999969482423,2|0,3:2|0:0,0:0:0:0:
260,76,193438,2,0,P|205:86|154:110,1,99.9999969482423,2|0,1:2|3:0,0:0:0:0:
164,103,193738,1,10,0:0:0:0:
10,191,194038,1,2,3:2:0:0:
149,243,194238,6,0,B|139:163|87:202|77:118,1,149.999995422363,8|0,0:0|3:0,0:0:0:0:
77,118,194638,1,2,3:2:0:0:
69,279,194837,1,2,0:0:0:0:
69,279,194937,2,0,P|61:330|52:382,1,99.9999969482423,10|0,0:0|0:0,0:0:0:0:
143,358,195237,2,0,P|186:366|257:379,1,99.9999969482423,2|0,1:0|0:0,0:0:0:0:
348,314,195537,6,0,B|354:260|389:286|396:230,1,99.9999969482423,4|0,3:2|0:0,0:0:0:0:
396,230,195837,1,2,1:2:0:0:
457,55,196037,1,2,0:0:0:0:
512,127,196137,2,0,P|453:135|407:158,1,99.9999969482423,8|0,0:0|0:0,0:0:0:0:
279,79,196437,2,0,P|238:46|243:-3,1,99.9999969482423,2|8,3:2|0:0,0:0:0:0:
240,2,196737,5,2,1:2:0:0:
305,165,196937,1,0,3:0:0:0:
305,165,197037,2,0,P|297:215|285:272,1,99.9999969482423,2|2,3:2|0:0,0:0:0:0:
398,346,197337,2,0,P|388:302|373:236,1,99.9999969482423,10|0,0:0|3:0,0:0:0:0:
160,316,197637,2,0,P|208:334|272:357,1,99.9999969482423,2|0,1:2|3:0,0:0:0:0:
119,235,197937,6,0,P|48:246|25:323,2,149.999995422363,2|2|12,3:2|3:1|0:0,0:0:0:0:
339,157,198837,2,0,P|387:146|434:128,1,99.9999969482423,12|0,0:0|0:0,0:0:0:0:
434,128,199137,5,12,0:0:0:0:
158,0,199437,2,0,P|162:17|170:53,2,49.9999984741211,2|8|8,3:2|0:0|0:0,0:0:0:0:
249,153,199737,2,0,P|232:135|215:119,2,41.6666666666667,4|8|0,3:0|0:0|3:0,0:0:0:0:
47,89,200037,2,0,P|68:92|88:96,2,41.6666666666667,4|4|0,3:0|3:0|3:0,0:0:0:0:
138,168,200337,6,0,B|157:252|92:220|109:307,1,150,2|2,1:2|0:0,0:0:0:0:
41,353,202736,2,0,L|36:374,1,16.6666666666667,2|2,0:0|0:0,0:0:0:0:
256,192,202936,12,0,205136,0:0:0:0:
