osu file format v14

[General]
AudioFilename: audio.mp3
AudioLeadIn: 0
PreviewTime: 64119
Countdown: 0
SampleSet: Soft
StackLeniency: 0.3
Mode: 0
LetterboxInBreaks: 0
WidescreenStoryboard: 1

[Editor]
Bookmarks: 17363,36560,55757,65356,84552,94752,113949,133146,152343,171541,181139,185939,190738,195537,200337
DistanceSpacing: 0.9
BeatDivisor: 12
GridSize: 32
TimelineZoom: 1.5

[Metadata]
Title:MARCH
TitleUnicode:MARCH
Artist:Miracle Chimpanzee
ArtistUnicode:ミラクルチンパンジー
Creator:Flask
Version:Normal
Source:映画「佐々木と宮野―卒業編―」
Tags:sasamiya eiga sasaki to miyano sotsugyou hen and miyano: Graduation graduate anime movie jpop pop j-pop 佐々木 秀鳴 shyuumei shuumei 宮野 由美 yoshikazu 平野 大河 hirano taiga 鍵浦 昭 kagiura akira 大西洋平 澁江夏奈 mirakuru chinpanji alevi japanese bl boys boys' love 少年愛 shounen shonen shōnen ai
BeatmapID:4113090
BeatmapSetID:1941054

[Difficulty]
HPDrainRate:3
CircleSize:3.3
OverallDifficulty:4
ApproachRate:5.5
SliderMultiplier:2
SliderTickRate:1

[Events]
//Background and Video events
0,0,"kv2 (1).jpg",0,0
//Break Periods
//Storyboard Layer 0 (Background)
//Storyboard Layer 1 (Fail)
//Storyboard Layer 2 (Pass)
//Storyboard Layer 3 (Foreground)
//Storyboard Layer 4 (Overlay)
//Storyboard Sound Samples

[TimingPoints]
2965,599.916011758354,4,2,1,40,1,0
4164,-200,4,2,1,20,0,0
5364,-200,4,2,1,40,0,0
13463,-200,4,2,1,40,0,0
13513,-100,4,2,1,5,0,0
13563,-100,4,2,1,5,0,0
13613,-100,4,2,1,5,0,0
17362,-142.857142857143,4,2,2,50,0,0
38060,-142.857142857143,4,2,2,5,0,0
38110,-142.857142857143,4,2,2,50,0,0
38660,-142.857142857143,4,2,2,5,0,0
38710,-142.857142857143,4,2,2,50,0,0
42859,-142.857142857143,4,2,2,5,0,0
42909,-142.857142857143,4,2,2,50,0,0
43459,-142.857142857143,4,2,2,5,0,0
43509,-142.857142857143,4,2,2,50,0,0
47658,-142.857142857143,4,2,2,5,0,0
47708,-142.857142857143,4,2,2,50,0,0
48258,-142.857142857143,4,2,2,5,0,0
48308,-142.857142857143,4,2,2,50,0,0
54257,-142.857142857143,4,2,2,50,0,0
54307,-142.857142857143,4,2,2,5,0,0
55457,-142.857142857143,4,2,2,50,0,0
55607,-142.857142857143,4,2,1,60,0,0
55757,-117.647058823529,4,2,1,60,0,0
64155,-117.647058823529,4,2,1,50,0,0
65356,-100,4,2,1,75,0,1
65654,-100,4,2,1,75,0,1
67754,-100,4,2,1,75,0,1
68054,-100,4,2,1,75,0,1
68354,-100,4,2,1,75,0,1
69154,-100,4,2,1,75,0,1
69854,-100,4,2,1,75,0,1
70154,-100,4,2,1,75,0,1
70454,-100,4,2,1,75,0,1
72553,-100,4,2,1,75,0,1
72853,-100,4,2,1,75,0,1
73153,-100,4,2,1,75,0,1
73753,-100,4,2,1,75,0,1
74053,-100,4,2,1,75,0,1
74653,-100,4,2,1,75,0,1
74953,-100,4,2,1,75,0,1
75253,-100,4,2,1,75,0,1
76003,-100,4,2,1,75,0,1
76453,-100,4,2,1,75,0,1
77353,-100,4,2,1,75,0,1
77803,-100,4,2,1,75,0,1
78103,-100,4,2,1,75,0,1
78553,-100,4,2,1,75,0,1
78853,-100,4,2,1,75,0,1
79453,-100,4,2,1,75,0,1
79752,-100,4,2,1,75,0,1
80052,-100,4,2,1,75,0,1
80802,-100,4,2,1,75,0,1
81252,-100,4,2,1,75,0,1
82452,-100,4,2,1,75,0,1
82752,-100,4,2,1,75,0,1
83652,-100,4,2,1,75,0,1
84252,-100,4,2,1,75,0,1
84552,-100,4,2,1,75,0,1
84852,-100,4,2,1,75,0,1
85452,-100,4,2,1,75,0,1
85752,-100,4,2,1,75,0,1
86052,-100,4,2,1,75,0,1
87251,-100,4,2,1,75,0,1
87551,-100,4,2,1,75,0,1
88051,-100,4,2,1,75,0,1
89051,-100,4,2,1,75,0,1
89351,-100,4,2,1,75,0,1
89651,-100,4,2,1,75,0,1
90251,-100,4,2,1,75,0,1
90551,-100,4,2,1,75,0,1
90851,-100,4,2,1,75,0,1
91751,-100,4,2,1,75,0,1
92051,-100,4,2,1,75,0,1
92351,-100,4,2,1,75,0,1
92951,-100,4,2,1,75,0,1
93251,-100,4,2,1,75,0,1
93851,-100,4,2,1,75,0,1
94152,-100,4,2,1,5,0,0
94752,599.916011758354,4,2,1,60,1,0
94752,-111.111111111111,4,2,1,60,0,0
95951,-111.111111111111,4,2,1,60,0,0
96251,-111.111111111111,4,2,1,60,0,0
96551,-111.111111111111,4,2,1,60,0,0
97051,-111.111111111111,4,2,1,60,0,0
99251,-111.111111111111,4,2,1,60,0,0
99551,-111.111111111111,4,2,1,60,0,0
101651,-111.111111111111,4,2,1,60,0,0
101950,-111.111111111111,4,2,1,60,0,0
104050,-111.111111111111,4,2,1,60,0,0
104350,-111.111111111111,4,2,1,60,0,0
106450,-111.111111111111,4,2,1,60,0,0
106750,-111.111111111111,4,2,1,60,0,0
108250,-111.111111111111,4,2,1,60,0,0
108550,-111.111111111111,4,2,1,60,0,0
113949,-133.333333333333,4,2,1,50,0,0
131646,-133.333333333333,4,2,1,60,0,0
132546,-133.333333333333,4,2,1,60,0,0
132846,-133.333333333333,4,2,1,60,0,0
133146,-117.647058823529,4,2,1,60,0,0
142744,-111.111111111111,4,2,1,70,0,0
147544,-111.111111111111,4,2,1,60,0,0
148144,-111.111111111111,4,2,1,65,0,0
148744,-111.111111111111,4,2,1,75,0,0
149344,-111.111111111111,4,2,1,85,0,0
149944,-111.111111111111,4,2,1,60,0,0
152343,-100,4,2,1,85,0,1
152643,-100,4,2,1,85,0,1
153393,-100,4,2,1,85,0,1
153843,-100,4,2,1,85,0,1
154743,-100,4,2,1,85,0,1
155043,-100,4,2,1,85,0,1
155543,-100,4,2,1,85,0,1
155843,-100,4,2,1,85,0,1
156143,-100,4,2,1,85,0,1
156543,-100,4,2,1,85,0,1
157143,-100,4,2,1,85,0,1
157443,-100,4,2,1,85,0,1
158193,-100,4,2,1,85,0,1
158643,-100,4,2,1,85,0,1
158943,-100,4,2,1,85,0,1
159542,-100,4,2,1,85,0,1
159842,-100,4,2,1,85,0,1
161042,-100,4,2,1,85,0,1
161642,-100,4,2,1,85,0,1
161942,-100,4,2,1,85,0,1
162242,-100,4,2,1,85,0,1
162992,-100,4,2,1,85,0,1
163442,-100,4,2,1,85,0,1
164342,-100,4,2,1,85,0,1
164642,-100,4,2,1,85,0,1
165092,-100,4,2,1,85,0,1
165542,-100,4,2,1,85,0,1
165842,-100,4,2,1,85,0,1
166142,-100,4,2,1,85,0,1
166741,-100,4,2,1,85,0,1
167041,-100,4,2,1,85,0,1
167791,-100,4,2,1,85,0,1
168241,-100,4,2,1,85,0,1
169441,-100,4,2,1,85,0,1
169741,-100,4,2,1,85,0,1
170041,-100,4,2,1,85,0,1
171241,-100,4,2,1,85,0,1
171541,-100,4,2,1,85,0,1
171841,-100,4,2,1,85,0,1
172441,-100,4,2,1,85,0,1
172741,-100,4,2,1,85,0,1
173041,-100,4,2,1,85,0,1
174540,-100,4,2,1,85,0,1
176040,-100,4,2,1,85,0,1
176340,-100,4,2,1,85,0,1
176640,-100,4,2,1,85,0,1
177240,-100,4,2,1,85,0,1
177840,-100,4,2,1,85,0,1
179040,-100,4,2,1,85,0,1
179340,-100,4,2,1,85,0,1
179940,-100,4,2,1,85,0,1
180240,-100,4,2,1,85,0,1
180539,-100,4,2,1,55,0,1
180589,-95.2380952380952,4,2,1,85,0,1
180839,-95.2380952380952,4,2,1,85,0,1
181039,-95.2380952380952,4,2,1,85,0,0
181139,-95.2380952380952,4,2,1,85,0,1
181439,-95.2380952380952,4,2,1,85,0,1
182039,-95.2380952380952,4,2,1,85,0,1
182639,-95.2380952380952,4,2,1,85,0,1
182939,-95.2380952380952,4,2,1,85,0,1
183239,-95.2380952380952,4,2,1,85,0,1
183539,-95.2380952380952,4,2,1,85,0,1
185939,-95.2380952380952,4,2,1,85,0,1
186239,-95.2380952380952,4,2,1,85,0,1
187139,-95.2380952380952,4,2,1,85,0,1
188038,-95.2380952380952,4,2,1,85,0,1
188338,-95.2380952380952,4,2,1,85,0,1
188938,-95.2380952380952,4,2,1,85,0,1
189238,-95.2380952380952,4,2,1,85,0,1
190738,-95.2380952380952,4,2,1,85,0,1
191038,-95.2380952380952,4,2,1,85,0,1
191638,-95.2380952380952,4,2,1,85,0,1
192238,-95.2380952380952,4,2,1,85,0,1
193138,-95.2380952380952,4,2,1,85,0,1
193438,-95.2380952380952,4,2,1,85,0,1
193738,-95.2380952380952,4,2,1,85,0,1
194238,-95.2380952380952,4,2,1,85,0,1
195537,-95.2380952380952,4,2,1,85,0,1
195837,-95.2380952380952,4,2,1,85,0,1
196437,-95.2380952380952,4,2,1,85,0,1
197037,-95.2380952380952,4,2,1,85,0,1
197937,-95.2380952380952,4,2,1,85,0,1
198237,-95.2380952380952,4,2,1,85,0,1
198537,-95.2380952380952,4,2,1,85,0,1
198837,-95.2380952380952,4,2,1,85,0,1
199137,-95.2380952380952,4,2,1,85,0,1
199737,-95.2380952380952,4,2,1,70,0,1
200037,-95.2380952380952,4,2,1,55,0,1
200337,-100,4,2,1,40,0,0
202836,-100,4,2,1,40,0,0
202886,-100,4,2,1,5,0,0
202936,-100,4,2,1,5,0,0

[Colours]
Combo1 : 45,187,255
Combo2 : 173,255,91
Combo3 : 255,255,89
Combo4 : 255,149,149
Combo5 : 255,179,102

[HitObjects]
60,50,4164,6,0,L|73:149,1,100,0|2,0:0|0:0,0:0:0:0:
135,213,5364,2,0,B|147:301|92:263|106:359,2,150,2|0|0,0:0|0:0|0:0,0:0:0:0:
208,161,7764,2,0,P|242:159|302:250,1,150,2|0,0:0|0:0,0:0:0:0:
404,333,9564,1,0,0:0:0:0:
476,280,10163,6,0,P|492:224|438:155,2,150,2|0|0,0:0|0:0|0:0,0:0:0:0:
397,235,12563,2,0,B|304:212|340:269|250:249,1,150,2|2,0:0|0:0,0:0:0:0:
256,192,13613,12,0,15463,0:0:0:0:
67,66,17362,5,2,3:2:0:0:
32,157,17962,2,0,P|77:181|105:270,1,139.999995727539,8|0,0:0|0:0,0:0:0:0:
117,337,18862,1,0,3:0:0:0:
45,365,19162,2,0,L|188:353,1,139.999995727539,0|2,0:0|3:2,0:0:0:0:
331,306,20362,2,0,P|335:339|323:382,2,69.9999978637696,8|2|0,0:0|0:0|0:0,0:0:0:0:
280,247,21262,1,0,3:0:0:0:
203,250,21562,2,0,P|174:227|186:129,1,139.999995727539,0|2,0:0|3:2,0:0:0:0:
296,30,22762,6,0,P|361:45|440:47,1,139.999995727539,8|0,0:0|0:0,0:0:0:0:
465,117,23662,1,0,3:0:0:0:
386,140,23962,2,0,P|355:132|315:129,1,69.9999978637696,0|2,0:0|0:0,0:0:0:0:
241,117,24561,2,0,P|216:168|203:262,1,139.999995727539,2|8,3:2|0:0,0:0:0:0:
128,272,25461,1,2,0:0:0:0:
345,323,26361,2,2,B|263:303|298:351|205:337,1,139.999995727539,2|0,0:0|3:2,0:0:0:0:
61,381,27561,6,0,P|26:375|5:346,1,69.9999978637696,8|2,0:0|0:0,0:0:0:0:
53,287,28161,1,0,0:0:0:0:
11,221,28461,2,0,P|29:186|51:86,1,139.999995727539,0|0,3:0|0:0,0:0:0:0:
119,52,29361,1,2,3:2:0:0:
269,19,29961,6,0,P|272:55|284:91,1,69.9999978637696,8|2,0:0|0:0,0:0:0:0:
298,162,30561,2,0,P|268:183|243:211,1,69.9999978637696,0|0,0:0|3:0,0:0:0:0:
184,254,31161,2,0,P|140:208|66:214,1,139.999995727539,0|2,0:0|3:2,0:0:0:0:
10,70,32360,6,0,P|42:48|79:47,1,69.9999978637696,8|2,0:0|0:0,0:0:0:0:
132,94,32960,2,0,L|279:127,1,139.999995727539,2|0,0:0|0:0,0:0:0:0:
289,50,33860,1,2,0:0:0:0:
365,52,34160,2,0,P|402:103|393:181,1,139.999995727539,2|0,3:2|0:0,0:0:0:0:
319,192,35060,1,0,0:0:0:0:
510,321,35960,1,0,0:0:0:0:
443,360,36260,1,2,0:0:0:0:
367,344,36560,6,0,P|331:280|364:224,1,139.999995727539,2|8,0:0|0:0,0:0:0:0:
422,181,37460,2,0,B|336:197|292:111|297:89|297:89|291:111|208:163|139:114,1,349.999989318848,2|2,0:0|0:0,0:0:0:0:
79,162,39259,2,0,L|4:148,2,69.9999978637696,2|8|2,0:0|0:0|0:0,0:0:0:0:
100,237,40159,1,2,0:0:0:0:
181,367,40759,1,0,0:0:0:0:
288,256,41359,6,0,P|294:191|233:147,1,139.999995727539,2|8,0:0|0:0,0:0:0:0:
163,161,42259,2,0,P|65:114|205:89,1,349.999989318848,2|2,0:0|0:0,0:0:0:0:
351,37,44359,1,8,0:0:0:0:
404,92,44659,2,0,L|382:234,1,139.999995727539,2|0,0:0|0:0,0:0:0:0:
321,277,45559,2,0,L|253:263,1,69.9999978637696,2|2,0:0|0:0,0:0:0:0:
191,215,46158,6,0,P|139:220|94:293,1,139.999995727539,2|8,0:0|0:0,0:0:0:0:
23,320,47058,2,0,B|71:316|71:316|369:382,1,349.999989318848,2|2,0:0|0:0,0:0:0:0:
492,292,49158,1,8,0:0:0:0:
427,249,49458,1,2,0:0:0:0:
473,187,49758,2,0,L|484:115,2,69.9999978637696,2|0|2,0:0|0:0|0:0,0:0:0:0:
366,74,50958,6,0,L|341:214,1,139.999995727539,2|8,0:0|0:0,0:0:0:0:
326,287,51858,1,2,0:0:0:0:
196,370,52458,2,0,P|159:372|127:350,1,69.9999978637696,0|2,0:0|0:0,0:0:0:0:
96,286,53057,1,0,0:0:0:0:
23,311,53357,2,0,L|4:171,1,139.999995727539,2|8,0:0|0:0,0:0:0:0:
46,107,54257,1,2,0:0:0:0:
510,137,55757,6,0,L|374:105,1,127.50000243187,10|8,0:0|0:0,0:0:0:0:
246,122,56657,2,0,P|188:99|141:145,2,127.50000243187,8|8|8,0:0|0:0|0:0,0:0:0:0:
291,194,57857,1,4,0:3:0:0:
227,249,58157,6,0,L|257:382,1,127.50000243187,10|8,0:0|0:0,0:0:0:0:
128,357,59057,2,0,B|51:357|83:316|7:319,2,127.50000243187,8|10|10,0:0|0:0|0:0,0:0:0:0:
202,315,60256,1,2,0:0:0:0:
279,350,60556,6,0,P|327:353|367:291,1,127.50000243187,10|8,0:0|0:0,0:0:0:0:
469,215,61456,2,0,P|480:157|504:90,2,127.50000243187,8|8|8,0:0|0:0|0:0,0:0:0:0:
395,61,62956,5,2,0:0:0:0:
139,256,64156,2,0,P|41:250|25:188,1,170.000003242493,2|2,0:0|0:0,0:0:0:0:
67,59,65356,6,0,P|122:61|146:101,1,100,4|2,3:2|1:2,0:0:0:0:
184,140,65856,2,0,P|232:148|266:111,1,100,2|2,0:0|0:0,0:0:0:0:
332,54,66456,2,0,P|389:12|453:28,1,133.333333333333,2|2,3:2|3:2,0:0:0:0:
420,110,67156,1,8,0:0:0:0:
496,156,67455,2,0,L|480:231,1,66.6666666666667,2|2,1:2|1:2,0:0:0:0:
493,249,67755,6,0,P|449:233|407:267,1,100,2|2,3:2|1:2,0:0:0:0:
353,284,68255,1,2,1:2:0:0:
312,202,68555,1,2,3:2:0:0:
227,172,68855,2,0,L|245:60,2,100,2|2|2,3:2|0:0|0:0,0:0:0:0:
201,188,69555,2,0,P|155:199|109:174,1,100,8|0,1:2|1:0,0:0:0:0:
47,250,70155,6,0,P|8:295|21:340,1,100,2|2,3:2|1:2,0:0:0:0:
73,349,70655,2,0,P|108:347|170:375,1,100,2|2,0:0|0:0,0:0:0:0:
254,352,71255,2,0,P|308:347|345:275,1,133.333333333333,2|2,3:2|3:2,0:0:0:0:
292,210,71955,2,0,P|295:162|308:109,1,100,8|2,0:0|1:2,0:0:0:0:
384,64,72555,5,2,3:2:0:0:
469,93,72855,1,2,1:2:0:0:
481,182,73155,1,8,0:0:0:0:
418,246,73455,2,0,L|209:201,1,200,2|0,1:2|3:0,0:0:0:0:
141,243,74355,2,0,L|122:345,1,100,8|2,1:2|1:1,0:0:0:0:
207,369,74954,6,0,P|249:374|290:335,1,100,2|2,3:2|1:2,0:0:0:0:
334,297,75454,2,0,P|319:252|314:196,1,100,2|2,0:0|0:0,0:0:0:0:
227,175,76054,2,0,P|243:110|245:33,1,133.333333333333,2|2,3:2|3:2,0:0:0:0:
159,18,76754,1,8,0:0:0:0:
95,82,77054,1,2,0:2:0:0:
12,47,77354,6,0,P|0:95|22:140,1,100,2|2,3:2|1:2,0:0:0:0:
10,198,77854,2,0,L|110:217,1,100,2|0,0:0|0:0,0:0:0:0:
192,184,78454,1,2,3:2:0:0:
239,260,78754,1,2,0:0:0:0:
199,340,79054,2,0,P|149:368|66:346,1,133.333333333333,2|0,0:0|1:0,0:0:0:0:
10,293,79754,6,0,P|25:241|36:189,1,100,2|2,3:2|1:2,0:0:0:0:
71,148,80254,2,0,P|117:133|159:174,1,100,2|2,0:0|0:0,0:0:0:0:
244,169,80854,2,0,P|253:219|333:252,1,133.333333333333,2|2,0:0|3:2,0:0:0:0:
411,263,81553,2,0,P|442:304|432:348,1,100,8|2,0:0|1:2,0:0:0:0:
325,376,82153,5,2,3:2:0:0:
240,344,82453,1,2,1:2:0:0:
273,260,82753,1,8,0:0:0:0:
262,170,83053,2,0,P|174:158|54:141,1,200,2|0,1:2|3:0,0:0:0:0:
68,52,83953,1,8,0:0:0:0:
156,73,84253,1,2,1:1:0:0:
237,34,84553,6,0,P|281:40|309:91,1,100,4|2,3:2|1:2,0:0:0:0:
301,144,85053,2,0,P|352:160|413:114,1,133.333333333333,2|2,0:2|1:2,0:0:0:0:
475,180,85753,2,0,P|503:215|497:271,1,100,2|2,3:2|3:2,0:0:0:0:
490,326,86253,2,0,P|423:301|357:285,1,133.333333333333,2|2,0:0|1:2,0:0:0:0:
272,285,86953,5,2,3:2:0:0:
214,354,87253,1,2,1:2:0:0:
127,327,87553,1,8,0:0:0:0:
113,238,87853,2,0,L|142:131,1,100,2|0,1:2|3:0,0:0:0:0:
226,120,88453,2,0,L|283:148,2,50,2|2|8,3:2|0:0|0:0,0:0:0:0:
194,35,89052,1,2,1:1:0:0:
104,33,89352,6,0,P|65:48|38:101,1,100,2|2,3:2|1:2,0:0:0:0:
8,149,89852,2,0,P|26:204|40:291,1,133.333333333333,2|2,0:0|1:2,0:0:0:0:
129,281,90552,2,0,P|181:287|205:332,1,100,2|2,3:2|3:2,0:0:0:0:
244,369,91052,2,0,P|294:360|384:347,1,133.333333333333,2|2,0:0|1:2,0:0:0:0:
449,282,91752,6,0,P|476:250|479:194,1,100,2|2,3:2|1:2,0:0:0:0:
419,125,92352,1,8,0:0:0:0:
393,211,92652,2,0,L|249:234,1,133.333333333333,2|0,1:2|0:0,0:0:0:0:
202,243,93252,1,2,3:2:0:0:
147,171,93552,1,10,1:2:0:0:
199,97,93852,1,2,0:1:0:0:
411,212,94752,5,4,3:2:0:0:
335,358,95351,1,10,0:2:0:0:
335,358,95551,2,0,L|237:337,1,89.9999972534181,2|2,0:0|0:0,0:0:0:0:
221,349,95951,2,0,L|191:258,1,89.9999972534181,2|2,1:2|3:2,0:0:0:0:
118,230,96551,2,0,L|149:141,2,89.9999972534181,10|0|2,0:2|1:0|3:2,0:0:0:0:
252,147,97751,6,0,L|307:103,1,59.9999981689454,10|2,0:2|0:0,0:0:0:0:
318,90,98051,2,0,L|303:27,1,59.9999981689454,2|8,0:0|0:0,0:0:0:0:
297,5,98351,1,2,1:2:0:0:
229,49,98651,1,2,3:2:0:0:
150,27,98951,2,0,L|54:11,2,89.9999972534181,10|2|2,0:2|1:0|3:2,0:0:0:0:
24,137,100151,6,0,P|63:147|83:194,1,89.9999972534181,10|2,0:2|1:2,0:0:0:0:
92,270,100751,2,0,L|189:251,1,89.9999972534181,2|2,1:2|3:2,0:0:0:0:
227,226,101251,2,0,P|275:229|303:302,1,119.999996337891,2|2,0:0|1:2,0:0:0:0:
346,358,101950,6,0,L|382:240,1,119.999996337891,2|0,3:2|0:0,0:0:0:0:
394,190,102550,1,10,0:2:0:0:
467,224,102850,2,0,P|475:187|448:134,1,89.9999972534181,2|0,3:2|1:0,0:0:0:0:
383,102,103450,2,0,L|412:11,2,89.9999972534181,2|10|2,3:2|0:2|1:1,0:0:0:0:
321,155,104350,1,2,3:2:0:0:
182,238,104950,6,0,L|203:175,1,59.9999981689454,10|2,0:2|0:0,0:0:0:0:
215,157,105250,2,0,L|168:112,1,59.9999981689454,2|2,0:0|0:0,0:0:0:0:
150,98,105550,1,2,1:2:0:0:
69,101,105850,1,2,3:2:0:0:
29,171,106150,2,0,L|41:267,2,89.9999972534181,10|2|2,0:2|1:2|3:2,0:0:0:0:
181,230,107350,6,0,L|242:251,1,59.9999981689454,10|2,0:2|0:0,0:0:0:0:
257,268,107650,2,0,L|312:226,1,59.9999981689454,2|0,0:0|0:0,0:0:0:0:
331,232,107950,2,0,L|316:136,1,89.9999972534181,2|2,1:2|3:2,0:0:0:0:
373,77,108550,1,10,0:2:0:0:
373,77,108750,2,0,P|433:75|468:135,1,119.999996337891,2|2,3:2|3:2,0:0:0:0:
505,276,109749,5,8,0:0:0:0:
480,353,110049,2,0,P|453:370|426:370,1,59.9999981689454,2|0,0:0|1:0,0:0:0:0:
403,354,110349,2,0,L|310:330,1,89.9999972534181,2|2,1:2|3:2,0:0:0:0:
262,340,110849,2,0,P|232:303|251:235,1,119.999996337891,2|2,0:0|1:2,0:0:0:0:
190,180,111549,6,0,L|91:196,1,89.9999972534181,2|0,3:2|1:0,0:0:0:0:
55,224,112049,2,0,P|39:264|87:329,1,119.999996337891,2|2,3:2|3:2,0:0:0:0:
148,287,112749,1,0,1:0:0:0:
168,365,113049,1,2,3:2:0:0:
236,322,113349,2,0,L|330:340,1,89.9999972534181,14|4,3:2|3:0,0:0:0:0:
393,384,113949,6,0,P|406:327|347:259,1,150.000005722046,4|0,3:2|0:0,0:0:0:0:
272,244,114849,2,0,P|215:188|371:183,1,375.000014305115,2|2,1:2|0:0,0:0:0:0:
452,192,116648,2,0,L|507:132,2,75.0000028610231,2|2|2,0:0|0:0|0:0,0:0:0:0:
429,272,117548,1,2,0:0:0:0:
271,322,118148,1,2,0:0:0:0:
199,362,118448,1,0,3:0:0:0:
118,343,118748,6,0,P|74:325|53:227,1,150.000005722046,2|0,3:2|0:0,0:0:0:0:
129,208,119648,2,0,P|164:113|35:153,1,300.000011444092,2|0,0:0|0:0,0:0:0:0:
48,229,121148,2,0,L|77:339,2,112.500004291535,2|2|2,0:0|0:0|0:0,0:0:0:0:
209,263,122648,2,0,L|227:336,1,75.0000028610231,0|2,0:0|0:0,0:0:0:0:
306,358,123248,1,0,3:2:0:0:
377,317,123547,6,0,P|418:271|411:185,1,150.000005722046,4|2,0:0|0:0,0:0:0:0:
356,125,124447,1,2,0:0:0:0:
200,179,125047,2,0,L|128:149,2,75.0000028610231,0|2|0,0:0|0:0|0:0,0:0:0:0:
272,218,125947,1,2,0:0:0:0:
319,26,126547,6,0,L|396:16,1,75.0000028610231,2|0,0:0|0:0,0:0:0:0:
473,38,127147,2,0,L|502:109,1,75.0000028610231,2|0,0:0|0:0,0:0:0:0:
494,189,127747,2,0,L|432:236,1,75.0000028610231,2|0,0:0|3:0,0:0:0:0:
438,317,128347,6,0,L|207:275,1,225.000008583069,2|0,3:2|3:2,0:0:0:0:
245,113,129847,2,0,L|215:39,1,75.0000028610231,2|2,0:0|0:0,0:0:0:0:
139,14,130447,1,2,0:0:0:0:
71,60,130746,2,0,L|30:177,2,112.500004291535,2|0|2,0:0|0:0|0:0,0:0:0:0:
181,183,132246,1,2,0:0:0:0:
250,227,132546,1,2,1:2:0:0:
187,280,132846,1,2,1:2:0:0:
109,234,133147,6,0,L|90:370,1,127.50000243187,12|8,0:0|0:0,0:0:0:0:
231,355,134046,2,0,L|364:382,2,127.50000243187,8|8|8,0:0|0:0|0:0,0:0:0:0:
222,270,135246,1,4,0:3:0:0:
276,204,135546,6,0,P|331:184|384:225,1,127.50000243187,8|8,0:0|0:0,0:0:0:0:
504,261,136446,2,0,P|492:319|429:344,2,127.50000243187,8|8|10,0:0|0:0|0:0,0:0:0:0:
440,203,137645,1,0,3:0:0:0:
488,132,137945,6,0,L|507:-5,2,127.50000243187,2|8|8,3:2|0:0|0:0,0:0:0:0:
350,231,139445,1,2,3:2:0:0:
274,270,139745,1,10,0:2:0:0:
220,204,140045,1,0,3:0:0:0:
254,126,140345,6,0,P|252:84|224:47,1,85.0000016212464,10|2,0:0|0:0,0:0:0:0:
147,78,140945,1,2,0:0:0:0:
85,19,141245,2,0,P|28:55|22:113,2,127.50000243187,8|8|8,0:0|0:0|0:0,0:0:0:0:
170,14,142445,1,2,3:2:0:0:
244,64,142745,6,0,L|399:47,1,134.999995880127,4|2,3:2|3:2,0:0:0:0:
475,124,143645,2,0,L|436:268,1,134.999995880127,2|10,3:2|0:0,0:0:0:0:
340,323,144545,2,0,L|352:372,2,44.999998626709,8|2|2,0:0|0:0|0:0,0:0:0:0:
308,307,144994,1,0,3:0:0:0:
308,307,145144,2,0,L|175:290,2,134.999995880127,2|10|2,3:2|0:0|3:2,0:0:0:0:
330,228,146344,2,0,L|340:182,1,44.999998626709,2|8,0:0|0:0,0:0:0:0:
347,144,146644,1,2,0:0:0:0:
300,77,146944,2,0,P|265:79|229:117,1,89.9999972534181,10|2,0:0|0:0,0:0:0:0:
151,141,147544,6,0,L|56:125,1,89.9999972534181,2|0,3:2|3:0,0:0:0:0:
44,205,148144,2,0,L|139:221,1,89.9999972534181,0|0,3:0|3:0,0:0:0:0:
183,283,148744,2,0,L|190:336,2,44.999998626709,8|8|8,0:0|0:0|0:0,0:0:0:0:
251,238,149344,2,0,L|300:247,1,44.999998626709,8|8,0:0|0:0,0:0:0:0:
326,271,149644,2,0,L|375:280,1,44.999998626709,8|8,0:0|0:0,0:0:0:0:
404,300,149944,6,0,P|460:301|471:194,1,179.999994506836,2|2,0:0|0:0,0:0:0:0:
476,198,151744,2,0,L|496:73,1,119.999996337891,8|0,0:0|0:0,0:0:0:0:
471,25,152343,6,0,P|432:22|391:65,1,100,4|2,3:2|0:0,0:0:0:0:
346,101,152842,2,0,L|245:75,1,100,2|2,0:0|0:0,0:0:0:0:
186,140,153442,2,0,P|222:176|221:262,1,133.333333333333,2|2,3:2|3:2,0:0:0:0:
211,344,154143,1,8,0:0:0:0:
121,331,154443,2,0,L|52:316,1,66.6666666666667,2|2,1:2|1:2,0:0:0:0:
33,337,154743,6,0,L|15:239,1,100,2|2,3:2|1:2,0:0:0:0:
40,184,155242,1,2,1:2:0:0:
127,206,155542,1,2,0:0:0:0:
186,138,155842,2,0,L|169:27,2,100,2|2|0,3:2|0:0|0:0,0:0:0:0:
205,161,156543,2,0,L|328:192,1,100,8|2,0:0|1:2,0:0:0:0:
339,267,157143,6,0,P|391:262|413:212,1,100,2|2,3:2|1:2,0:0:0:0:
458,185,157642,2,0,P|433:138|428:91,1,100,2|2,0:0|0:0,0:0:0:0:
367,25,158242,2,0,P|322:8|247:56,1,133.333333333333,2|2,3:2|3:2,0:0:0:0:
291,128,158943,2,0,P|257:161|202:162,1,100,8|2,0:0|1:2,0:0:0:0:
128,119,159542,5,2,3:2:0:0:
176,42,159842,1,2,1:2:0:0:
92,7,160142,2,0,P|58:28|41:89,1,100,8|2,0:0|1:2,0:0:0:0:
1,156,160742,2,0,L|17:238,1,66.6666666666667,2|2,3:2|1:2,0:0:0:0:
21,250,161041,1,2,1:1:0:0:
9,339,161342,2,0,P|62:353|99:324,1,100,8|0,1:2|1:1,0:0:0:0:
186,333,161942,6,0,P|202:293|184:237,1,100,4|2,3:2|1:2,0:0:0:0:
166,183,162441,2,0,P|180:136|188:82,1,100,2|2,0:0|0:0,0:0:0:0:
266,41,163041,2,0,P|315:31|376:96,1,133.333333333333,2|2,3:2|3:2,0:0:0:0:
444,138,163742,1,8,0:0:0:0:
415,223,164042,2,0,L|402:295,1,66.6666666666667,2|2,0:2|0:0,0:0:0:0:
414,316,164342,6,0,L|314:338,1,100,2|2,3:2|1:2,0:0:0:0:
256,345,164841,1,2,0:0:0:0:
185,287,165141,1,2,0:0:0:0:
226,206,165441,2,0,P|270:177|320:194,2,100,2|2|2,3:2|0:0|0:0,0:0:0:0:
195,204,166142,2,0,P|159:176|150:123,1,100,8|2,0:0|1:2,0:0:0:0:
195,46,166741,6,0,P|241:36|290:60,1,100,2|2,3:2|1:2,0:0:0:0:
320,107,167240,1,2,0:0:0:0:
406,81,167540,1,2,0:0:0:0:
472,141,167840,2,0,L|448:272,1,133.333333333333,2|2,3:2|3:2,0:0:0:0:
372,321,168541,2,0,P|328:321|291:274,1,100,10|2,0:0|1:2,0:0:0:0:
202,290,169141,5,2,3:2:0:0:
169,206,169441,1,2,1:2:0:0:
230,140,169741,2,0,L|338:161,1,100,12|2,0:0|1:2,0:0:0:0:
411,124,170341,2,0,P|426:96|422:54,1,66.6666666666667,2|10,3:2|0:2,0:0:0:0:
415,33,170640,1,2,3:2:0:0:
329,5,170941,2,0,P|286:13|260:61,1,100,10|2,1:2|1:1,0:0:0:0:
208,134,171541,6,0,P|163:126|135:80,1,100,4|2,3:2|1:2,0:0:0:0:
75,86,172040,2,0,L|41:226,1,133.333333333333,2|2,0:2|1:2,0:0:0:0:
55,305,172741,2,0,P|110:311|125:354,1,100,2|2,3:2|3:2,0:0:0:0:
179,373,173240,2,0,L|320:346,1,133.333333333333,2|2,0:0|1:2,0:0:0:0:
365,276,173939,5,2,3:2:0:0:
295,219,174239,1,2,1:2:0:0:
352,149,174539,2,0,L|457:188,1,100,8|2,0:0|3:2,0:0:0:0:
486,264,175139,2,0,L|464:337,1,66.6666666666667,0|0,3:0|1:0,0:0:0:0:
458,356,175439,1,2,3:2:0:0:
367,352,175740,2,0,P|320:328|274:338,1,100,10|2,1:2|1:1,0:0:0:0:
192,373,176340,6,0,P|158:349|160:292,1,100,2|2,3:2|1:2,0:0:0:0:
207,259,176839,2,0,P|235:204|210:134,1,133.333333333333,2|2,0:0|1:2,0:0:0:0:
276,73,177539,2,0,P|252:39|195:41,1,100,2|2,3:2|3:2,0:0:0:0:
150,77,178040,2,0,L|17:58,1,133.333333333333,2|2,0:0|1:2,0:0:0:0:
16,148,178739,5,2,3:2:0:0:
32,236,179039,1,2,1:2:0:0:
120,249,179339,1,12,0:0:0:0:
170,174,179639,2,0,L|251:194,1,66.6666666666667,2|0,1:2|3:0,0:0:0:0:
251,215,179940,2,0,P|308:217|335:189,1,100,2|2,1:2|3:2,0:0:0:0:
369,104,180539,1,14,0:0:0:0:
451,150,180839,2,0,L|470:223,1,69.9999978637696,10|8,0:0|0:0,0:0:0:0:
493,237,181139,6,0,P|458:290|464:338,1,104.999996795654,4|2,3:2|1:2,0:0:0:0:
403,355,181638,2,0,L|290:370,1,104.999996795654,2|0,0:0|0:0,0:0:0:0:
267,376,182038,1,2,3:2:0:0:
177,345,182339,6,0,P|175:295|209:248,1,104.999996795654,2|2,1:2|3:2,0:0:0:0:
250,207,182838,2,0,P|240:161|229:93,1,104.999996795654,2|0,0:0|3:0,0:0:0:0:
224,71,183238,1,2,1:2:0:0:
151,12,183539,2,0,P|77:19|20:131,1,209.999993591309,2|8,3:2|0:0,0:0:0:0:
110,173,184438,1,2,3:2:0:0:
110,173,184638,2,0,P|162:196|183:284,1,139.999995727539,8|2,0:0|3:2,0:0:0:0:
173,364,185339,2,0,P|228:376|271:344,1,104.999996795654,10|2,0:0|1:0,0:0:0:0:
298,261,185939,6,0,P|282:210|276:152,1,104.999996795654,4|2,3:2|1:2,0:0:0:0:
246,103,186438,2,0,P|191:95|154:124,1,104.999996795654,2|0,0:0|0:0,0:0:0:0:
145,154,186838,1,2,3:2:0:0:
194,235,187139,2,0,P|245:219|303:213,1,104.999996795654,2|2,1:2|3:2,0:0:0:0:
351,242,187638,2,0,P|406:250|443:221,1,104.999996795654,2|0,0:0|3:0,0:0:0:0:
458,193,188038,1,2,1:2:0:0:
488,103,188338,6,0,L|460:-8,1,104.999996795654,2|0,3:2|3:0,0:0:0:0:
375,42,188938,2,0,P|322:15|275:28,1,104.999996795654,12|2,0:0|3:2,0:0:0:0:
235,70,189437,2,0,L|254:186,1,104.999996795654,8|0,0:0|3:0,0:0:0:0:
258,204,189837,1,2,3:2:0:0:
308,284,190138,2,0,P|301:322|236:352,1,104.999996795654,8|2,0:0|1:0,0:0:0:0:
152,341,190738,6,0,L|46:374,1,104.999996795654,4|2,3:2|1:2,0:0:0:0:
2,332,191237,2,0,P|-8:280|29:231,1,104.999996795654,2|0,0:0|0:0,0:0:0:0:
46,222,191637,1,2,3:2:0:0:
140,229,191938,2,0,L|127:123,1,104.999996795654,2|2,1:2|3:2,0:0:0:0:
54,64,192538,1,10,0:0:0:0:
127,5,192838,1,2,1:2:0:0:
210,50,193138,6,0,P|264:47|301:7,2,104.999996795654,2|2|10,3:2|1:2|0:0,0:0:0:0:
168,148,194037,1,2,3:2:0:0:
168,148,194237,2,0,P|226:172|242:244,1,139.999995727539,8|2,0:0|3:2,0:0:0:0:
325,196,194937,1,10,0:0:0:0:
401,250,195237,1,2,1:0:0:0:
473,188,195537,6,0,L|494:80,1,104.999996795654,4|2,3:2|1:2,0:0:0:0:
478,23,196036,2,0,P|434:8|377:59,1,104.999996795654,2|0,0:0|0:0,0:0:0:0:
371,63,196436,1,2,3:2:0:0:
292,11,196737,6,0,L|271:119,1,104.999996795654,2|2,1:2|3:2,0:0:0:0:
300,170,197236,2,0,P|271:211|212:214,1,104.999996795654,2|0,0:0|3:0,0:0:0:0:
192,200,197637,1,2,1:2:0:0:
98,187,197936,5,2,3:2:0:0:
33,256,198236,1,2,3:1:0:0:
68,343,198537,2,0,P|118:349|176:373,1,104.999996795654,12|12,0:0|0:0,0:0:0:0:
254,344,199137,1,12,0:0:0:0:
343,373,199437,2,0,B|359:334|343:274|295:304|286:225|324:165|398:165|451:231|407:285,1,314.999990386963,2|2,3:2|1:2,0:0:0:0:
143,247,201237,5,2,0:0:0:0:
480,26,202736,1,2,0:0:0:0:
256,192,202936,12,0,205136,0:0:0:0:
