osu file format v14

[General]
AudioFilename: audio.mp3
AudioLeadIn: 0
PreviewTime: 64119
Countdown: 0
SampleSet: Soft
StackLeniency: 0.3
Mode: 0
LetterboxInBreaks: 0
WidescreenStoryboard: 0

[Editor]
Bookmarks: 17363,36560,55757,65356,84552,94752,113949,133146,152343,171541,181139,185939,190738,195537,200337
DistanceSpacing: 1
BeatDivisor: 12
GridSize: 32
TimelineZoom: 1.5

[Metadata]
Title:MARCH
TitleUnicode:MARCH
Artist:Miracle Chimpanzee
ArtistUnicode:ミラクルチンパンジー
Creator:Flask
Version:No Time to Blink, Our Time to Link
Source:映画「佐々木と宮野―卒業編―」
Tags:sasamiya eiga sasaki to miyano sotsugyou hen and miyano: Graduation graduate anime movie jpop pop j-pop 佐々木 秀鳴 shyuumei shuumei 宮野 由美 yoshikazu 平野 大河 hirano taiga 鍵浦 昭 kagiura akira 大西洋平 澁江夏奈 mirakuru chinpanji alevi japanese bl boys boys' love 少年愛 shounen shonen shōnen ai
BeatmapID:4014174
BeatmapSetID:1941054

[Difficulty]
HPDrainRate:5
CircleSize:4
OverallDifficulty:8
ApproachRate:9
SliderMultiplier:3.2
SliderTickRate:1

[Events]
//Background and Video events
0,0,"kv2 (1).jpg",0,0
//Break Periods
//Storyboard Layer 0 (Background)
//Storyboard Layer 1 (Fail)
//Storyboard Layer 2 (Pass)
//Storyboard Layer 3 (Foreground)
//Storyboard Layer 4 (Overlay)
//Storyboard Sound Samples

[TimingPoints]
2965,599.916011758354,4,2,1,40,1,0
4164,-333.333333333333,4,2,1,20,0,0
5364,-166.666666666667,4,2,1,40,0,0
13463,-200,4,2,1,40,0,0
13513,-200,4,2,1,5,0,0
17362,-166.666666666667,4,2,2,50,0,0
38060,-166.666666666667,4,2,2,20,0,0
38110,-166.666666666667,4,2,2,50,0,0
38660,-166.666666666667,4,2,2,5,0,0
38710,-166.666666666667,4,2,2,50,0,0
42859,-166.666666666667,4,2,2,20,0,0
42909,-166.666666666667,4,2,2,50,0,0
43459,-166.666666666667,4,2,2,5,0,0
43509,-166.666666666667,4,2,2,50,0,0
47658,-166.666666666667,4,2,2,20,0,0
47708,-166.666666666667,4,2,2,50,0,0
48258,-166.666666666667,4,2,2,5,0,0
48308,-166.666666666667,4,2,2,50,0,0
54257,-333.333333333333,4,2,2,50,0,0
54307,-333.333333333333,4,2,2,5,0,0
55457,-333.333333333333,4,2,2,50,0,0
55607,-333.333333333333,4,2,1,60,0,0
55757,-125,4,2,1,60,0,0
64155,-500,4,2,1,50,0,0
65356,-83.3333333333333,4,2,1,75,0,1
65654,-100,4,2,1,75,0,1
67754,-83.3333333333333,4,2,1,75,0,1
68054,-100,4,2,1,75,0,1
68354,-100,4,2,1,75,0,1
69105,-71.4285714285714,4,2,1,75,0,1
69854,-166.666666666667,4,2,1,75,0,1
70154,-83.3333333333333,4,2,1,75,0,1
70454,-100,4,2,1,75,0,1
72553,-83.3333333333333,4,2,1,75,0,1
72853,-100,4,2,1,75,0,1
73153,-83.3333333333333,4,2,1,75,0,1
73753,-100,4,2,1,75,0,1
74053,-83.3333333333333,4,2,1,75,0,1
74653,-166.666666666667,4,2,1,75,0,1
74953,-83.3333333333333,4,2,1,75,0,1
75253,-100,4,2,1,75,0,1
76003,-83.3333333333333,4,2,1,75,0,1
76453,-100,4,2,1,75,0,1
77353,-83.3333333333333,4,2,1,75,0,1
77803,-100,4,2,1,75,0,1
78103,-71.4285714285714,4,2,1,75,0,1
78553,-100,4,2,1,75,0,1
78853,-83.3333333333333,4,2,1,75,0,1
79453,-166.666666666667,4,2,1,75,0,1
79752,-83.3333333333333,4,2,1,75,0,1
80052,-100,4,2,1,75,0,1
80802,-83.3333333333333,4,2,1,75,0,1
81252,-100,4,2,1,75,0,1
82452,-83.3333333333333,4,2,1,75,0,1
82752,-71.4285714285714,4,2,1,75,0,1
83652,-100,4,2,1,75,0,1
84252,-166.666666666667,4,2,1,75,0,1
84552,-71.4285714285714,4,2,1,75,0,1
84852,-100,4,2,1,75,0,1
85452,-71.4285714285714,4,2,1,75,0,1
85752,-83.3333333333333,4,2,1,75,0,1
86052,-100,4,2,1,75,0,1
87251,-83.3333333333333,4,2,1,75,0,1
87551,-71.4285714285714,4,2,1,75,0,1
88051,-100,4,2,1,75,0,1
89051,-166.666666666667,4,2,1,75,0,1
89351,-83.3333333333333,4,2,1,75,0,1
89651,-100,4,2,1,75,0,1
90251,-71.4285714285714,4,2,1,75,0,1
90551,-83.3333333333333,4,2,1,75,0,1
90851,-100,4,2,1,75,0,1
91751,-71.4285714285714,4,2,1,75,0,1
92051,-100,4,2,1,75,0,1
92351,-83.3333333333333,4,2,1,75,0,1
92951,-100,4,2,1,75,0,1
93251,-83.3333333333333,4,2,1,75,0,1
93851,-333.333333333333,4,2,1,75,0,1
94152,-100,4,2,1,5,0,0
94752,599.916011758354,4,2,1,60,1,0
94752,-111.111111111111,4,2,1,60,0,0
95951,-90.9090909090909,4,2,1,60,0,0
96251,-111.111111111111,4,2,1,60,0,0
96551,-142.857142857143,4,2,1,60,0,0
97051,-111.111111111111,4,2,1,60,0,0
99251,-200,4,2,1,60,0,0
99551,-111.111111111111,4,2,1,60,0,0
101651,-90.9090909090909,4,2,1,60,0,0
101950,-111.111111111111,4,2,1,60,0,0
104050,-200,4,2,1,60,0,0
104350,-111.111111111111,4,2,1,60,0,0
106450,-90.9090909090908,4,2,1,60,0,0
106750,-111.111111111111,4,2,1,60,0,0
108250,-90.9090909090909,4,2,1,60,0,0
108550,-111.111111111111,4,2,1,60,0,0
111249,-90.9090909090909,4,2,1,60,0,0
111549,-111.111111111111,4,2,1,60,0,0
112149,-90.9090909090909,4,2,1,60,0,0
112649,-111.111111111111,4,2,1,60,0,0
113349,-76.9230769230769,4,2,1,60,0,0
113424,-76.9230769230769,4,2,1,60,0,0
113799,-111.111111111111,4,2,1,60,0,0
113949,-250,4,2,1,50,0,0
131646,-200,4,2,1,60,0,0
132546,-166.666666666667,4,2,1,60,0,0
132846,-142.857142857143,4,2,1,60,0,0
133146,-125,4,2,1,60,0,0
142744,-111.111111111111,4,2,1,70,0,0
147543,-111.111111111111,4,2,1,60,0,0
148143,-111.111111111111,4,2,1,65,0,0
148743,-111.111111111111,4,2,1,75,0,0
149343,-111.111111111111,4,2,1,85,0,0
149943,-500,4,2,1,60,0,0
152343,-71.4285714285714,4,2,1,85,0,1
152642,-83.3333333333333,4,2,1,85,0,1
153393,-71.4285714285714,4,2,1,85,0,1
153842,-83.3333333333333,4,2,1,85,0,1
154742,-71.4285714285714,4,2,1,85,0,1
155042,-83.3333333333333,4,2,1,85,0,1
155493,-62.5,4,2,1,85,0,1
155793,-83.3333333333333,4,2,1,85,0,1
156093,-71.4285714285714,4,2,1,85,0,1
156542,-83.3333333333333,4,2,1,85,0,1
157143,-71.4285714285714,4,2,1,85,0,1
157443,-83.3333333333333,4,2,1,85,0,1
158193,-62.5,4,2,1,85,0,1
158643,-71.4285714285714,4,2,1,85,0,1
158943,-83.3333333333333,4,2,1,85,0,1
159542,-71.4285714285714,4,2,1,85,0,1
159842,-83.3333333333333,4,2,1,85,0,1
161042,-71.4285714285714,4,2,1,85,0,1
161642,-166.666666666667,4,2,1,85,0,1
161942,-71.4285714285714,4,2,1,85,0,1
162242,-83.3333333333333,4,2,1,85,0,1
162992,-71.4285714285714,4,2,1,85,0,1
163442,-83.3333333333333,4,2,1,85,0,1
164342,-71.4285714285714,4,2,1,85,0,1
164642,-83.3333333333333,4,2,1,85,0,1
165091,-62.5,4,2,1,85,0,1
165391,-83.3333333333333,4,2,1,85,0,1
165691,-71.4285714285714,4,2,1,85,0,1
166142,-83.3333333333333,4,2,1,85,0,1
166741,-71.4285714285714,4,2,1,85,0,1
167041,-83.3333333333333,4,2,1,85,0,1
167791,-71.4285714285714,4,2,1,85,0,1
168241,-83.3333333333333,4,2,1,85,0,1
169441,-71.4285714285714,4,2,1,85,0,1
169741,-62.5,4,2,1,85,0,1
170041,-71.4285714285714,4,2,1,85,0,1
171241,-83.3333333333333,4,2,1,85,0,1
171541,-71.4285714285714,4,2,1,85,0,1
171841,-83.3333333333333,4,2,1,85,0,1
172441,-62.5,4,2,1,85,0,1
172741,-71.4285714285714,4,2,1,85,0,1
173041,-83.3333333333333,4,2,1,85,0,1
174540,-71.4285714285714,4,2,1,85,0,1
176040,-166.666666666667,4,2,1,85,0,1
176340,-71.4285714285714,4,2,1,85,0,1
176640,-83.3333333333333,4,2,1,85,0,1
177240,-71.4285714285714,4,2,1,85,0,1
177840,-83.3333333333333,4,2,1,85,0,1
179040,-71.4285714285714,4,2,1,85,0,1
179340,-62.5,4,2,1,85,0,1
179940,-83.3333333333333,4,2,1,85,0,1
180240,-71.4285714285714,4,2,1,85,0,1
180539,-62.5,4,2,1,55,0,1
180589,-62.5,4,2,1,85,0,1
180839,-83.3333333333333,4,2,1,85,0,1
181039,-100,4,2,1,85,0,0
181139,-62.5,4,2,1,85,0,1
181439,-71.4285714285714,4,2,1,85,0,1
182039,-62.5,4,2,1,85,0,1
182639,-71.4285714285714,4,2,1,85,0,1
182939,-83.3333333333333,4,2,1,85,0,1
183239,-62.5,4,2,1,85,0,1
183539,-71.4285714285714,4,2,1,85,0,1
185939,-62.5,4,2,1,85,0,1
186239,-71.4285714285714,4,2,1,85,0,1
187139,-62.5,4,2,1,85,0,1
188038,-83.3333333333333,4,2,1,85,0,1
188338,-71.4285714285714,4,2,1,85,0,1
188938,-62.5,4,2,1,85,0,1
189238,-71.4285714285714,4,2,1,85,0,1
190738,-62.5,4,2,1,85,0,1
191038,-71.4285714285714,4,2,1,85,0,1
191638,-62.5,4,2,1,85,0,1
192238,-71.4285714285714,4,2,1,85,0,1
193138,-62.5,4,2,1,85,0,1
193438,-71.4285714285714,4,2,1,85,0,1
193738,-83.3333333333333,4,2,1,85,0,1
194238,-71.4285714285714,4,2,1,85,0,1
195537,-62.5,4,2,1,85,0,1
195837,-71.4285714285714,4,2,1,85,0,1
196437,-62.5,4,2,1,85,0,1
197037,-71.4285714285714,4,2,1,85,0,1
197937,-100,4,2,1,85,0,1
198237,-83.3333333333333,4,2,1,85,0,1
198537,-71.4285714285714,4,2,1,85,0,1
198837,-62.5,4,2,1,85,0,1
199137,-55.5555555555556,4,2,1,85,0,1
199737,-55.5555555555556,4,2,1,70,0,1
200037,-55.5555555555556,4,2,1,55,0,1
200337,-333.333333333333,4,2,1,40,0,0
202836,-200,4,2,1,40,0,0
202886,-200,4,2,1,5,0,0

[Colours]
Combo1 : 45,187,255
Combo2 : 173,255,91
Combo3 : 255,255,89
Combo4 : 255,149,149
Combo5 : 255,179,102

[HitObjects]
116,62,4164,6,0,P|166:65|178:107,1,95.9999970703126,0|2,0:0|0:0,0:0:0:0:
188,116,5364,6,0,P|170:170|166:210,1,95.9999970703126,2|0,0:0|0:0,0:0:0:0:
156,221,5814,1,2,0:0:0:0:
193,298,6114,1,2,0:0:0:0:
144,367,6414,2,0,P|207:326|274:356,1,143.999995605469,2|0,0:0|0:0,0:0:0:0:
267,348,7164,2,0,P|310:332|318:287,1,95.9999970703126,0|2,0:0|0:0,0:0:0:0:
485,303,7664,5,0,0:0:0:0:
497,291,7764,2,0,P|457:287|429:239,1,95.9999970703126,2|0,0:0|0:0,0:0:0:0:
420,230,8264,1,2,0:0:0:0:
447,141,8564,1,2,0:0:0:0:
474,52,8864,2,0,P|474:17|462:48,2,95.9999970703126,0|2|2,0:0|0:0|0:0,0:0:0:0:
217,241,10163,6,0,P|168:254|125:279,1,95.9999970703126,2|0,0:0|0:0,0:0:0:0:
108,274,10663,1,2,0:0:0:0:
43,216,10963,1,2,0:0:0:0:
86,90,11263,2,0,P|122:111|122:197,1,127.99999609375,2|0,0:0|0:0,0:0:0:0:
1,132,11963,2,0,P|22:102|82:105,1,95.9999970703126,0|2,0:0|0:0,0:0:0:0:
216,32,12563,5,2,0:0:0:0:
283,81,12863,1,0,0:0:0:0:
368,15,13163,1,2,0:0:0:0:
454,126,13463,2,0,B|505:110|541:150|542:230|474:254|442:213|407:253|403:286|403:286|408:253|386:213|334:235|300:169|310:110|396:83|421:141,1,533.333333333333,2|0,0:0|0:0,0:0:0:0:
84,337,17362,5,2,3:2:0:0:
84,337,17962,2,0,P|89:310|108:268,1,63.9999980468751,8|0,0:0|0:0,0:0:0:0:
97,266,18262,1,2,0:0:0:0:
210,235,18462,2,0,P|177:212|149:123,1,127.99999609375,0|0,0:0|3:0,0:0:0:0:
184,351,19162,1,0,0:0:0:0:
184,351,19362,2,0,P|224:329|278:317,1,95.9999970703126
283,310,19762,1,2,3:2:0:0:
499,151,20362,6,0,P|496:122|468:97,1,63.9999980468751,8|0,0:0|0:0,0:0:0:0:
459,23,20662,2,0,P|432:11|396:22,1,63.9999980468751,2|0,0:0|0:0,0:0:0:0:
340,69,20962,2,0,L|233:43,1,95.9999970703126,0|0,0:0|3:0,0:0:0:0:
43,22,21562,2,0,L|61:90,1,63.9999980468751
159,115,22062,1,0,0:0:0:0:
159,115,22162,1,2,3:2:0:0:
31,350,22762,6,0,P|45:301|97:291,1,95.9999970703126,8|2,0:0|0:0,0:0:0:0:
150,328,23262,2,0,L|279:302,1,127.99999609375,0|0,0:0|3:0,0:0:0:0:
456,365,23962,1,0,0:0:0:0:
386,302,24262,1,2,0:0:0:0:
426,182,24561,2,0,B|426:98|388:142|382:54,1,127.99999609375,2|0,3:2|0:0,0:0:0:0:
383,65,25161,1,8,0:0:0:0:
184,58,25461,1,2,0:0:0:0:
184,58,26061,5,0,3:0:0:0:
149,133,26361,2,2,B|200:139|220:193|220:193|214:135|258:97,1,191.999994140625,2|0,0:0|3:2,0:0:0:0:
247,106,27561,6,0,L|294:154,1,63.9999980468751,8|0,0:0|0:0,0:0:0:0:
376,137,27861,2,0,L|360:216,1,63.9999980468751,2|0,0:0|0:0,0:0:0:0:
414,259,28161,1,0,0:0:0:0:
240,344,28461,1,0,3:0:0:0:
399,340,28761,1,2,0:0:0:0:
399,340,28961,2,0,P|351:317|305:305,1,95.9999970703126
302,295,29361,1,2,3:2:0:0:
61,67,29961,6,0,P|43:51|55:72,1,63.9999980468751,8|0,0:0|0:0,0:0:0:0:
126,128,30261,2,0,P|144:112|132:133,1,63.9999980468751,2|0,0:0|0:0,0:0:0:0:
70,191,30561,1,0,0:0:0:0:
153,270,30861,1,0,3:0:0:0:
48,374,31161,1,0,0:0:0:0:
48,374,31361,2,0,P|40:329|25:274,1,95.9999970703126
29,266,31760,1,2,3:2:0:0:
244,64,32360,6,0,L|305:82,1,63.9999980468751,8|0,0:0|0:0,0:0:0:0:
326,78,32660,1,2,0:0:0:0:
447,190,32960,2,0,P|491:162|483:105,1,95.9999970703126,2|0,0:0|3:0,0:0:0:0:
512,32,33460,2,0,P|478:74|402:72,1,127.99999609375,2|2,0:0|0:0,0:0:0:0:
211,18,34160,6,0,P|169:16|153:98,1,127.99999609375,2|0,3:2|0:0,0:0:0:0:
220,94,34760,1,8,0:0:0:0:
5,141,35060,2,0,P|58:154|100:290,1,191.999994140625,2|0,0:0|3:0,0:0:0:0:
107,271,35960,1,0,0:0:0:0:
177,335,36260,1,2,0:0:0:0:
251,216,36560,6,0,B|291:199|324:229|316:239|359:276|405:250,1,159.999995117188,2|2,0:0|0:0,0:0:0:0:
411,247,37160,1,8,0:0:0:0:
511,122,37460,2,0,B|486:92|502:29|502:29|470:85|420:86,2,191.999994140625,2|0|0,0:0|0:0|0:0,0:0:0:0:
439,171,38859,1,0,0:0:0:0:
439,171,38959,1,2,0:0:0:0:
473,337,39259,6,0,P|428:339|414:385,2,95.9999970703126,2|8|2,0:0|0:0|0:0,0:0:0:0:
324,379,40159,2,0,P|278:367|260:238,1,191.999994140625,2|0,0:0|0:0,0:0:0:0:
37,44,41359,6,0,P|80:41|112:137,1,159.999995117188,2|2,0:0|0:0,0:0:0:0:
99,146,41959,1,8,0:0:0:0:
59,302,42259,2,0,P|46:360|51:298,2,191.999994140625,2|0|0,0:0|0:0|0:0,0:0:0:0:
10,200,43659,5,0,0:0:0:0:
6,187,43759,2,0,P|65:218|152:253,1,159.999995117188,2|0,0:0|0:0,0:0:0:0:
159,266,44359,1,8,0:0:0:0:
262,380,44659,2,0,P|339:336|444:322,1,191.999994140625,2|0,0:0|0:0,0:0:0:0:
440,321,45559,1,2,0:0:0:0:
494,213,45858,1,2,0:0:0:0:
381,118,46158,6,0,P|331:99|258:171,1,159.999995117188,2|2,0:0|0:0,0:0:0:0:
246,171,46758,1,8,0:0:0:0:
186,62,47058,2,0,B|143:12|143:12|208:-1|208:-1|186:63,2,191.999994140625,2|0|0,0:0|0:0|0:0,0:0:0:0:
292,23,48458,1,0,0:0:0:0:
299,12,48558,1,2,0:0:0:0:
53,128,49158,5,8,0:0:0:0:
93,204,49458,1,2,0:0:0:0:
7,275,49758,2,0,P|51:299|87:336,1,95.9999970703126,2|0,0:0|0:0,0:0:0:0:
227,195,50358,2,0,P|201:235|188:353,1,159.999995117188,2|0,0:0|0:0,0:0:0:0:
179,358,50958,5,2,0:0:0:0:
426,252,51458,1,2,0:0:0:0:
419,232,51558,1,8,0:0:0:0:
480,82,51858,1,2,0:0:0:0:
472,92,52308,5,2,0:0:0:0:
414,138,52408,2,0,P|385:140|353:100,1,79.9999975585938,2|0,0:0|0:0,0:0:0:0:
349,88,52758,1,2,0:0:0:0:
288,205,53057,1,0,0:0:0:0:
227,322,53357,6,0,P|198:251|118:250,1,159.999995117188,2|0,0:0|0:0,0:0:0:0:
111,259,53957,1,8,0:0:0:0:
0,352,54257,6,0,L|36:159,1,191.999994140625,2|0,0:0|0:0,0:0:0:0:
27,18,55607,5,4,0:3:0:0:
27,18,55682,1,4,0:3:0:0:
27,18,55757,2,0,P|37:58|113:92,1,128,10|0,0:0|0:0,0:0:0:0:
121,87,56207,1,8,0:0:0:0:
185,34,56357,2,0,P|217:43|259:51,1,64,2|0,0:0|0:0,0:0:0:0:
146,191,56657,6,0,P|204:172|287:156,1,128,8|0,0:0|0:0,0:0:0:0:
332,229,57106,2,0,P|355:209|352:157,2,64,8|0|0,0:0|0:0|0:0,0:0:0:0:
324,95,57556,1,8,0:0:0:0:
491,247,57856,5,4,0:3:0:0:
487,259,57931,1,4,0:3:0:0:
483,271,58006,1,4,0:3:0:0:
479,283,58081,1,4,0:3:0:0:
475,295,58156,6,0,P|444:305|415:316,1,64,10|2,0:0|0:0,0:0:0:0:
404,316,58456,1,0,0:0:0:0:
249,369,58606,2,0,P|208:341|205:252,1,128,8|2,0:0|0:0,0:0:0:0:
207,257,59056,1,8,0:0:0:0:
331,145,59206,2,0,P|311:197|289:277,1,128,2|10,0:0|0:0,0:0:0:0:
163,141,59656,2,0,P|194:150|224:162,1,64,2|2,0:0|0:0,0:0:0:0:
109,316,59957,6,0,P|68:304|31:322,1,85.3333333333333,10|2,0:0|0:0,0:0:0:0:
22,333,60256,1,2,0:0:0:0:
119,310,60406,5,4,0:3:0:0:
126,305,60481,1,4,0:3:0:0:
133,301,60556,2,0,P|114:242|94:154,1,128,10|2,0:0|0:0,0:0:0:0:
86,171,61006,1,8,0:0:0:0:
8,60,61156,2,0,P|37:79|80:90,1,64,2|0,0:0|0:0,0:0:0:0:
264,56,61456,6,0,P|205:67|146:122,1,128,8|0,0:0|0:0,0:0:0:0:
322,125,61906,1,8,0:0:0:0:
393,70,62056,2,0,P|381:45|365:0,1,64
263,191,62356,6,0,P|289:260|317:380,1,192,8|0,0:0|3:0,0:0:0:0:
316,374,62881,2,0,L|331:339,1,32,0|2,3:0|0:0,0:0:0:0:
213,352,63555,5,2,0:0:0:0:
218,346,63605,2,0,L|184:335,1,21.3333333333333,2|2,0:0|0:0,0:0:0:0:
449,252,64155,6,0,B|472:231|472:231|480:263,1,64,2|2,0:0|0:0,0:0:0:0:
480,263,65356,6,0,P|430:245|410:154,1,127.99999609375,4|0,3:2|0:0,0:0:0:0:
427,74,65656,2,0,P|452:81|471:100,1,53.3333333333333,2|0,1:2|0:0,0:0:0:0:
308,69,65855,1,2,0:0:0:0:
338,0,65955,2,0,P|315:47|260:52,1,106.666666666667,8|2,0:0|0:0,0:0:0:0:
201,15,66255,1,2,1:2:0:0:
74,244,66456,6,0,P|158:259|245:287,1,160,2|0,3:2|0:0,0:0:0:0:
146,79,66855,2,0,P|114:116|71:156,1,106.666666666667,2|0,3:2|0:0,0:0:0:0:
262,195,67155,2,0,P|245:148|232:91,1,106.666666666667,8|0,0:0|0:0,0:0:0:0:
167,179,67455,1,2,1:2:0:0:
255,318,67655,6,0,L|269:353,1,26.6666666666667,2|0,1:2|0:0,0:0:0:0:
262,353,67755,2,0,P|324:357|355:298,1,127.99999609375,2|0,3:2|0:0,0:0:0:0:
414,244,68055,2,0,P|388:234|366:218,1,53.3333333333333,2|0,1:2|0:0,0:0:0:0:
264,91,68255,1,2,1:2:0:0:
329,46,68355,2,0,P|345:81|340:114,1,53.3333333333333,8|0,0:0|0:0,0:0:0:0:
185,74,68555,6,0,P|218:26|277:13,1,106.666666666667,2|0,3:2|0:0,0:0:0:0:
300,166,68855,2,0,P|249:173|193:137,1,106.666666666667,2|0,3:2|0:0,0:0:0:0:
16,189,69155,2,0,P|89:193|167:237,1,149.333328776042,2|0,0:0|0:0,0:0:0:0:
148,376,69455,1,2,0:0:0:0:
139,367,69555,5,8,1:2:0:0:
128,319,69655,5,0,1:0:0:0:
77,305,69755,5,0,1:0:0:0:
37,339,69855,6,0,P|8:324|0:294,1,63.9999980468751,0|0,1:0|1:0,0:0:0:0:
223,368,70155,6,0,P|275:352|293:272,1,127.99999609375,2|0,3:2|0:0,0:0:0:0:
251,222,70455,2,0,L|262:161,1,53.3333333333333,2|0,1:2|0:0,0:0:0:0:
331,33,70655,1,2,0:0:0:0:
331,33,70755,2,0,P|369:38|385:109,1,106.666666666667,8|2,0:0|0:0,0:0:0:0:
312,107,71055,1,2,1:2:0:0:
398,370,71255,6,0,P|372:332|428:243,1,160,2|0,3:2|0:0,0:0:0:0:
304,348,71655,2,0,P|359:340|399:372,1,106.666666666667,2|0,3:2|0:0,0:0:0:0:
503,223,71955,2,0,P|422:203|345:173,1,160,8|2,0:0|1:2,0:0:0:0:
26,181,72455,6,0,L|15:207,1,26.6666666666667,2|0,1:2|0:0,0:0:0:0:
5,218,72554,2,0,L|127:171,1,127.99999609375,2|0,3:2|0:0,0:0:0:0:
218,117,72854,6,0,L|199:234,1,106.666666666667,2|0,1:2|0:0,0:0:0:0:
308,82,73154,6,0,L|207:2,1,127.99999609375,8|0,0:0|0:0,0:0:0:0:
145,61,73454,5,2,1:2:0:0:
317,212,73654,5,0,3:0:0:0:
376,258,73754,2,0,P|329:252|281:291,1,106.666666666667,0|2,3:0|1:2,0:0:0:0:
126,352,74054,2,0,P|85:367|123:346,1,127.99999609375,2|0,3:2|0:0,0:0:0:0:
225,377,74354,5,8,1:2:0:0:
209,334,74454,5,0,1:0:0:0:
193,290,74554,5,0,1:0:0:0:
177,248,74654,6,0,L|193:185,1,63.9999980468751,2|0,1:1|0:0,0:0:0:0:
138,16,74954,6,0,P|87:17|57:89,1,127.99999609375,2|0,3:2|0:0,0:0:0:0:
0,141,75254,2,0,P|22:166|30:189,1,53.3333333333333,2|0,1:2|0:0,0:0:0:0:
144,197,75454,1,2,0:0:0:0:
211,149,75554,2,0,P|183:202|176:251,1,106.666666666667,8|2,0:0|0:0,0:0:0:0:
120,300,75854,1,2,1:2:0:0:
92,70,76054,6,0,B|154:88|187:49|176:34|216:0|278:24,1,191.999994140625,2|0,3:2|0:0,0:0:0:0:
477,42,76454,6,0,P|478:94|424:118,1,106.666666666667,2|0,3:2|0:0,0:0:0:0:
391,186,76754,2,0,P|346:212|298:178,1,106.666666666667,8|0,0:0|0:0,0:0:0:0:
223,183,77054,2,0,P|177:157|183:99,1,106.666666666667,2|2,0:2|0:0,0:0:0:0:
341,33,77354,6,0,P|315:103|302:191,1,159.999995117188,2|0,3:2|0:0,0:0:0:0:
300,199,77654,1,2,1:2:0:0:
344,362,77854,1,2,0:0:0:0:
344,362,77954,2,0,P|378:352|394:329,1,53.3333333333333,10|0,0:0|0:0,0:0:0:0:
219,248,78154,6,0,P|224:338|275:364,1,149.333328776042,2|0,0:0|0:0,0:0:0:0:
422,270,78454,5,2,3:2:0:0:
382,201,78554,2,0,P|320:188|278:170,1,106.666666666667,0|2,3:0|0:0,0:0:0:0:
139,135,78854,6,0,P|193:112|258:64,1,127.99999609375,0|2,3:0|0:0,0:0:0:0:
61,194,79154,5,8,1:2:0:0:
12,183,79254,5,0,1:0:0:0:
0,130,79354,5,0,1:0:0:0:
35,93,79454,6,0,L|27:24,1,63.9999980468751,0|0,1:0|1:0,0:0:0:0:
251,0,79753,6,0,P|314:29|326:86,1,127.99999609375,2|0,3:2|0:0,0:0:0:0:
393,127,80053,2,0,P|375:149|354:161,1,53.3333333333333,2|0,1:2|0:0,0:0:0:0:
271,257,80253,1,2,0:0:0:0:
271,257,80353,2,0,P|222:235|217:183,1,106.666666666667,8|2,0:0|0:0,0:0:0:0:
260,123,80653,1,2,1:2:0:0:
379,256,80854,6,0,P|289:291|209:343,1,191.999994140625,2|0,3:2|0:0,0:0:0:0:
32,358,81253,2,0,P|83:361|112:315,1,106.666666666667,2|0,3:2|0:0,0:0:0:0:
14,270,81553,2,0,P|-14:312|11:360,1,106.666666666667,8|0,0:0|0:0,0:0:0:0:
92,243,81853,1,2,1:2:0:0:
362,54,82053,6,0,L|353:23,1,26.6666666666667,2|0,0:0|0:0,0:0:0:0:
344,17,82153,2,0,P|294:36|282:88,1,106.666666666667,2|0,3:2|0:0,0:0:0:0:
148,129,82453,6,0,P|200:131|223:210,1,127.99999609375,2|0,1:2|0:0,0:0:0:0:
380,256,82753,6,0,B|343:245|308:273|316:283|288:317|243:302,1,149.333328776042,8|0,0:0|0:0,0:0:0:0:
183,258,83053,1,2,1:2:0:0:
447,354,83253,5,0,3:0:0:0:
471,340,83353,1,0,3:0:0:0:
476,139,83553,1,2,1:2:0:0:
507,208,83653,2,0,L|386:161,1,106.666666666667,2|0,3:2|0:0,0:0:0:0:
337,47,83953,5,8,1:2:0:0:
296,67,84053,5,0,1:0:0:0:
250,58,84153,5,0,1:0:0:0:
224,25,84253,6,0,L|159:37,1,63.9999980468751,2|0,1:1|0:0,0:0:0:0:
46,172,84553,6,0,P|38:124|50:170,1,149.333328776042,4|0,3:2|0:0,0:0:0:0:
89,327,84853,2,0,P|99:339|90:326,1,53.3333333333333,2|0,1:2|0:0,0:0:0:0:
15,263,85053,1,2,0:2:0:0:
15,263,85153,2,0,P|67:247|138:223,1,106.666666666667,8|0,0:0|0:0,0:0:0:0:
237,184,85453,6,0,P|212:254|190:325,1,149.333328776042,2|0,1:2|3:0,0:0:0:0:
369,174,85753,6,0,P|320:130|275:72,1,127.99999609375,2|0,3:2|0:0,0:0:0:0:
215,41,86053,2,0,P|202:70|204:95,1,53.3333333333333,2|0,3:2|0:0,0:0:0:0:
384,260,86253,1,2,0:0:0:0:
384,260,86353,2,0,P|424:243|448:176,1,106.666666666667,8|0,0:0|0:0,0:0:0:0:
501,37,86653,2,0,B|480:14|483:-13|483:-13|473:14|436:27,1,106.666666666667,2|2,1:2|0:0,0:0:0:0:
404,98,86952,6,0,P|459:110|521:131,1,106.666666666667,2|0,3:2|0:0,0:0:0:0:
356,11,87252,6,0,P|297:32|223:45,1,127.99999609375,2|0,1:2|0:0,0:0:0:0:
133,122,87552,6,0,P|202:139|295:179,1,149.333328776042,8|0,0:0|0:0,0:0:0:0:
341,209,87852,1,2,1:2:0:0:
113,37,88052,5,0,3:0:0:0:
113,37,88152,2,0,P|68:51|39:111,1,106.666666666667,0|0,3:0|1:0,0:0:0:0:
14,173,88452,5,2,3:2:0:0:
140,256,88602,1,2,0:0:0:0:
6,324,88752,1,10,0:0:0:0:
53,251,88902,1,2,0:0:0:0:
176,365,89052,6,0,P|206:358|240:352,1,63.9999980468751,2|0,1:1|0:0,0:0:0:0:
496,364,89352,6,0,P|483:310|470:235,1,127.99999609375,2|0,3:2|0:0,0:0:0:0:
310,302,89652,2,0,P|319:338|324:369,1,53.3333333333333,2|0,1:2|0:0,0:0:0:0:
404,314,89852,1,2,0:0:0:0:
404,314,89952,1,8,0:0:0:0:
220,164,90152,5,0,0:0:0:0:
247,93,90252,2,0,P|292:134|273:220,1,149.333328776042,2|0,1:2|3:0,0:0:0:0:
142,156,90552,6,0,P|177:98|237:88,1,127.99999609375,2|0,3:2|0:0,0:0:0:0:
213,244,90852,2,0,P|184:240|161:220,1,53.3333333333333,2|0,3:2|0:0,0:0:0:0:
0,101,91052,1,2,0:0:0:0:
0,101,91152,2,0,P|51:95|102:63,1,106.666666666667,8|0,0:0|0:0,0:0:0:0:
282,37,91452,2,0,P|309:36|278:32,1,106.666666666667,2|0,1:2|1:0,0:0:0:0:
159,0,91752,6,0,P|199:69|208:155,1,149.333328776042,2|0,3:2|0:0,0:0:0:0:
227,259,92052,6,0,P|182:218|135:199,1,106.666666666667,2|0,1:2|0:0,0:0:0:0:
217,367,92352,6,0,P|264:340|344:319,1,127.99999609375,8|0,0:0|0:0,0:0:0:0:
410,325,92652,1,2,1:2:0:0:
477,73,92852,5,0,3:0:0:0:
449,2,92952,2,0,P|409:14|404:76,1,106.666666666667,0|0,3:0|0:0,0:0:0:0:
309,141,93252,6,0,P|320:191|393:206,1,127.99999609375,2|0,3:2|0:0,0:0:0:0:
498,384,93552,5,10,1:2:0:0:
512,330,93652,5,0,1:0:0:0:
473,295,93752,5,0,1:0:0:0:
421,305,93852,6,0,L|371:321,1,47.9999985351563,2|0,0:1|0:0,0:0:0:0:
64,54,94752,5,4,3:2:0:0:
64,54,95351,2,0,P|91:62|123:70,1,47.9999985351563,10|0,0:2|0:0,0:0:0:0:
18,132,95551,2,0,P|74:144|124:160,1,95.9999970703126,2|0,0:0|0:0,0:0:0:0:
131,316,95851,5,2,0:0:0:0:
131,316,95951,2,0,P|166:327|207:257,1,117.333336914063,2|0,1:2|0:0,0:0:0:0:
290,262,96251,6,0,P|312:241|278:181,1,95.9999970703126,2|0,3:2|0:0,0:0:0:0:
335,118,96551,6,0,P|329:94|276:93,1,74.6666643880209,10|0,0:2|0:0,0:0:0:0:
275,90,96851,1,0,1:0:0:0:
448,35,97051,6,0,L|481:24,1,23.9999992675781,2|0,0:0|0:0,0:0:0:0:
484,12,97151,2,0,L|452:165,1,143.999995605469,2|0,3:2|1:0,0:0:0:0:
454,152,97751,1,10,0:2:0:0:
416,272,97951,1,2,0:0:0:0:
396,245,98051,1,2,0:0:0:0:
279,338,98251,5,8,0:0:0:0:
349,371,98351,2,0,L|242:345,1,95.9999970703126,2|0,1:2|3:0,0:0:0:0:
173,367,98651,2,0,L|133:278,1,95.9999970703126,2|0,3:2|0:0,0:0:0:0:
216,148,98951,1,10,0:2:0:0:
23,229,99151,5,2,0:0:0:0:
94,200,99251,2,0,L|146:178,1,53.3333333333333,2|0,1:0|0:0,0:0:0:0:
291,123,99551,5,2,3:2:0:0:
291,123,99851,1,0,1:2:0:0:
83,17,100151,6,0,P|44:30|27:85,1,95.9999970703126,10|2,0:2|0:0,0:0:0:0:
190,103,100451,2,0,P|198:62|159:20,1,95.9999970703126,2|0,1:2|0:0,0:0:0:0:
74,149,100751,2,0,P|100:154|137:166,1,47.9999985351563,2|0,1:2|0:0,0:0:0:0:
390,38,101051,5,2,3:2:0:0:
329,113,101251,1,2,0:0:0:0:
309,94,101351,1,10,0:2:0:0:
465,176,101551,1,2,0:0:0:0:
500,107,101651,2,0,P|483:169|469:230,1,117.333336914063,2|0,1:2|0:0,0:0:0:0:
352,350,101950,6,0,P|319:336|303:235,1,143.999995605469,2|0,3:2|1:0,0:0:0:0:
313,250,102450,1,2,0:0:0:0:
313,250,102550,2,0,P|348:239|415:221,1,95.9999970703126,10|0,0:2|0:0,0:0:0:0:
407,68,102850,1,2,3:2:0:0:
344,107,102950,2,0,P|320:104|297:89,1,47.9999985351563,0|0,3:0|3:0,0:0:0:0:
264,26,103150,6,0,P|225:26|195:71,1,95.9999970703126,0|0,1:0|3:0,0:0:0:0:
79,170,103450,5,2,3:2:0:0:
31,161,103550,5,2,0:0:0:0:
14,115,103650,5,2,0:0:0:0:
36,72,103750,6,0,P|32:53|23:18,1,47.9999985351563,10|0,0:2|0:0,0:0:0:0:
127,242,103950,5,2,0:0:0:0:
183,189,104050,2,0,P|189:162|200:135,1,53.3333333333333,2|0,1:1|0:0,0:0:0:0:
40,21,104350,5,2,3:2:0:0:
40,21,104650,1,0,1:0:0:0:
239,51,104950,2,0,P|284:72|340:81,1,95.9999970703126,10|2,0:2|0:0,0:0:0:0:
392,198,105250,2,0,P|356:183|293:174,1,95.9999970703126,2|2,0:0|0:0,0:0:0:0:
439,63,105550,2,0,P|405:136|390:208,1,143.999995605469,2|2,1:2|3:2,0:0:0:0:
494,326,106050,5,0,0:0:0:0:
494,326,106150,2,0,L|389:350,1,95.9999970703126,10|2,0:2|0:0,0:0:0:0:
246,375,106450,2,0,L|218:256,1,117.333336914063,2|2,1:2|3:2,0:0:0:0:
297,246,106750,6,0,L|321:346,1,95.9999970703126,2|0,3:2|1:0,0:0:0:0:
324,351,107050,1,0,1:0:0:0:
66,266,107350,1,10,0:2:0:0:
66,266,107550,1,2,0:0:0:0:
123,192,107650,2,0,P|85:186|22:163,1,95.9999970703126,2|0,0:0|0:0,0:0:0:0:
18,363,107950,6,0,P|60:347|123:339,1,95.9999970703126,2|0,1:2|3:0,0:0:0:0:
267,379,108250,2,0,P|310:355|305:289,1,117.333336914063,2|0,3:2|0:0,0:0:0:0:
201,320,108550,1,10,0:2:0:0:
358,229,108750,1,2,3:2:0:0:
376,236,108850,1,2,1:0:0:0:
253,98,109049,5,0,3:0:0:0:
320,61,109149,2,0,P|274:71|233:48,1,95.9999970703126,2|0,3:2|1:0,0:0:0:0:
179,1,109449,1,0,1:2:0:0:
61,228,109749,6,0,P|124:211|211:194,1,143.999995605469,10|2,0:2|1:2,0:0:0:0:
386,130,110249,1,2,1:2:0:0:
386,130,110349,2,0,P|357:168|311:177,1,95.9999970703126,2|0,1:2|0:0,0:0:0:0:
235,101,110649,2,0,P|237:78|248:56,1,47.9999985351563,2|0,3:2|0:0,0:0:0:0:
318,98,110849,1,2,0:0:0:0:
318,98,110949,1,10,0:2:0:0:
303,359,111149,1,2,0:0:0:0:
245,312,111249,2,0,L|364:342,1,117.333336914063,2|0,1:2|3:0,0:0:0:0:
495,378,111549,6,0,P|481:332|430:318,1,95.9999970703126,2|0,3:2|0:0,0:0:0:0:
418,245,111849,2,0,P|388:252|373:275,1,47.9999985351563,2|0,1:2|0:0,0:0:0:0:
173,331,112049,1,0,3:0:0:0:
231,384,112149,2,0,B|243:303|182:339|189:205,1,176.000005371094,10|2,0:2|3:2,0:0:0:0:
278,48,112649,5,8,0:0:0:0:
302,49,112749,2,0,P|280:59|252:74,1,47.9999985351563,0|0,1:0|0:0,0:0:0:0:
120,150,112949,1,0,3:0:0:0:
103,79,113049,2,0,P|154:81|189:133,1,95.9999970703126,2|0,3:2|3:2,0:0:0:0:
217,314,113349,6,0,L|246:172,1,138.666660319011,14|2,3:2|0:0,0:0:0:0:
327,170,113649,1,4,3:0:0:0:
331,164,113724,1,4,3:0:0:0:
335,158,113799,2,0,L|376:177,1,35.9999989013672,8|0,0:0|0:0,0:0:0:0:
124,254,113949,6,0,B|84:265|84:265|119:298|119:298|131:254,1,128,4|0,3:2|0:0,0:0:0:0:
344,267,114849,6,0,B|440:294|440:294|356:373|356:373|326:267,1,320,2|2,1:2|0:0,0:0:0:0:
294,197,116648,5,2,0:0:0:0:
249,125,116948,2,0,L|271:64,1,64,2|2,0:0|0:0,0:0:0:0:
209,195,117548,2,0,L|145:206,1,64,2|0,0:0|0:0,0:0:0:0:
334,127,118148,1,2,0:0:0:0:
334,127,118448,1,0,3:0:0:0:
170,7,118748,6,0,P|149:41|178:9,1,128,2|0,3:2|0:0,0:0:0:0:
50,136,119648,6,0,P|99:198|46:136,1,320,2|2,0:0|0:0,0:0:0:0:
193,134,121598,5,2,0:0:0:0:
268,87,122048,2,0,P|331:92|347:159,1,128,2|0,0:0|0:0,0:0:0:0:
350,146,122948,1,2,0:0:0:0:
390,312,123248,1,0,3:2:0:0:
455,263,123547,6,0,L|469:188,1,64,4|0,0:0|0:0,0:0:0:0:
466,200,123997,2,0,L|427:189,1,32,2|2,0:0|0:0,0:0:0:0:
504,53,124447,2,0,L|370:79,1,128,2|0,0:0|0:0,0:0:0:0:
351,162,125347,1,2,0:0:0:0:
351,162,125647,1,0,0:0:0:0:
245,37,125947,5,2,0:0:0:0:
245,37,126547,2,0,P|211:31|180:21,1,64,2|0,0:0|0:0,0:0:0:0:
229,186,127147,2,0,P|251:159|275:137,1,64,2|0,0:0|0:0,0:0:0:0:
108,82,127747,1,2,0:0:0:0:
118,169,128047,1,0,3:0:0:0:
72,335,128347,6,0,P|42:341|5:351,2,64,2|0|2,3:2|0:0|1:2,0:0:0:0:
126,266,129247,1,0,3:2:0:0:
49,84,129747,1,2,0:0:0:0:
36,98,129847,2,0,L|101:109,2,64,2|2|2,0:0|0:0|0:0,0:0:0:0:
173,30,130746,6,0,P|211:30|247:79,1,96,2|0,0:0|0:0,0:0:0:0:
389,210,131646,2,0,P|436:210|474:132,1,140,2|0,0:0|0:0,0:0:0:0:
474,135,132246,6,0,L|431:111,1,40,2|0,0:0|0:0,0:0:0:0:
411,23,132546,6,0,L|357:39,1,47.9999985351563,2|0,1:2|0:0,0:0:0:0:
310,171,132846,6,0,L|275:113,1,55.9999982910157,2|0,1:2|0:0,0:0:0:0:
69,33,133146,6,0,P|108:30|149:113,1,128,12|0,0:0|0:0,0:0:0:0:
77,249,133595,2,0,P|45:237|6:231,1,64,8|0,0:0|0:0,0:0:0:0:
6,235,133895,1,0,3:0:0:0:
141,177,134045,6,0,P|202:194|265:207,1,128,8|0,0:0|0:0,0:0:0:0:
277,216,134495,1,8,0:0:0:0:
403,350,134645,2,0,P|426:333|438:294,1,64
369,251,134945,2,0,P|346:268|334:307,1,64,8|0,0:0|0:0,0:0:0:0:
499,210,135245,5,4,0:3:0:0:
497,200,135320,1,4,0:3:0:0:
495,190,135395,1,4,0:3:0:0:
493,180,135470,1,4,0:3:0:0:
491,171,135545,2,0,L|420:187,1,64,8|0,0:0|0:0,0:0:0:0:
417,181,135845,1,0,3:0:0:0:
345,43,135995,2,0,P|387:38|446:105,1,128,8|0,0:0|0:0,0:0:0:0:
275,96,136445,6,0,L|209:82,2,64,8|0|0,0:0|0:0|0:0,0:0:0:0:
151,154,136895,1,8,0:0:0:0:
76,121,137045,2,0,P|51:103|49:58,1,64,2|0,0:0|0:0,0:0:0:0:
159,235,137345,2,0,P|155:265|117:289,1,64,10|0,0:0|0:0,0:0:0:0:
217,107,137644,2,0,P|245:94|285:115,1,64,0|4,3:0|0:3,0:0:0:0:
284,113,137869,1,4,0:3:0:0:
287,125,137944,6,0,P|332:117|356:32,1,128,2|0,3:2|3:0,0:0:0:0:
512,10,138394,2,0,P|497:40|491:71,1,64,8|0,0:0|0:0,0:0:0:0:
482,79,138694,1,0,0:0:0:0:
375,202,138844,6,0,P|424:216|494:265,1,128,8|0,0:0|0:0,0:0:0:0:
414,356,139294,1,0,3:0:0:0:
414,356,139444,2,0,P|387:337|350:323,1,64,2|10,3:2|0:2,0:0:0:0:
195,356,139744,1,10,0:2:0:0:
180,281,139894,1,2,0:0:0:0:
165,206,140044,1,0,3:0:0:0:
274,102,140194,5,0,3:0:0:0:
277,114,140269,1,0,3:0:0:0:
279,124,140344,2,0,L|204:143,1,64,10|0,0:0|0:0,0:0:0:0:
61,88,140644,2,0,L|45:16,1,64,2|8,0:0|0:0,0:0:0:0:
130,9,140944,2,0,L|146:81,1,64,2|2,0:0|0:0,0:0:0:0:
10,168,141244,2,0,L|44:294,1,128,8|0,0:0|1:0,0:0:0:0:
51,302,141694,1,8,0:0:0:0:
180,360,141844,5,2,0:0:0:0:
241,314,141994,2,0,L|172:336,1,64,2|8,0:0|0:0,0:0:0:0:
108,201,142294,2,0,L|126:262,1,64,2|2,0:0|3:2,0:0:0:0:
320,350,142594,5,8,0:0:0:0:
333,354,142669,1,0,3:0:0:0:
346,358,142744,2,0,B|353:333|353:333|318:211,1,143.999995605469,4|0,3:2|0:0,0:0:0:0:
415,135,143194,2,0,L|484:154,1,71.9999978027344,2|10,3:2|0:2,0:0:0:0:
493,160,143494,1,0,3:0:0:0:
338,12,143644,6,0,P|295:20|271:107,1,143.999995605469,2|0,3:2|1:0,0:0:0:0:
184,195,144094,2,0,L|162:124,2,71.9999978027344,10|8|0,0:0|0:0|0:0,0:0:0:0:
287,268,144544,1,8,0:0:0:0:
324,199,144694,1,2,0:0:0:0:
205,272,144843,1,2,0:0:0:0:
223,350,144993,5,0,3:0:0:0:
218,358,145068,1,0,3:0:0:0:
214,367,145143,2,0,L|74:328,1,143.999995605469,2|0,3:2|1:0,0:0:0:0:
24,181,145593,1,10,0:0:0:0:
14,269,145743,2,0,L|36:200,1,71.9999978027344,10|0,0:0|0:0,0:0:0:0:
193,172,146043,1,2,3:2:0:0:
200,180,146193,1,2,0:0:0:0:
152,99,146343,5,2,0:0:0:0:
284,172,146493,1,8,0:0:0:0:
154,249,146643,1,2,0:0:0:0:
382,37,146868,1,2,0:0:0:0:
382,37,146943,2,0,P|435:59|429:157,1,143.999995605469,10|2,0:0|0:0,0:0:0:0:
280,51,147393,5,0,3:0:0:0:
266,56,147468,1,0,3:0:0:0:
252,61,147543,2,0,L|178:46,1,71.9999978027344,2|0,3:2|0:0,0:0:0:0:
268,164,147843,2,0,L|342:179,1,71.9999978027344,0|2,3:0|0:0,0:0:0:0:
172,246,148143,2,0,L|98:231,1,71.9999978027344,0|0,3:0|3:0,0:0:0:0:
274,359,148443,2,0,L|348:374,1,71.9999978027344,0|0,3:0|3:0,0:0:0:0:
496,272,148743,5,8,0:0:0:0:
423,229,148893,1,8,0:0:0:0:
464,155,149043,5,8,0:0:0:0:
348,184,149193,1,8,0:0:0:0:
306,112,149343,5,8,0:0:0:0:
182,192,149493,1,8,0:0:0:0:
314,259,149643,1,8,0:0:0:0:
266,188,149793,1,8,0:0:0:0:
164,333,149943,6,0,L|169:355,1,16,2|2,0:0|0:0,0:0:0:0:
93,354,150243,2,0,L|98:376,2,16,2|2|2,0:0|0:0|0:0,0:0:0:0:
31,133,151143,5,2,0:0:0:0:
31,133,151744,2,0,B|39:105|39:105|20:127,1,56,8|0,0:0|0:0,0:0:0:0:
31,133,152343,6,0,P|94:150|103:239,1,149.333328776042,4|0,3:2|0:0,0:0:0:0:
158,288,152642,2,0,P|129:308|93:306,1,63.9999980468751,2|0,0:0|0:0,0:0:0:0:
32,245,152842,1,2,0:0:0:0:
32,245,152942,1,8,0:0:0:0:
376,295,153142,2,0,P|428:314|435:259,1,127.99999609375,2|0,0:0|0:0,0:0:0:0:
368,213,153442,6,0,B|357:105|280:162|289:7,1,223.999993164063,2|0,3:2|0:0,0:0:0:0:
466,159,153842,2,0,P|402:164|366:220,1,127.99999609375,2|0,3:2|0:0,0:0:0:0:
376,3,154143,2,0,P|394:38|479:60,1,127.99999609375,8|0,0:0|0:0,0:0:0:0:
343,101,154443,1,2,1:2:0:0:
344,349,154643,5,2,1:2:0:0:
269,328,154742,2,0,P|343:314|418:285,1,149.333328776042,2|0,3:2|0:0,0:0:0:0:
201,377,155042,6,0,P|170:370|149:334,1,63.9999980468751,2|0,1:2|0:0,0:0:0:0:
174,165,155243,1,2,1:2:0:0:
225,221,155343,2,0,P|206:258|197:307,1,63.9999980468751,8|0,0:0|0:0,0:0:0:0:
61,362,155542,6,0,P|43:301|-13:211,1,170.666666666667,2|0,0:0|0:0,0:0:0:0:
178,88,155842,6,0,P|127:100|96:172,1,127.99999609375,2|0,3:2|0:0,0:0:0:0:
281,161,156142,6,0,P|302:107|249:41,1,149.333328776042,2|0,0:0|0:0,0:0:0:0:
64,110,156442,1,0,0:0:0:0:
0,70,156542,6,0,L|106:53,1,95.9999970703126,8|2,0:0|0:0,0:0:0:0:
175,1,156843,1,2,1:2:0:0:
372,58,156993,5,2,0:0:0:0:
379,66,157068,1,2,0:0:0:0:
386,74,157143,2,0,P|364:148|347:231,1,149.333328776042,2|0,3:2|0:0,0:0:0:0:
278,278,157443,2,0,P|268:248|248:215,1,63.9999980468751,2|0,1:2|0:0,0:0:0:0:
442,279,157643,1,2,0:0:0:0:
508,312,157743,2,0,P|449:321|378:355,1,127.99999609375,8|2,0:0|0:0,0:0:0:0:
318,381,158043,1,2,1:2:0:0:
134,238,158242,6,0,P|45:250|70:388,1,256,2|0,3:2|0:0,0:0:0:0:
207,340,158643,6,0,P|214:281|140:229,1,149.333328776042,2|0,3:2|0:0,0:0:0:0:
9,81,158943,2,0,P|19:147|79:149,1,127.99999609375,8|0,0:0|0:0,0:0:0:0:
88,77,159242,1,2,1:2:0:0:
58,307,159442,5,2,1:2:0:0:
7,362,159542,2,0,P|51:326|149:316,1,149.333328776042,2|0,3:2|0:0,0:0:0:0:
245,251,159842,2,0,P|212:245|179:228,1,63.9999980468751,2|0,1:2|0:0,0:0:0:0:
303,362,160042,1,0,1:0:0:0:
312,376,160142,2,0,P|325:313|350:239,1,127.99999609375,8|0,0:0|0:0,0:0:0:0:
217,341,160442,1,2,1:2:0:0:
455,216,160642,5,0,3:0:0:0:
436,224,160742,2,0,P|420:198|407:163,1,63.9999980468751,2|0,3:2|0:0,0:0:0:0:
490,24,160942,1,2,1:2:0:0:
443,85,161042,2,0,B|399:90|372:69|380:55|358:30|307:37,1,149.333328776042,2|0,1:1|0:0,0:0:0:0:
212,132,161342,5,8,1:2:0:0:
246,183,161442,5,0,1:0:0:0:
209,233,161542,5,0,1:0:0:0:
245,276,161642,6,0,L|222:341,1,63.9999980468751,0|0,1:1|0:0,0:0:0:0:
35,338,161942,6,0,B|35:305|-1:274|-1:274|3:269|3:269|42:290|82:268,1,149.333328776042,4|0,3:2|0:0,0:0:0:0:
117,346,162242,2,0,P|138:352|117:341,1,63.9999980468751,2|0,1:2|0:0,0:0:0:0:
6,132,162442,1,2,0:0:0:0:
41,200,162542,2,0,B|28:132|84:157|63:52,1,127.99999609375,8|2,0:0|0:0,0:0:0:0:
42,8,162842,1,2,1:2:0:0:
321,54,163041,6,0,P|284:23|288:121,1,223.999993164063,2|0,3:2|1:0,0:0:0:0:
448,168,163442,2,0,P|484:194|445:173,1,127.99999609375,2|0,3:2|0:0,0:0:0:0:
349,187,163742,2,0,P|377:127|409:73,1,127.99999609375,8|0,0:0|0:0,0:0:0:0:
459,16,164042,1,2,0:2:0:0:
422,302,164242,5,2,0:0:0:0:
450,380,164342,2,0,P|428:328|328:337,1,149.333328776042,2|0,3:2|0:0,0:0:0:0:
336,330,164642,1,2,1:2:0:0:
165,330,164841,1,2,0:0:0:0:
165,330,164941,2,0,P|176:360|203:377,1,63.9999980468751,8|0,0:0|0:0,0:0:0:0:
279,145,165141,6,0,L|243:324,1,170.666666666667,2|0,0:0|0:0,0:0:0:0:
172,104,165441,2,0,P|110:92|78:139,1,127.99999609375,2|0,3:2|0:0,0:0:0:0:
0,271,165741,2,0,P|18:332|93:334,1,149.333328776042,2|0,0:0|0:0,0:0:0:0:
144,203,166041,1,2,0:0:0:0:
183,266,166142,6,0,P|135:250|88:231,1,95.9999970703126,8|2,0:0|0:0,0:0:0:0:
278,366,166441,1,2,1:2:0:0:
395,311,166591,1,2,0:0:0:0:
465,365,166741,6,0,P|424:309|452:232,1,149.333328776042,2|0,3:2|0:0,0:0:0:0:
304,188,167041,2,0,P|275:199|239:206,1,63.9999980468751,2|0,1:2|0:0,0:0:0:0:
429,101,167241,1,2,0:0:0:0:
355,117,167341,2,0,P|420:136|488:162,1,127.99999609375,8|2,0:0|0:0,0:0:0:0:
446,28,167641,1,2,1:2:0:0:
215,23,167840,6,0,B|173:4|173:4|69:25|89:139,1,223.999993164063,2|2,3:2|0:0,0:0:0:0:
55,296,168241,2,0,P|98:297|129:217,1,127.99999609375,2|0,3:2|0:0,0:0:0:0:
15,204,168541,2,0,P|-7:240|46:307,1,127.99999609375,10|0,0:0|0:0,0:0:0:0:
216,231,168841,1,2,1:2:0:0:
0,51,169041,5,2,0:0:0:0:
62,0,169141,2,0,B|130:15|97:52|173:62,1,127.99999609375,2|0,3:2|0:0,0:0:0:0:
299,68,169441,6,0,B|265:62|234:90|245:102|228:137|177:140,1,149.333328776042,2|0,1:2|0:0,0:0:0:0:
106,280,169741,6,0,B|133:247|122:197|103:201|77:162|104:107,1,170.666666666667,12|0,0:0|0:0,0:0:0:0:
231,7,170041,6,0,P|304:45|386:43,1,149.333328776042,2|0,1:2|3:0,0:0:0:0:
491,15,170341,6,0,P|514:43|512:80,1,74.6666643880209,2|0,3:2|0:0,0:0:0:0:
389,138,170541,1,10,0:2:0:0:
453,170,170641,2,0,P|417:176|387:155,1,74.6666643880209,2|0,3:2|0:0,0:0:0:0:
185,155,170841,1,0,3:0:0:0:
206,146,170941,5,10,1:2:0:0:
254,158,171041,5,0,1:0:0:0:
276,213,171141,5,0,1:0:0:0:
249,267,171241,6,0,P|226:294|180:294,1,63.9999980468751,2|0,1:1|0:0,0:0:0:0:
31,315,171441,1,8,0:0:0:0:
89,368,171541,6,0,L|55:203,1,149.333328776042,4|0,3:2|0:0,0:0:0:0:
84,46,171841,2,0,L|132:4,1,63.9999980468751,2|0,1:2|0:0,0:0:0:0:
66,143,172041,1,2,0:2:0:0:
0,109,172141,2,0,L|124:138,1,127.99999609375,8|0,0:0|0:0,0:0:0:0:
294,29,172441,6,0,P|343:46|339:163,1,170.666666666667,2|0,1:2|3:0,0:0:0:0:
193,90,172741,6,0,P|202:43|299:19,1,149.333328776042,2|0,3:2|0:0,0:0:0:0:
278,182,173041,6,0,P|247:182|218:151,1,63.9999980468751,2|0,3:2|0:0,0:0:0:0:
165,342,173241,1,2,0:0:0:0:
96,306,173340,2,0,P|166:299|221:265,1,127.99999609375,8|0,0:0|0:0,0:0:0:0:
368,328,173640,2,0,P|404:355|365:337,1,127.99999609375,2|2,1:2|0:0,0:0:0:0:
295,287,173940,6,0,L|275:348,1,63.9999980468751,2|0,3:2|0:0,0:0:0:0:
376,156,174140,1,0,0:0:0:0:
327,95,174240,2,0,P|395:119|467:128,1,127.99999609375,2|0,1:2|0:0,0:0:0:0:
433,234,174540,6,0,P|353:206|281:197,1,149.333328776042,8|0,0:0|0:0,0:0:0:0:
504,190,174840,1,2,3:2:0:0:
234,63,175040,5,0,3:0:0:0:
247,17,175140,1,0,3:0:0:0:
78,155,175340,1,0,1:0:0:0:
85,77,175440,2,0,P|33:87|8:186,1,149.333328776042,2|0,3:2|0:0,0:0:0:0:
0,338,175740,5,10,1:2:0:0:
48,366,175840,5,0,1:0:0:0:
98,334,175940,5,0,1:0:0:0:
103,280,176040,6,0,P|86:253|48:237,1,63.9999980468751,2|0,1:1|0:0,0:0:0:0:
226,364,176340,6,0,B|269:371|296:345|286:334|320:299|373:321,1,149.333328776042,2|0,3:2|0:0,0:0:0:0:
413,375,176640,2,0,P|431:355|438:314,1,63.9999980468751,2|0,1:2|0:0,0:0:0:0:
318,186,176840,1,2,0:0:0:0:
317,112,176940,2,0,P|364:125|388:210,1,127.99999609375,8|0,0:0|0:0,0:0:0:0:
259,231,177240,2,0,P|238:184|251:150,1,74.6666643880209,2|0,1:2|0:0,0:0:0:0:
419,7,177440,5,0,3:0:0:0:
475,56,177540,2,0,B|449:41|449:41|306:29,1,149.333328776042,2|0,3:2|0:0,0:0:0:0:
153,36,177840,2,0,L|97:69,1,63.9999980468751,2|0,3:2|0:0,0:0:0:0:
232,85,178040,1,2,0:0:0:0:
235,3,178140,2,0,L|273:127,1,127.99999609375,8|0,0:0|0:0,0:0:0:0:
476,209,178440,2,0,L|412:179,1,63.9999980468751,2|0,1:2|0:0,0:0:0:0:
301,291,178640,6,0,L|271:301,1,31.9999990234375,0|0,1:0|1:0,0:0:0:0:
265,308,178740,2,0,P|230:297|214:210,1,127.99999609375,2|0,3:2|0:0,0:0:0:0:
380,270,179040,6,0,P|388:309|313:373,1,149.333328776042,2|0,1:2|3:0,0:0:0:0:
145,164,179340,6,0,P|186:136|285:209,1,170.666666666667,12|0,0:0|0:0,0:0:0:0:
158,357,179640,5,2,1:2:0:0:
117,321,179740,5,0,1:0:0:0:
66,332,179840,5,0,3:0:0:0:
29,367,179940,6,0,P|2:345|0:309,1,63.9999980468751,2|0,1:2|0:0,0:0:0:0:
69,151,180140,1,0,3:0:0:0:
0,192,180240,2,0,B|18:183|18:183|160:222,1,149.333328776042,2|0,3:2|0:0,0:0:0:0:
0,192,180539,6,0,B|18:173|18:173|36:24,1,170.666666666667,14|0,0:0|3:0,0:0:0:0:
200,72,180839,2,0,L|138:107,1,63.9999980468751,10|0,0:0|0:0,0:0:0:0:
139,305,181039,5,8,0:0:0:0:
222,303,181139,2,0,P|254:270|216:159,1,170.666666666667,4|0,3:2|0:0,0:0:0:0:
60,296,181439,2,0,P|60:334|89:366,1,74.6666643880209,2|0,1:2|0:0,0:0:0:0:
329,328,181639,1,2,0:0:0:0:
268,374,181739,2,0,L|437:352,1,149.333328776042,8|0,0:0|0:0,0:0:0:0:
426,169,182039,2,0,P|480:198|491:312,1,170.666666666667,2|8,3:2|0:0,0:0:0:0:
336,187,182339,6,0,B|324:100|383:132|361:5,1,170.666666666667,2|0,1:2|3:0,0:0:0:0:
194,132,182639,2,0,P|226:134|257:172,1,74.6666643880209,2|0,3:2|0:0,0:0:0:0:
421,84,182839,1,2,0:0:0:0:
363,22,182939,6,0,P|311:5|274:57,1,127.99999609375,10|0,0:0|3:0,0:0:0:0:
126,204,183239,6,0,P|73:217|24:126,1,170.666666666667,2|0,1:2|0:0,0:0:0:0:
51,40,183539,6,0,P|114:79|193:117,1,149.333328776042,2|0,3:2|0:0,0:0:0:0:
193,129,183839,1,0,1:2:0:0:
78,314,184039,1,0,3:0:0:0:
15,362,184139,2,0,P|60:334|176:335,1,149.333328776042,8|0,0:0|0:0,0:0:0:0:
32,209,184439,2,0,P|5:233|4:275,1,74.6666643880209,2|0,3:2|0:0,0:0:0:0:
224,374,184639,5,8,0:0:0:0:
298,344,184739,2,0,B|282:311|302:266|302:266|265:303|235:297,1,149.333328776042,0|0,3:0|3:0,0:0:0:0:
273,176,185039,2,0,P|324:229|390:262,1,149.333328776042,2|0,3:2|0:0,0:0:0:0:
204,220,185339,5,10,0:0:0:0:
92,65,185539,1,0,1:0:0:0:
58,84,185639,1,2,1:0:0:0:
354,64,185839,5,2,1:2:0:0:
295,9,185939,2,0,P|235:17|226:133,1,170.666666666667,4|0,3:2|0:0,0:0:0:0:
423,109,186239,2,0,P|439:72|428:32,1,74.6666643880209,2|0,1:2|0:0,0:0:0:0:
262,180,186439,1,2,0:0:0:0:
186,197,186539,2,0,P|251:202|306:269,1,149.333328776042,8|0,0:0|0:0,0:0:0:0:
441,363,186839,2,0,P|490:371|474:291,1,149.333328776042,2|8,3:2|0:0,0:0:0:0:
459,209,187139,6,0,P|401:272|355:344,1,170.666666666667,2|0,1:2|3:0,0:0:0:0:
366,194,187439,1,2,3:2:0:0:
206,348,187638,1,2,0:0:0:0:
230,369,187738,1,10,0:0:0:0:
344,109,187938,5,0,3:0:0:0:
281,159,188038,2,0,L|148:119,1,127.99999609375,2|0,1:2|0:0,0:0:0:0:
56,13,188338,6,0,P|20:30|7:71,1,74.6666643880209,2|0,3:2|0:0,0:0:0:0:
75,204,188538,1,8,0:0:0:0:
88,189,188638,2,0,P|75:158|64:112,1,74.6666643880209,0|0,1:2|0:0,0:0:0:0:
260,54,188838,5,0,3:0:0:0:
191,17,188938,2,0,P|216:76|240:198,1,170.666666666667,12|0,0:0|0:0,0:0:0:0:
190,331,189238,2,0,P|160:320|142:283,1,74.6666643880209,2|0,3:2|0:0,0:0:0:0:
313,285,189438,6,0,P|287:338|194:348,1,149.333328776042,8|0,0:0|0:0,0:0:0:0:
337,203,189738,1,0,3:0:0:0:
272,153,189838,2,0,P|260:119|348:67,1,149.333328776042,2|0,3:2|0:0,0:0:0:0:
496,16,190138,5,10,0:0:0:0:
429,230,190338,1,0,3:0:0:0:
453,241,190438,1,2,1:0:0:0:
188,247,190638,5,8,0:0:0:0:
260,231,190738,2,0,P|184:240|174:154,1,170.666666666667,4|0,3:2|0:0,0:0:0:0:
226,14,191038,2,0,P|228:-13|215:11,1,74.6666643880209,2|0,1:2|0:0,0:0:0:0:
262,114,191238,1,2,0:0:0:0:
119,69,191338,2,0,P|191:88|261:114,1,149.333328776042,8|0,0:0|0:0,0:0:0:0:
15,223,191638,2,0,P|-20:149|25:82,1,170.666666666667,2|8,3:2|0:0,0:0:0:0:
104,233,191938,6,0,B|112:277|72:304|65:293|25:331|36:379,1,170.666666666667,2|0,1:2|3:0,0:0:0:0:
192,228,192238,2,0,P|187:193|160:165,1,74.6666643880209,2|0,3:2|0:0,0:0:0:0:
36,379,192438,1,2,0:0:0:0:
117,366,192538,2,0,P|199:345|276:334,1,149.333328776042,10|0,0:0|3:0,0:0:0:0:
65,302,192838,1,2,1:2:0:0:
408,343,193038,6,0,L|448:356,1,37.3333321940105,2|0,1:2|1:0,0:0:0:0:
452,366,193138,2,0,P|463:298|372:265,1,170.666666666667,2|0,3:2|0:0,0:0:0:0:
285,143,193438,6,0,P|349:118|387:177,1,149.333328776042,2|0,1:2|3:0,0:0:0:0:
244,65,193738,6,0,P|194:59|158:130,1,127.99999609375,10|0,0:0|0:0,0:0:0:0:
91,44,194038,1,2,3:2:0:0:
176,381,194238,6,0,B|168:337|137:323|126:330|90:319|87:248,1,149.333328776042,8|0,0:0|0:0,0:0:0:0:
106,181,194538,1,0,3:0:0:0:
24,204,194638,2,0,P|82:240|105:178,1,149.333328776042,2|2,3:2|0:0,0:0:0:0:
45,125,194937,1,10,0:0:0:0:
289,28,195137,1,0,1:0:0:0:
313,39,195237,1,2,1:0:0:0:
84,25,195437,5,0,1:0:0:0:
10,37,195537,2,0,B|44:31|44:31|178:80,1,170.666666666667,4|0,3:2|0:0,0:0:0:0:
271,217,195837,2,0,B|292:217|292:217|344:186,1,74.6666643880209,2|0,1:2|0:0,0:0:0:0:
338,175,196037,1,2,0:0:0:0:
181,160,196137,2,0,L|213:331,1,149.333328776042,8|0,0:0|0:0,0:0:0:0:
280,360,196437,6,0,L|99:300,1,170.666666666667,2|8,3:2|0:0,0:0:0:0:
452,385,196737,2,0,B|480:352|518:344|518:344|520:333|520:333|480:344|434:310,1,170.666666666667,2|0,1:2|3:0,0:0:0:0:
366,360,197037,1,2,3:2:0:0:
262,177,197237,1,2,0:0:0:0:
272,150,197337,1,10,0:0:0:0:
120,342,197537,1,0,3:0:0:0:
49,371,197637,2,0,P|8:345|36:244,1,149.333328776042,2|0,1:2|3:0,0:0:0:0:
55,106,197937,6,0,P|64:73|58:107,1,106.666666666667,2|0,3:2|0:0,0:0:0:0:
163,149,198237,6,0,P|177:184|166:146,1,127.99999609375,2|0,3:1|0:0,0:0:0:0:
304,53,198537,6,0,P|317:7|308:55,1,149.333328776042,12|0,0:0|0:0,0:0:0:0:
419,204,198837,6,0,P|434:255|424:201,1,170.666666666667,12|0,0:0|0:0,0:0:0:0:
504,57,199137,6,0,B|428:149|402:76|336:164,1,191.999994140625,12|0,0:0|0:0,0:0:0:0:
342,356,199437,5,2,3:2:0:0:
313,306,199537,1,8,0:0:0:0:
259,300,199637,1,8,0:0:0:0:
193,350,199737,5,4,3:0:0:0:
150,355,199837,1,8,0:0:0:0:
126,318,199937,1,0,3:0:0:0:
129,238,200037,5,4,3:0:0:0:
125,218,200137,1,4,3:0:0:0:
108,215,200237,1,0,3:0:0:0:
56,275,200337,6,0,P|24:227|56:153,1,143.999995605469,2|2,1:2|0:0,0:0:0:0:
304,52,202736,2,0,L|308:39,1,7.99999975585938,2|2,0:0|0:0,0:0:0:0:
311,58,202836,6,0,B|362:42|400:82|401:163|332:188|299:146|264:187|260:221|260:221|264:187|242:147|190:169|155:102|165:42|252:14|278:73,1,533.333333333333,2|0,0:0|0:0,0:0:0:0:
