osu file format v14

[General]
AudioFilename: audio.mp3
AudioLeadIn: 0
PreviewTime: 32361
Countdown: 0
SampleSet: Soft
StackLeniency: 0.6
Mode: 0
LetterboxInBreaks: 0
WidescreenStoryboard: 1

[Editor]
Bookmarks: 16284,32361,46075,58075,59789,87218
DistanceSpacing: 1.1
BeatDivisor: 4
GridSize: 8
TimelineZoom: 1.3

[Metadata]
Title:Sound of My Dream
TitleUnicode:Sound of My Dream
Artist:Miqz
ArtistUnicode:Miqz
Creator:FrenZ396
Version:Normal
Source:
Tags:remix trance sleeping calm peaceful Bibbity Bill
BeatmapID:1731437
BeatmapSetID:825507

[Difficulty]
HPDrainRate:3.5
CircleSize:3
OverallDifficulty:4
ApproachRate:5
SliderMultiplier:1
SliderTickRate:1

[Events]
//Background and Video events
0,0,"sound of my dream 1.jpg",0,0
//Break Periods
//Storyboard Layer 0 (Background)
//Storyboard Layer 1 (Fail)
//Storyboard Layer 2 (Pass)
//Storyboard Layer 3 (Foreground)
//Storyboard Sound Samples

[TimingPoints]
2570,428.571428571429,4,2,2,50,1,0
16284,-100,4,2,2,60,0,0
16498,-100,4,2,1,60,0,0
23141,-100,4,2,2,60,0,0
23355,-100,4,2,1,60,0,0
24855,-100,4,2,2,60,0,0
25070,-100,4,2,1,60,0,0
26570,-100,4,2,2,60,0,0
26784,-100,4,2,1,60,0,0
27427,-100,4,2,2,60,0,0
27641,-100,4,2,1,60,0,0
28284,-100,4,2,2,60,0,0
29998,-100,4,2,1,60,0,0
32361,428.571428571429,4,2,2,70,1,0
32575,-100,4,2,1,70,0,0
46075,-100,4,2,2,80,0,0
46289,-100,4,2,1,80,0,0
52932,-100,4,2,2,80,0,0
53146,-100,4,2,1,80,0,0
54646,-100,4,2,2,80,0,0
54861,-100,4,2,1,80,0,0
56361,-100,4,2,2,80,0,0
56575,-100,4,2,1,80,0,0
57218,-100,4,2,2,80,0,0
57432,-100,4,2,1,80,0,0
58075,-100,4,2,2,80,0,0
59789,-100,4,2,2,90,0,1
60003,-100,4,2,1,90,0,1
87218,-100,4,2,2,80,0,0
87539,-100,4,2,2,70,0,0
87861,-100,4,2,2,60,0,0
88182,-100,4,2,2,50,0,0
88503,-100,4,2,2,40,0,0
88825,-100,4,2,2,30,0,0
89146,-100,4,2,2,20,0,0
89468,-100,4,2,2,10,0,0

[Colours]
Combo1 : 0,230,0
Combo2 : 244,46,11
Combo3 : 243,12,174
Combo4 : 255,128,64
Combo5 : 230,230,0
SliderBorder : 70,150,190
SliderTrackOverride : 70,70,70

[HitObjects]
438,363,2570,6,0,P|408:323|348:304,1,100,12|8,0:0|0:0,0:0:0:0:
253,284,3427,2,0,L|169:273,2,75,8|0|0,0:0|0:0|0:0,0:0:0:0:
264,229,4284,2,0,L|279:117,1,100,8|8,0:0|0:0,0:0:0:0:
295,22,5141,2,0,P|335:31|374:68,2,75,8|0|0,0:0|0:0|0:0,0:0:0:0:
241,35,5998,6,0,P|204:54|134:37,1,100,8|8,0:0|0:0,0:0:0:0:
43,80,6855,2,0,P|37:43|47:7,2,75,8|0|0,0:0|0:0|0:0,0:0:0:0:
52,134,7712,2,0,L|64:233,1,100,8|8,0:0|0:0,0:0:0:0:
73,287,8355,1,0,0:0:0:0:
73,287,8570,2,0,P|33:316|13:361,2,100,8|8|8,0:0|0:0|0:0,0:0:0:0:
182,276,9855,1,8,0:0:0:0:
289,300,10284,6,0,P|298:349|325:376,2,75,8|0|0,0:0|0:0|0:0,0:0:0:0:
294,245,11141,2,0,L|308:128,1,100,8|8,0:0|0:0,0:0:0:0:
408,105,11998,2,0,L|399:180,2,75,8|0|0,0:0|0:0|0:0,0:0:0:0:
418,50,12855,2,0,L|313:37,1,100,8|8,0:0|0:0,0:0:0:0:
217,81,13712,6,0,P|199:114|202:164,2,75,8|0|0,0:0|0:0|0:0,0:0:0:0:
240,30,14570,1,8,0:0:0:0:
240,30,14784,2,0,P|222:14|196:7,1,50,0|8,0:0|0:0,0:0:0:0:
142,11,15212,1,0,0:0:0:0:
142,11,15427,2,0,P|101:34|84:90,1,100,8|8,0:0|0:0,0:0:0:0:
94,194,16284,6,0,P|47:178|-1:191,1,100,6|8,0:0|0:0,0:0:0:0:
5,250,16927,1,2,0:0:0:0:
5,250,17141,2,0,L|11:306,2,50,0|2|8,0:0|0:0|0:0,0:0:0:0:
94,194,17998,2,0,P|141:181|188:197,1,100,2|8,0:0|0:0,0:0:0:0:
205,249,18641,1,2,0:0:0:0:
205,249,18855,2,0,L|211:305,2,50,0|2|8,0:0|0:0|0:0,0:0:0:0:
308,210,19712,6,0,P|355:197|402:213,1,100,2|8,0:0|0:0,0:0:0:0:
435,257,20355,1,2,0:0:0:0:
435,257,20570,2,0,L|441:313,2,50,0|2|8,0:0|0:0|0:0,0:0:0:0:
474,154,21427,2,0,P|503:118|505:51,1,100,2|8,0:0|0:0,0:0:0:0:
454,57,22070,1,2,0:0:0:0:
399,49,22284,2,0,L|342:42,2,50,0|2|8,0:0|0:0|0:0,0:0:0:0:
370,156,23141,5,6,0:0:0:0:
293,234,23570,1,8,0:0:0:0:
293,234,23784,2,0,L|236:227,1,50,2|0,0:0|0:0,0:0:0:0:
195,254,24212,1,2,0:0:0:0:
195,254,24427,1,8,0:0:0:0:
110,324,24855,5,6,0:0:0:0:
32,247,25284,1,8,0:0:0:0:
32,247,25498,2,0,L|39:190,1,50,2|0,0:0|0:0,0:0:0:0:
13,149,25926,1,2,0:0:0:0:
13,149,26141,1,8,0:0:0:0:
61,50,26570,5,6,0:0:0:0:
169,66,26999,1,8,0:0:0:0:
223,74,27213,2,0,L|280:81,1,50,2|4,0:0|0:0,0:0:0:0:
315,45,27641,1,2,0:0:0:0:
369,53,27856,1,8,0:0:0:0:
256,192,28284,12,2,29998,0:0:0:0:
42,359,32361,6,0,L|156:345,1,100,6|8,0:0|0:0,0:0:0:0:
250,335,33218,2,0,P|308:334|349:359,1,100,2|8,0:0|0:0,0:0:0:0:
395,372,33861,1,0,0:0:0:0:
443,344,34075,2,0,L|429:231,1,100,2|8,0:0|0:0,0:0:0:0:
409,136,34932,2,0,P|394:86|356:50,1,100,2|8,0:0|0:0,0:0:0:0:
305,55,35575,1,0,0:0:0:0:
264,92,35789,6,0,L|278:206,1,100,2|8,0:0|0:0,0:0:0:0:
241,295,36646,2,0,P|204:287|156:245,1,100,2|8,0:0|0:0,0:0:0:0:
164,192,37289,1,0,0:0:0:0:
174,145,37503,2,0,L|158:28,1,100,2|8,0:0|0:0,0:0:0:0:
108,27,38146,1,0,0:0:0:0:
56,47,38361,2,0,P|40:73|32:104,1,50,2|0,0:0|0:0,0:0:0:0:
37,146,38789,2,0,L|44:203,1,50,8|0,0:0|0:0,0:0:0:0:
51,250,39218,5,2,0:0:0:0:
113,340,39646,1,8,0:0:0:0:
220,362,40075,2,0,L|205:250,1,100,2|8,0:0|0:0,0:0:0:0:
232,214,40718,1,0,0:0:0:0:
257,165,40932,2,0,P|312:160|354:187,1,100,2|8,0:0|0:0,0:0:0:0:
416,272,41789,2,0,P|404:318|422:370,1,100,2|8,0:0|0:0,0:0:0:0:
473,376,42432,1,0,0:0:0:0:
511,336,42646,6,0,L|495:218,1,100,2|8,0:0|0:0,0:0:0:0:
481,127,43503,2,0,L|465:9,1,100,2|8,0:0|0:0,0:0:0:0:
412,33,44146,1,0,0:0:0:0:
357,42,44361,2,0,L|239:58,1,100,2|8,0:0|0:0,0:0:0:0:
204,66,45003,1,0,0:0:0:0:
175,113,45218,2,0,L|182:162,1,50,2|0,0:0|0:0,0:0:0:0:
226,194,45646,2,0,L|233:243,1,50,8|8,0:0|0:0,0:0:0:0:
208,292,46075,6,0,P|166:320|110:307,1,100,6|8,0:0|0:0,0:0:0:0:
16,284,46932,2,0,L|0:166,1,100,2|8,0:0|0:0,0:0:0:0:
16,131,47575,1,0,0:0:0:0:
48,86,47789,2,0,L|160:71,1,100,2|8,0:0|0:0,0:0:0:0:
256,56,48646,2,0,P|292:53|355:15,1,100,2|8,0:0|0:0,0:0:0:0:
402,23,49289,1,0,0:0:0:0:
456,27,49503,6,0,P|476:72|459:137,1,100,2|8,0:0|0:0,0:0:0:0:
445,228,50361,2,0,P|409:215|347:232,1,100,2|8,0:0|0:0,0:0:0:0:
305,260,51003,1,0,0:0:0:0:
263,295,51218,2,0,L|150:310,1,100,2|8,0:0|0:0,0:0:0:0:
110,321,51861,1,0,0:0:0:0:
110,321,52075,2,0,P|83:338|67:359,1,50,2|0,0:0|0:0,0:0:0:0:
23,378,52503,2,0,L|16:329,1,50,8|0,0:0|0:0,0:0:0:0:
6,274,52932,5,6,0:0:0:0:
16,164,53361,2,0,P|75:164|120:132,1,100,8|2,0:0|0:0,0:0:0:0:
156,115,54003,1,0,0:0:0:0:
156,115,54218,2,8,L|149:66,1,50,8|0,0:0|0:0,0:0:0:0:
138,11,54646,5,6,0:0:0:0:
247,3,55075,2,0,P|270:48|252:111,1,100,8|2,0:0|0:0,0:0:0:0:
247,151,55718,1,0,0:0:0:0:
247,151,55933,2,0,L|254:200,1,50,8|0,0:0|0:0,0:0:0:0:
239,253,56361,6,0,L|190:260,1,50,6|0,0:0|0:0,0:0:0:0:
135,270,56789,2,0,L|142:319,1,50,8|0,0:0|0:0,0:0:0:0:
178,361,57218,2,0,P|202:353|227:354,1,50,6|0,0:0|0:0,0:0:0:0:
281,357,57646,1,8,0:0:0:0:
390,362,58075,5,6,0:0:0:0:
372,253,58503,1,4,0:0:0:0:
355,144,58932,1,4,0:0:0:0:
464,132,59361,2,0,L|468:181,1,50,4|0,0:0|0:0,0:0:0:0:
466,239,59789,6,0,P|419:258|363:249,1,100,6|8,0:0|0:0,0:0:0:0:
264,224,60646,2,0,L|260:273,2,50,2|0|8,0:0|0:0|0:0,0:0:0:0:
272,169,61289,1,0,0:0:0:0:
272,169,61503,2,0,P|246:124|191:95,1,100,2|8,0:0|0:0,0:0:0:0:
158,198,62361,1,2,0:0:0:0:
264,224,62789,2,0,L|260:273,1,50,8|0,0:0|0:0,0:0:0:0:
251,328,63218,6,0,P|223:330|186:318,1,50,2|0,0:0|0:0,0:0:0:0:
155,295,63646,2,0,P|130:290|105:291,1,50,8|0,0:0|0:0,0:0:0:0:
50,293,64075,2,0,P|40:254|70:186,1,100,2|8,0:0|0:0,0:0:0:0:
89,153,64718,1,0,0:0:0:0:
89,153,64932,2,0,L|93:104,1,50,2|0,0:0|0:0,0:0:0:0:
133,67,65361,1,8,0:0:0:0:
133,67,65575,2,0,L|182:71,1,50,0|2,0:0|0:0,0:0:0:0:
230,170,66218,2,0,L|279:174,1,50,8|0,0:0|0:0,0:0:0:0:
334,178,66646,5,2,0:0:0:0:
334,178,66861,2,0,L|338:129,2,50,0|8|0,0:0|0:0|0:0,0:0:0:0:
327,232,67503,1,2,0:0:0:0:
432,265,67932,2,0,L|436:216,1,50,8|0,0:0|0:0,0:0:0:0:
445,160,68361,2,0,P|451:111|428:67,2,100,2|8|2,0:0|0:0|0:0,0:0:0:0:
337,124,69646,2,0,L|288:120,1,50,8|0,0:0|0:0,0:0:0:0:
232,114,70075,6,0,P|202:153|196:213,1,100,2|8,0:0|0:0,0:0:0:0:
300,232,70932,1,2,0:0:0:0:
244,327,71361,2,0,L|240:376,1,50,8|0,0:0|0:0,0:0:0:0:
192,372,71789,2,0,L|143:368,1,50,2|0,0:0|0:0,0:0:0:0:
87,362,72218,1,8,0:0:0:0:
47,323,72432,1,0,0:0:0:0:
9,282,72646,2,0,L|18:182,1,100,2|8,0:0|0:0,0:0:0:0:
77,89,73503,5,2,0:0:0:0:
176,42,73932,1,8,0:0:0:0:
265,108,74361,2,0,L|314:112,2,50,2|0|8,0:0|0:0|0:0,0:0:0:0:
222,143,75003,1,0,0:0:0:0:
222,143,75218,2,0,P|223:201|249:242,1,100,2|8,0:0|0:0,0:0:0:0:
353,226,76075,1,2,0:0:0:0:
329,118,76504,2,0,L|333:69,1,50,8|0,0:0|0:0,0:0:0:0:
334,13,76933,6,0,P|358:8|383:9,1,50,2|0,0:0|0:0,0:0:0:0:
416,52,77361,2,0,P|440:52|465:47,1,50,8|0,0:0|0:0,0:0:0:0:
493,95,77790,2,0,P|511:140|502:189,1,100,2|8,0:0|0:0,0:0:0:0:
464,230,78433,1,0,0:0:0:0:
464,230,78647,2,0,L|415:226,1,50,2|0,0:0|0:0,0:0:0:0:
375,265,79075,1,8,0:0:0:0:
375,265,79289,2,0,L|326:261,1,50,0|2,0:0|0:0,0:0:0:0:
257,348,79933,2,0,L|208:352,1,50,8|0,0:0|0:0,0:0:0:0:
163,319,80361,5,2,0:0:0:0:
163,319,80576,2,0,L|167:270,1,50,0|8,0:0|0:0,0:0:0:0:
126,231,81004,1,0,0:0:0:0:
126,231,81219,2,0,L|122:182,1,50,2|0,0:0|0:0,0:0:0:0:
150,134,81647,2,0,L|199:138,1,50,8|0,0:0|0:0,0:0:0:0:
254,139,82076,2,0,P|286:101|295:53,2,100,2|8|2,0:0|0:0|0:0,0:0:0:0:
151,99,83361,2,0,P|146:67|138:47,1,50,8|0,0:0|0:0,0:0:0:0:
102,10,83789,6,0,P|57:31|28:72,1,100,2|8,0:0|0:0,0:0:0:0:
30,182,84646,1,2,0:0:0:0:
42,291,85075,2,0,L|91:287,1,50,8|0,0:0|0:0,0:0:0:0:
133,251,85503,2,0,L|129:201,2,50,2|0|8,0:0|0:0|0:0,0:0:0:0:
179,280,86146,1,0,0:0:0:0:
227,306,86361,2,0,L|277:302,1,50,2|0,0:0|0:0,0:0:0:0:
320,335,86789,2,0,L|370:331,1,50,8|8,0:0|0:0,0:0:0:0:
417,357,87218,5,4,0:0:0:0:
256,192,87325,12,0,89789,0:0:0:0:
