osu file format v14

[General]
AudioFilename: audio.mp3
AudioLeadIn: 0
PreviewTime: 18088
Countdown: 0
SampleSet: None
StackLeniency: 0.7
Mode: 0
LetterboxInBreaks: 0
WidescreenStoryboard: 1

[Editor]
Bookmarks: 1053,7910,14767,18195,28481,31910,45624,49053,59338,62767,69624,70053,73053,76481,86767,88053
DistanceSpacing: 1.1
BeatDivisor: 4
GridSize: 4
TimelineZoom: 1

[Metadata]
Title:Amelia et le Mystere du Lycee de Lerne
TitleUnicode:Amélia et le Mystère du Lycée de Lerne
Artist:Mioune
ArtistUnicode:Mioune
Creator:Project Railgun
Version:Insane
Source:Amélia et le Mystère du Lycée de Lerne
Tags:project_railgun french victory shot amelia and the mystery of lerne high school
BeatmapID:1905206
BeatmapSetID:910011

[Difficulty]
HPDrainRate:6
CircleSize:4
OverallDifficulty:7.5
ApproachRate:8
SliderMultiplier:1.74999990463257
SliderTickRate:1

[Events]
//Background and Video events
Video,1000,"amelia.avi"
0,0,"amelia.jpg",0,0
//Break Periods
//Storyboard Layer 0 (Background)
//Storyboard Layer 1 (Fail)
//Storyboard Layer 2 (Pass)
//Storyboard Layer 3 (Foreground)
//Storyboard Sound Samples

[TimingPoints]
1053,428.571428571429,4,2,1,80,1,0
1053,-133.333333333333,4,2,1,80,0,0
14767,-100,4,2,1,80,0,0
16481,-200,4,2,3,80,0,0
18195,-66.6666666666667,4,2,1,80,0,1
28481,-66.6666666666667,4,2,1,80,0,0
31910,-80,4,2,1,80,0,1
31963,-80,4,2,1,80,0,0
49053,-66.6666666666667,4,2,1,80,0,1
59338,-66.6666666666667,4,2,1,80,0,0
62767,-66.6666666666667,4,2,1,80,0,1
69624,-66.6666666666667,4,2,1,80,0,0
70053,-66.6666666666667,4,2,1,80,0,1
73053,-66.6666666666667,4,2,1,80,0,0
76481,-66.6666666666667,4,2,1,80,0,1
88053,-66.6666666666667,4,2,1,80,0,0

[Colours]
Combo1 : 211,202,10
Combo2 : 99,89,217
Combo3 : 68,181,62
Combo4 : 209,67,135

[HitObjects]
406,236,1053,6,0,P|256:344|107:236,1,393.749993562699,4|2,0:0|0:0,0:0:0:0:
376,20,2767,6,0,L|360:83,1,65.6249989271164,0|0,3:0|0:0,0:0:0:0:
388,164,3195,2,0,L|372:100,1,65.6249989271164,2|0,0:0|0:0,0:0:0:0:
140,100,3624,2,0,L|125:164,1,65.6249989271164,0|0,3:0|0:0,0:0:0:0:
172,72,4052,2,0,L|157:9,1,65.6249989271164,2|0,0:0|0:0,0:0:0:0:
72,304,4481,6,0,P|51:278|41:247,1,65.6249989271164,0|0,3:0|0:0,0:0:0:0:
172,328,4910,2,0,P|139:331|110:346,1,65.6249989271164,2|0,0:0|0:0,0:0:0:0:
304,268,5338,2,0,P|318:238|322:206,1,65.6249989271164,0|0,3:0|0:0,0:0:0:0:
348,348,5767,2,0,P|373:368|404:378,1,65.6249989271164,2|0,0:0|0:0,0:0:0:0:
392,132,6195,5,0,3:0:0:0:
256,224,6410,1,0,0:0:0:0:
120,132,6624,1,2,0:0:0:0:
120,132,6838,1,0,0:0:0:0:
32,272,7053,5,0,3:0:0:0:
136,112,7267,1,0,0:0:0:0:
304,268,7481,1,2,0:0:0:0:
304,268,7695,1,0,0:0:0:0:
426,96,7910,6,0,P|256:10|87:96,1,393.749993562699,4|2,0:0|0:0,0:0:0:0:
416,352,9624,6,0,P|428:322|432:290,1,65.6249989271164,0|0,3:0|0:0,0:0:0:0:
332,172,10053,2,0,L|340:244,1,65.6249989271164,2|0,0:0|0:0,0:0:0:0:
96,352,10481,2,0,P|84:322|80:290,1,65.6249989271164,0|0,3:0|0:0,0:0:0:0:
180,144,10910,2,0,L|172:216,1,65.6249989271164,2|0,0:0|0:0,0:0:0:0:
392,280,11338,5,0,3:0:0:0:
456,171,11553,1,0,0:0:0:0:
332,163,11767,2,0,P|302:176|269:179,1,65.6249989271164,2|0,0:0|0:0,0:0:0:0:
396,315,12195,1,0,3:0:0:0:
496,179,12410,1,0,0:0:0:0:
360,75,12624,2,0,P|329:63|304:42,1,65.6249989271164,2|0,0:0|0:0,0:0:0:0:
56,104,13053,6,0,L|63:169,1,65.6249989271164,0|0,3:0|0:0,0:0:0:0:
292,172,13481,1,2,0:0:0:0:
204,316,13695,1,0,0:0:0:0:
256,212,13910,6,0,L|248:277,1,65.6249989271164,0|0,3:0|0:0,0:0:0:0:
512,352,14338,1,2,0:0:0:0:
432,128,14553,1,0,0:0:0:0:
488,328,14767,6,0,L|474:153,1,174.999990463257,4|0,0:0|0:0,0:0:0:0:
331,24,15410,2,0,P|254:59|178:23,1,174.999990463257,4|0,0:0|0:0,0:0:0:0:
38,153,16053,2,0,L|25:292,1,131.249992847443,4|0,0:0|0:0,0:0:0:0:
16,370,16481,6,0,L|25:283,3,87.4999952316285,2|2|2|2,0:2|0:0|0:0|0:0,0:0:0:0:
372,23,18195,6,0,P|255:76|139:23,1,262.499995708466,4|2,0:0|0:0,0:0:0:0:
408,0,18838,1,0,0:0:0:0:
484,108,19053,2,0,L|469:238,1,131.249997854233,8|0,0:0|0:0,0:0:0:0:
372,364,19481,1,2,0:0:0:0:
228,284,19695,6,0,P|100:276|5:362,1,262.499995708466,4|0,0:0|0:0,0:0:0:0:
283,100,20338,2,0,P|411:107|506:21,1,262.499995708466,8|2,0:1|0:0,0:0:0:0:
512,188,20981,1,0,0:0:0:0:
404,300,21195,1,8,0:1:0:0:
256,244,21410,1,0,0:0:0:0:
364,68,21624,6,0,P|255:5|148:69,1,262.499995708466,4|2,0:0|0:0,0:0:0:0:
84,184,22267,1,0,0:0:0:0:
36,348,22481,2,0,P|55:285|50:220,1,131.249997854233,8|0,0:0|0:0,0:0:0:0:
0,384,22910,1,2,0:0:0:0:
119,139,23124,6,0,P|255:274|446:260,1,393.749993562699,4|0,0:0|3:0,0:0:0:0:
488,52,23981,6,0,L|504:182,1,131.249997854233,4|2,0:0|0:0,0:0:0:0:
256,20,24410,2,0,L|386:3,1,131.249997854233,12|8,0:3|0:0,0:0:0:0:
256,192,24838,1,0,0:0:0:0:
48,16,25053,1,4,0:0:0:0:
20,40,25481,6,0,L|35:170,1,131.249997854233,2|0,0:0|0:0,0:0:0:0:
124,288,25910,1,8,0:0:0:0:
256,192,26124,1,0,0:0:0:0:
388,96,26338,1,2,0:0:0:0:
480,235,26553,6,0,P|413:343|287:349,1,262.499995708466,4|0,0:0|0:0,0:0:0:0:
195,209,27195,2,0,P|261:101|387:95,1,262.499995708466,8|2,0:0|0:0,0:0:0:0:
332,224,27838,1,0,0:0:0:0:
200,312,28053,1,8,0:0:0:0:
80,212,28267,1,0,0:0:0:0:
68,84,28481,6,0,P|178:85|131:185,1,262.499995708466,4|0,0:0|0:0,0:0:0:0:
443,83,29124,2,0,P|333:84|379:184,1,262.499995708466,4|0,0:0|0:0,0:0:0:0:
139,368,29767,2,0,P|255:315|372:367,1,262.499995708466,4|2,0:0|0:0,0:0:0:0:
73,375,30410,2,0,L|138:367,2,65.6249989271164,0|0|0,3:0|0:0|3:0,0:0:0:0:
0,200,30838,1,0,3:0:0:0:
0,200,30945,1,0,0:0:0:0:
0,200,31053,6,0,P|28:128|80:96,1,131.249997854233,0|0,1:0|0:0,0:0:0:0:
124,88,31374,1,0,0:0:0:0:
124,88,31481,2,0,P|179:121|244:129,1,131.249997854233,8|0,0:0|0:0,0:0:0:0:
512,0,31910,5,4,1:0:0:0:
512,0,32338,2,0,L|500:108,1,109.374994039536,2|0,0:0|0:0,0:0:0:0:
468,252,32767,1,8,0:0:0:0:
356,340,32981,1,0,0:0:0:0:
256,236,33195,1,2,0:0:0:0:
156,340,33410,6,0,P|72:273|57:168,1,218.749988079071,4|0,0:0|0:0,0:0:0:0:
136,64,34053,1,2,0:0:0:0:
256,20,34267,2,0,P|357:56|463:33,1,218.749988079071,4|2,0:0|0:0,0:0:0:0:
484,156,34910,1,8,0:0:0:0:
484,156,35124,1,0,0:0:0:0:
256,360,35338,5,4,0:0:0:0:
128,284,35553,2,0,L|232:315,1,109.374994039536,0|2,0:0|0:0,0:0:0:0:
384,248,35981,2,0,L|279:279,1,109.374994039536,0|8,0:0|0:0,0:0:0:0:
100,336,36410,1,0,0:0:0:0:
12,224,36624,1,2,0:0:0:0:
269,67,36838,6,0,P|162:66|84:139,1,218.749988079071,4|2,0:0|0:0,0:0:0:0:
364,136,37481,1,8,0:0:0:0:
440,236,37695,2,0,P|416:130|453:28,1,218.749988079071,4|2,0:0|0:0,0:0:0:0:
408,284,38338,1,8,0:0:0:0:
408,284,38553,1,0,0:0:0:0:
104,100,38767,5,4,0:0:0:0:
68,232,38981,2,0,L|83:123,1,109.374994039536,0|2,0:0|0:0,0:0:0:0:
240,40,39410,2,0,L|131:55,1,109.374994039536,0|8,0:0|0:0,0:0:0:0:
324,172,39838,1,0,0:0:0:0:
440,48,40053,1,2,0:0:0:0:
390,358,40267,6,0,P|469:286|480:180,1,218.749988079071,4|2,0:0|0:0,0:0:0:0:
256,316,40910,1,8,0:0:0:0:
128,212,41124,2,0,L|345:184,1,218.749988079071,4|2,0:0|0:0,0:0:0:0:
416,40,41767,1,8,0:0:0:0:
416,40,41981,1,0,0:0:0:0:
96,40,42195,5,4,0:0:0:0:
224,107,42410,2,0,P|170:109|123:83,1,109.374994039536,0|2,0:0|0:0,0:0:0:0:
0,160,42838,2,0,P|24:111|68:80,1,109.374994039536,0|8,0:0|0:0,0:0:0:0:
256,16,43267,1,0,0:0:0:0:
368,96,43481,1,2,0:0:0:0:
464,200,43695,6,0,P|428:308|328:356,1,218.749988079071,4|2,0:0|0:0,0:0:0:0:
184,304,44338,1,8,0:0:0:0:
108,52,44553,2,0,L|139:268,1,218.749988079071,4|2,0:0|0:0,0:0:0:0:
320,16,45195,1,8,0:0:0:0:
460,96,45410,1,0,0:0:0:0:
483,260,45624,6,0,P|416:343|312:369,1,218.749988079071,4|0,0:0|0:0,0:0:0:0:
28,260,46267,2,0,P|95:343|199:369,1,218.749988079071,4|0,0:0|0:0,0:0:0:0:
511,183,46910,2,0,P|255:11|0:186,1,656.249964237214,4|0,0:0|0:0,0:0:0:0:
8,224,49053,6,0,P|128:300|244:256,1,262.499995708466,4|2,0:0|0:0,0:0:0:0:
424,32,49695,1,0,0:0:0:0:
192,136,49910,2,0,L|322:145,1,131.249997854233,8|0,0:0|0:0,0:0:0:0:
88,32,50338,1,2,0:0:0:0:
15,167,50553,6,0,P|85:275|209:307,1,262.499995708466,4|0,0:0|0:0,0:0:0:0:
496,167,51195,2,0,P|426:275|302:307,1,262.499995708466,8|2,0:1|0:0,0:0:0:0:
128,156,51838,1,0,0:0:0:0:
256,24,52053,1,8,0:1:0:0:
384,156,52267,1,0,0:0:0:0:
125,332,52481,6,0,L|387:332,1,262.499995708466,4|2,0:0|0:0,0:0:0:0:
500,212,53124,1,0,0:0:0:0:
440,48,53338,2,0,L|457:178,1,131.249997854233,8|0,0:0|0:0,0:0:0:0:
392,8,53767,1,2,0:0:0:0:
488,304,53981,6,0,P|308:358|172:228,1,393.749993562699,4|0,0:0|3:0,0:0:0:0:
160,8,54838,6,0,P|153:72|121:129,1,131.249997854233,4|2,0:0|0:0,0:0:0:0:
390,129,55267,2,0,P|358:72|351:8,1,131.249997854233,12|8,0:3|0:0,0:0:0:0:
80,168,55695,1,0,0:0:0:0:
432,168,55910,1,4,0:0:0:0:
468,142,56338,6,0,L|480:12,1,131.249997854233,2|0,0:0|0:0,0:0:0:0:
364,216,56767,1,8,0:0:0:0:
256,108,56981,1,0,0:0:0:0:
148,0,57195,1,2,0:0:0:0:
35,140,57410,6,0,P|49:267|147:349,1,262.499995708466,4|0,0:0|0:0,0:0:0:0:
368,212,58053,2,0,P|354:84|256:2,1,262.499995708466,8|2,0:0|0:0,0:0:0:0:
72,116,58695,1,0,0:0:0:0:
184,300,58910,1,8,0:0:0:0:
392,260,59124,1,0,0:0:0:0:
480,376,59338,6,0,P|425:258|438:128,1,262.499995708466,4|0,0:0|0:0,0:0:0:0:
73,128,59981,2,0,P|86:258|31:376,1,262.499995708466,4|0,0:0|0:0,0:0:0:0:
303,33,60624,2,0,P|255:129|206:34,1,262.499995708466,4|2,0:0|0:0,0:0:0:0:
412,212,61267,2,0,P|388:236|356:248,2,65.6249989271164,0|0|0,3:0|0:0|3:0,0:0:0:0:
128,364,61695,1,0,3:0:0:0:
128,364,61803,1,0,0:0:0:0:
128,364,61910,6,0,P|130:298|104:239,1,131.249997854233,0|0,1:0|0:0,0:0:0:0:
20,196,62231,1,0,0:0:0:0:
20,196,62338,2,0,P|84:188|139:153,1,131.249997854233,8|0,0:0|0:0,0:0:0:0:
456,0,62767,5,4,1:0:0:0:
496,40,63195,2,0,P|487:104|510:165,1,131.249997854233,2|0,0:0|0:0,0:0:0:0:
404,316,63624,1,8,0:0:0:0:
256,348,63838,1,0,0:0:0:0:
108,380,64053,1,2,0:0:0:0:
0,272,64267,6,0,L|43:13,1,262.499995708466,4|0,0:0|0:0,0:0:0:0:
360,80,64910,2,0,P|257:156|129:143,1,262.499995708466,8|2,0:1|0:0,0:0:0:0:
396,40,65553,1,0,0:0:0:0:
496,164,65767,1,8,0:1:0:0:
412,300,65981,1,0,0:0:0:0:
128,284,66195,6,0,L|388:250,1,262.499995708466,4|2,0:0|0:0,0:0:0:0:
488,136,66838,1,0,0:0:0:0:
256,28,67053,2,0,P|321:28|379:56,1,131.249997854233,8|0,0:0|0:0,0:0:0:0:
128,108,67481,1,2,0:0:0:0:
80,296,67695,6,0,P|257:368|434:293,1,393.749993562699,4|0,0:0|3:0,0:0:0:0:
312,113,68553,6,0,L|436:154,1,131.249997854233,4|2,0:0|0:0,0:0:0:0:
75,154,68981,2,0,L|200:113,1,131.249997854233,12|8,0:3|0:0,0:0:0:0:
256,252,69410,1,0,0:0:0:0:
8,12,69624,1,2,1:2:0:0:
36,36,70053,6,0,P|92:60|176:48,1,131.249997854233,4|0,1:0|0:0,0:0:0:0:
396,160,70481,1,2,0:0:0:0:
256,308,70695,1,0,0:0:0:0:
116,160,70910,1,8,0:0:0:0:
371,75,71124,6,0,P|255:21|140:75,1,262.499995708466,4|0,0:0|0:0,0:0:0:0:
140,308,71767,2,0,P|255:362|371:309,1,262.499995708466,8|2,0:0|0:0,0:0:0:0:
400,104,72410,1,0,0:0:0:0:
256,0,72624,1,8,0:0:0:0:
112,104,72838,1,0,0:0:0:0:
28,372,73053,6,0,L|88:116,1,262.499995708466,4|0,0:0|0:0,0:0:0:0:
423,116,73695,2,0,L|484:372,1,262.499995708466,4|0,0:0|0:0,0:0:0:0:
144,379,74338,2,0,P|255:320|366:380,1,262.499995708466,4|0,0:0|0:0,0:0:0:0:
28,372,74981,2,0,L|44:308,2,65.6249989271164,0|0|0,3:0|0:0|3:0,0:0:0:0:
140,192,75410,1,0,3:0:0:0:
140,192,75517,1,0,0:0:0:0:
140,192,75624,6,0,L|112:60,1,131.249997854233,0|0,1:0|0:0,0:0:0:0:
164,0,75945,1,0,0:0:0:0:
164,0,76053,2,0,L|35:27,1,131.249997854233,8|0,0:0|0:0,0:0:0:0:
0,275,76481,6,0,P|101:353|227:332,1,262.499995708466,4|2,0:0|0:0,0:0:0:0:
384,196,77124,1,0,0:0:0:0:
256,36,77338,2,0,L|124:56,1,131.249997854233,8|0,0:0|0:0,0:0:0:0:
364,20,77767,1,2,0:0:0:0:
28,84,77981,6,0,L|56:348,1,262.499995708466,4|2,0:0|0:0,0:0:0:0:
256,384,78624,1,0,0:0:0:0:
388,251,78838,2,0,P|396:187|380:124,1,131.249997854233,8|0,0:0|0:0,0:0:0:0:
131,124,79267,2,0,P|115:187|123:251,1,131.249997854233,2|0,0:0|0:0,0:0:0:0:
4,12,79695,6,0,P|117:71|239:35,1,262.499995708466,4|0,0:0|0:0,0:0:0:0:
512,0,80338,1,2,0:0:0:0:
480,156,80553,1,0,0:0:0:0:
448,312,80767,2,0,P|328:261|201:283,1,262.499995708466,4|8,0:0|0:0,0:0:0:0:
72,360,81410,1,0,0:0:0:0:
0,232,81624,6,0,L|16:92,1,131.249997854233,4|0,0:0|0:0,0:0:0:0:
256,16,82053,2,0,L|270:146,1,131.249997854233,8|0,0:0|0:0,0:0:0:0:
512,292,82481,2,0,P|384:284|288:369,1,262.499995708466,4|8,0:0|0:0,0:0:0:0:
16,192,83124,1,0,3:0:0:0:
16,192,83231,1,0,0:0:0:0:
16,192,83338,5,4,0:0:0:0:
468,40,83767,2,0,L|440:168,1,131.249997854233,2|0,0:0|0:0,0:0:0:0:
512,0,84195,1,8,0:0:0:0:
416,220,84410,1,0,0:0:0:0:
228,152,84624,1,2,0:0:0:0:
52,248,84838,6,0,P|48:119|126:17,1,262.499995708466,4|2,0:0|0:0,0:0:0:0:
256,92,85481,1,0,0:0:0:0:
385,17,85695,2,0,P|463:119|459:248,1,262.499995708466,4|2,0:0|0:0,0:0:0:0:
256,316,86338,1,8,0:0:0:0:
256,316,86553,1,0,3:0:0:0:
15,164,86767,6,0,P|136:118|210:11,1,262.499995708466,4|8,0:0|0:0,0:0:0:0:
496,164,87410,2,0,P|375:118|301:11,1,262.499995708466,4|2,0:0|0:0,0:0:0:0:
256,332,88053,1,4,0:0:0:0:
