osu file format v14

[General]
AudioFilename: audio.mp3
AudioLeadIn: 0
PreviewTime: 18088
Countdown: 0
SampleSet: Soft
StackLeniency: 0.7
Mode: 0
LetterboxInBreaks: 0
WidescreenStoryboard: 1

[Editor]
Bookmarks: 1053,7910,14767,18195,28481,31910,45624,49053,59338,62767,69624,70053,73053,76481,86767,88053
DistanceSpacing: 1.1
BeatDivisor: 4
GridSize: 4
TimelineZoom: 1

[Metadata]
Title:Amelia et le Mystere du Lycee de Lerne
TitleUnicode:Amélia et le Mystère du Lycée de Lerne
Artist:Mioune
ArtistUnicode:Mioune
Creator:Project Railgun
Version:Hard
Source:Amélia et le Mystère du Lycée de Lerne
Tags:project_railgun french victory shot amelia and the mystery of lerne high school
BeatmapID:1899564
BeatmapSetID:910011

[Difficulty]
HPDrainRate:5.1
CircleSize:4
OverallDifficulty:6.2
ApproachRate:7.5
SliderMultiplier:1.49999990463257
SliderTickRate:1

[Events]
//Background and Video events
Video,1000,"amelia.avi"
0,0,"amelia.jpg",0,0
//Break Periods
//Storyboard Layer 0 (Background)
//Storyboard Layer 1 (Fail)
//Storyboard Layer 2 (Pass)
//Storyboard Layer 3 (Foreground)
//Storyboard Sound Samples

[TimingPoints]
1053,428.571428571429,4,2,1,80,1,0
1053,-133.333333333333,4,2,1,80,0,0
14767,-100,4,2,1,80,0,0
18195,-66.6666666666667,4,2,1,80,0,1
28481,-66.6666666666667,4,2,1,80,0,0
31910,-80,4,2,1,80,0,1
31963,-80,4,2,1,80,0,0
49053,-66.6666666666667,4,2,1,80,0,1
59338,-66.6666666666667,4,2,1,80,0,0
62767,-66.6666666666667,4,2,1,80,0,1
69624,-66.6666666666667,4,2,1,80,0,0
70053,-66.6666666666667,4,2,1,80,0,1
73053,-66.6666666666667,4,2,1,80,0,0
76481,-66.6666666666667,4,2,1,80,0,1
88053,-66.6666666666667,4,2,1,80,0,0

[Colours]
Combo1 : 211,202,10
Combo2 : 99,89,217
Combo3 : 68,181,62
Combo4 : 209,67,135

[HitObjects]
224,71,1053,6,0,P|382:43|486:166,1,337.499991416931,4|2,0:0|0:0,0:0:0:0:
388,368,2767,6,0,L|396:312,1,56.2499985694885,0|0,3:0|0:0,0:0:0:0:
308,220,3195,2,0,L|299:275,1,56.2499985694885,2|0,0:0|0:0,0:0:0:0:
200,368,3624,2,0,L|191:312,1,56.2499985694885,0|0,3:0|0:0,0:0:0:0:
104,220,4053,2,0,L|95:275,1,56.2499985694885,2|0,0:0|0:0,0:0:0:0:
107,115,4481,6,0,P|80:116|54:127,1,56.2499985694885,0|0,3:0|0:0,0:0:0:0:
196,36,4910,2,0,P|168:35|142:24,1,56.2499985694885,2|0,0:0|0:0,0:0:0:0:
256,124,5338,2,0,P|228:124|202:135,1,56.2499985694885,0|0,3:0|0:0,0:0:0:0:
344,48,5767,2,0,P|316:47|290:36,1,56.2499985694885,2|0,0:0|0:0,0:0:0:0:
404,172,6195,6,0,L|413:116,1,56.2499985694885,0|0,3:0|0:0,0:0:0:0:
316,252,6624,2,0,L|306:196,1,56.2499985694885,2|0,0:0|0:0,0:0:0:0:
452,304,7053,2,0,L|461:248,1,56.2499985694885,0|0,3:0|0:0,0:0:0:0:
256,364,7481,2,0,L|246:308,1,56.2499985694885,2|0,0:0|0:0,0:0:0:0:
116,120,7910,6,0,P|255:39|395:120,1,337.499991416931,4|2,0:0|0:0,0:0:0:0:
312,292,9624,6,0,L|366:279,1,56.2499985694885,0|0,3:0|0:0,0:0:0:0:
146,279,10053,2,0,L|200:291,1,56.2499985694885,2|0,0:0|0:0,0:0:0:0:
76,344,10481,1,0,3:0:0:0:
24,260,10695,1,0,0:0:0:0:
104,196,10910,2,0,P|113:169|116:141,1,56.2499985694885,2|0,0:0|0:0,0:0:0:0:
200,36,11338,6,0,L|144:45,1,56.2499985694885,0|0,3:0|0:0,0:0:0:0:
367,45,11767,2,0,L|312:36,1,56.2499985694885,2|0,0:0|0:0,0:0:0:0:
256,136,12195,1,0,3:0:0:0:
324,212,12410,1,0,0:0:0:0:
416,164,12624,2,0,P|432:141|439:114,1,56.2499985694885,2|0,0:0|0:0,0:0:0:0:
404,272,13053,6,0,L|414:327,1,56.2499985694885,0|0,3:0|0:0,0:0:0:0:
276,384,13481,2,0,L|286:328,1,56.2499985694885,2|0,0:0|0:0,0:0:0:0:
188,256,13910,1,0,3:0:0:0:
88,332,14124,1,0,0:0:0:0:
20,228,14338,2,0,P|14:201|13:173,1,56.2499985694885,2|0,0:0|0:0,0:0:0:0:
48,24,14767,5,4,0:0:0:0:
256,368,15410,1,2,0:0:0:0:
464,24,16053,1,4,0:0:0:0:
27,60,18195,6,0,P|25:171|60:278,1,224.999994277954,4|2,0:0|0:0,0:0:0:0:
160,352,18838,1,0,0:0:0:0:
256,272,19053,1,8,0:0:0:0:
352,352,19267,1,0,0:0:0:0:
352,352,19481,1,2,0:0:0:0:
483,171,19695,6,0,P|431:75|329:32,1,224.999994277954,4|2,0:0|0:0,0:0:0:0:
182,32,20338,2,0,P|80:75|28:171,1,224.999994277954,8|2,0:1|0:0,0:0:0:0:
96,284,20981,1,0,0:0:0:0:
203,360,21195,2,0,P|255:376|308:361,1,112.499997138977,8|0,0:1|0:0,0:0:0:0:
416,284,21624,6,0,L|400:59,1,224.999994277954,4|2,0:0|0:0,0:0:0:0:
288,8,22267,1,0,0:0:0:0:
256,128,22481,1,8,0:0:0:0:
144,180,22695,1,0,0:0:0:0:
144,180,22910,1,2,0:0:0:0:
120,328,23124,6,0,P|256:243|392:328,1,337.499991416931,4|0,0:0|3:0,0:0:0:0:
428,208,23981,2,0,P|383:174|355:126,1,112.499997138977,4|0,0:0|0:0,0:0:0:0:
256,44,24410,1,12,0:3:0:0:
256,44,24624,1,8,0:0:0:0:
152,160,24838,1,0,0:0:0:0:
360,160,25053,5,4,0:0:0:0:
156,312,25481,2,0,P|253:359|351:312,1,224.999994277954,2|8,0:0|0:0,0:0:0:0:
424,212,26124,1,0,0:0:0:0:
344,108,26338,1,2,0:0:0:0:
256,4,26553,6,0,P|167:68|58:50,1,224.999994277954,4|2,0:0|0:0,0:0:0:0:
256,140,27195,2,0,P|344:204|453:186,1,224.999994277954,8|2,0:0|0:0,0:0:0:0:
440,308,27838,1,0,0:0:0:0:
336,376,28053,1,8,0:0:0:0:
216,352,28267,1,0,0:0:0:0:
112,288,28481,6,0,L|130:63,1,224.999994277954,4|0,0:0|0:0,0:0:0:0:
256,28,29124,2,0,P|364:48|461:-2,1,224.999994277954,4|0,0:0|0:0,0:0:0:0:
460,152,29767,2,0,P|383:91|346:181,1,224.999994277954,4|2,0:0|0:0,0:0:0:0:
256,304,30410,2,0,L|268:364,2,56.2499985694885,0|0|0,3:0|0:0|3:0,0:0:0:0:
136,152,30838,1,0,3:0:0:0:
136,152,30945,1,0,0:0:0:0:
136,152,31053,6,0,L|156:32,1,112.499997138977,0|0,1:0|0:0,0:0:0:0:
208,16,31374,1,0,0:0:0:0:
208,16,31481,2,0,L|319:34,1,112.499997138977,8|0,0:0|0:0,0:0:0:0:
340,224,31910,6,0,P|256:187|172:223,1,187.499988079071,4|2,0:0|0:0,0:0:0:0:
104,312,32553,1,0,0:0:0:0:
200,376,32767,1,8,0:0:0:0:
312,376,32981,1,0,0:0:0:0:
408,312,33195,1,2,0:0:0:0:
338,222,33410,6,0,P|335:129|370:43,1,187.499988079071,4|2,0:0|0:0,0:0:0:0:
256,4,34053,1,8,0:0:0:0:
141,43,34267,2,0,P|176:129|173:222,1,187.499988079071,4|2,0:0|0:0,0:0:0:0:
76,268,34910,1,8,0:0:0:0:
128,360,35124,1,0,0:0:0:0:
256,304,35338,5,4,0:0:0:0:
292,176,35553,2,0,L|280:269,1,93.7499940395356,0|2,0:0|0:0,0:0:0:0:
316,44,35981,2,0,L|327:137,1,93.7499940395356,0|8,0:0|0:0,0:0:0:0:
272,12,36410,1,0,0:0:0:0:
172,84,36624,1,2,0:0:0:0:
71,156,36838,6,0,P|83:248|136:324,1,187.499988079071,4|2,0:0|0:0,0:0:0:0:
256,264,37481,1,8,0:0:0:0:
375,324,37695,2,0,P|428:248|440:156,1,187.499988079071,4|2,0:0|0:0,0:0:0:0:
364,64,38338,1,8,0:0:0:0:
364,64,38553,1,0,0:0:0:0:
148,64,38767,5,4,0:0:0:0:
208,216,38981,2,0,P|161:210|124:183,1,93.7499940395356,0|2,0:0|0:0,0:0:0:0:
388,183,39410,2,0,P|350:210|304:215,1,93.7499940395356,0|8,0:0|0:0,0:0:0:0:
440,84,39838,1,0,0:0:0:0:
512,168,40053,1,2,0:0:0:0:
476,275,40267,6,0,P|411:342|316:364,1,187.499988079071,4|2,0:0|0:0,0:0:0:0:
208,320,40910,1,8,0:0:0:0:
104,256,41124,2,0,P|79:166|98:75,1,187.499988079071,4|2,0:0|0:0,0:0:0:0:
200,16,41767,1,8,0:0:0:0:
288,100,41981,1,0,0:0:0:0:
432,40,42195,5,4,0:0:0:0:
452,176,42410,2,0,L|462:82,1,93.7499940395356,0|2,0:0|0:0,0:0:0:0:
401,202,42838,2,0,L|412:296,1,93.7499940395356,0|8,0:0|0:0,0:0:0:0:
352,164,43267,1,0,0:0:0:0:
256,272,43481,1,2,0:0:0:0:
132,344,43695,6,0,P|73:271|62:180,1,187.499988079071,4|2,0:0|0:0,0:0:0:0:
112,76,44338,1,8,0:0:0:0:
216,20,44553,2,0,P|297:63|389:56,1,187.499988079071,4|2,0:0|0:0,0:0:0:0:
508,0,45195,1,8,0:0:0:0:
496,132,45410,1,0,0:0:0:0:
340,208,45624,6,0,P|255:171|170:205,1,187.499988079071,4|0,0:0|0:0,0:0:0:0:
170,333,46267,2,0,P|254:369|340:336,1,187.499988079071,4|0,0:0|0:0,0:0:0:0:
475,203,46910,2,0,P|256:55|36:204,1,562.499964237214,4|0,0:0|0:0,0:0:0:0:
24,247,49053,6,0,P|69:146|157:77,1,224.999994277954,4|2,0:0|0:0,0:0:0:0:
256,152,49695,1,0,0:0:0:0:
355,76,49910,1,8,0:0:0:0:
256,0,50124,1,0,0:0:0:0:
256,0,50338,1,2,0:0:0:0:
358,191,50553,6,0,P|255:152|153:192,1,224.999994277954,4|2,0:0|0:0,0:0:0:0:
153,327,51195,2,0,P|255:366|357:327,1,224.999994277954,8|2,0:1|0:0,0:0:0:0:
448,212,51838,1,0,0:0:0:0:
376,108,52053,1,8,0:1:0:0:
256,60,52267,1,0,0:0:0:0:
135,108,52481,6,0,P|66:193|69:303,1,224.999994277954,4|2,0:0|0:0,0:0:0:0:
168,380,53124,1,0,0:0:0:0:
256,292,53338,1,8,0:0:0:0:
344,380,53553,1,0,0:0:0:0:
344,380,53767,1,2,0:0:0:0:
388,164,53981,6,0,P|256:253|123:164,1,337.499991416931,4|0,0:0|3:0,0:0:0:0:
256,12,54838,2,0,P|200:20|155:52,1,112.499997138977,4|0,0:0|0:0,0:0:0:0:
256,136,55267,1,12,0:3:0:0:
256,136,55481,1,8,0:0:0:0:
372,48,55695,1,0,0:0:0:0:
428,196,55910,5,4,0:0:0:0:
156,335,56338,2,0,P|256:291|356:336,1,224.999994277954,2|8,0:0|0:0,0:0:0:0:
472,380,56981,1,0,0:0:0:0:
448,260,57195,1,2,0:0:0:0:
331,207,57410,6,0,P|319:98|380:6,1,224.999994277954,4|2,0:0|0:0,0:0:0:0:
131,6,58053,2,0,P|192:98|180:207,1,224.999994277954,8|2,0:0|0:0,0:0:0:0:
68,260,58695,1,0,0:0:0:0:
140,360,58910,1,8,0:0:0:0:
256,288,59124,1,0,0:0:0:0:
372,360,59338,6,0,L|355:135,1,224.999994277954,4|0,0:0|0:0,0:0:0:0:
224,76,59981,2,0,P|314:111|321:14,1,224.999994277954,4|0,0:0|0:0,0:0:0:0:
110,120,60624,2,0,P|72:223|99:331,1,224.999994277954,4|2,0:0|0:0,0:0:0:0:
228,248,61267,2,0,P|255:243|283:248,2,56.2499985694885,0|0|0,3:0|0:0|3:0,0:0:0:0:
388,335,61695,1,0,3:0:0:0:
388,335,61803,1,0,0:0:0:0:
388,335,61910,6,0,L|498:316,1,112.499997138977,0|0,1:0|0:0,0:0:0:0:
504,268,62231,1,0,0:0:0:0:
504,268,62338,2,0,L|485:157,1,112.499997138977,8|0,0:0|0:0,0:0:0:0:
480,8,62767,6,0,P|417:98|309:113,1,224.999994277954,4|2,0:0|0:0,0:0:0:0:
188,88,63410,1,0,0:0:0:0:
188,88,63624,1,8,0:0:0:0:
96,168,63838,1,0,0:0:0:0:
124,288,64053,1,2,0:0:0:0:
355,271,64267,6,0,P|255:227|155:272,1,224.999994277954,4|2,0:0|0:0,0:0:0:0:
155,68,64910,2,0,P|255:113|356:69,1,224.999994277954,8|2,0:1|0:0,0:0:0:0:
448,156,65553,1,0,0:0:0:0:
380,268,65767,1,8,0:1:0:0:
256,300,65981,1,0,0:0:0:0:
159,215,66195,6,0,P|69:182|68:278,1,224.999994277954,4|2,0:0|0:0,0:0:0:0:
164,360,66838,1,0,0:0:0:0:
164,360,67053,1,8,0:0:0:0:
256,276,67267,1,0,0:0:0:0:
348,360,67481,1,2,0:0:0:0:
480,192,67695,6,0,P|397:53|235:52,1,337.499991416931,4|0,0:0|3:0,0:0:0:0:
128,228,68553,2,0,P|149:176|151:120,1,112.499997138977,4|0,0:0|0:0,0:0:0:0:
48,296,68981,1,12,0:3:0:0:
48,296,69195,1,8,0:0:0:0:
172,368,69410,1,0,0:0:0:0:
312,240,69624,1,2,1:2:0:0:
348,208,70053,6,0,L|336:92,1,112.499997138977,4|0,1:0|0:0,0:0:0:0:
176,4,70481,1,2,0:0:0:0:
388,124,70695,1,0,0:0:0:0:
152,200,70910,1,8,0:0:0:0:
196,332,71124,6,0,P|304:339|382:263,1,224.999994277954,4|2,0:0|0:0,0:0:0:0:
332,148,71767,2,0,P|223:140|145:216,1,224.999994277954,8|2,0:0|0:0,0:0:0:0:
172,352,72410,1,0,0:0:0:0:
256,252,72624,1,8,0:0:0:0:
340,352,72838,1,0,0:0:0:0:
396,235,73053,6,0,P|411:126|358:29,1,224.999994277954,4|0,0:0|0:0,0:0:0:0:
153,29,73695,2,0,P|100:126|115:235,1,224.999994277954,4|0,0:0|0:0,0:0:0:0:
392,272,74338,2,0,L|431:50,1,224.999994277954,4|2,0:0|0:0,0:0:0:0:
316,132,74981,2,0,L|306:187,2,56.2499985694885,0|0|0,3:0|0:0|3:0,0:0:0:0:
188,64,75410,1,0,3:0:0:0:
188,64,75517,1,0,0:0:0:0:
188,64,75624,6,0,L|75:70,1,112.499997138977,0|0,1:0|0:0,0:0:0:0:
40,104,75945,1,0,0:0:0:0:
40,104,76053,2,0,L|46:216,1,112.499997138977,8|0,0:0|0:0,0:0:0:0:
159,358,76481,6,0,P|255:309|352:359,1,224.999994277954,4|2,0:0|0:0,0:0:0:0:
468,312,77124,1,0,0:0:0:0:
428,196,77338,2,0,L|316:164,1,112.499997138977,8|0,0:0|0:0,0:0:0:0:
193,165,77767,2,0,L|84:195,1,112.499997138977,2|0,0:0|0:0,0:0:0:0:
0,104,78195,6,0,L|216:41,1,224.999994277954,4|2,0:0|0:0,0:0:0:0:
336,8,78838,1,0,0:0:0:0:
404,112,79053,2,0,P|409:167|389:219,1,112.499997138977,8|0,0:0|0:0,0:0:0:0:
256,292,79481,1,2,0:0:0:0:
123,219,79695,1,0,0:0:0:0:
158,71,79910,6,0,P|255:119|353:72,1,224.999994277954,4|2,0:0|0:0,0:0:0:0:
456,0,80553,1,0,0:0:0:0:
508,112,80767,2,0,L|464:336,1,224.999994277954,4|8,0:0|0:0,0:0:0:0:
348,372,81410,1,0,0:0:0:0:
255,291,81624,6,0,P|240:238|245:182,1,112.499997138977,4|0,0:0|0:0,0:0:0:0:
148,92,82053,2,0,P|153:147|137:201,1,112.499997138977,8|0,0:0|0:0,0:0:0:0:
24,44,82481,2,0,P|135:54|240:17,1,224.999994277954,4|8,0:0|0:0,0:0:0:0:
400,92,83124,1,0,3:0:0:0:
400,92,83231,1,0,0:0:0:0:
400,92,83338,5,4,0:0:0:0:
357,279,83767,2,0,P|256:324|156:279,1,224.999994277954,2|8,0:0|0:0,0:0:0:0:
72,176,84410,1,0,0:0:0:0:
172,72,84624,1,2,0:0:0:0:
292,152,84838,6,0,L|512:202,1,224.999994277954,4|0,0:0|3:0,0:0:0:0:
220,48,85695,2,0,L|1:98,1,224.999994277954,0|8,3:0|0:0,0:0:0:0:
256,368,86553,1,0,3:0:0:0:
378,322,86767,6,0,P|405:215|371:109,1,224.999994277954,4|8,0:0|0:0,0:0:0:0:
142,109,87410,2,0,P|108:215|135:322,1,224.999994277954,4|0,0:0|3:0,0:0:0:0:
256,64,88053,1,4,0:0:0:0:
