osu file format v14

[General]
AudioFilename: audio.mp3
AudioLeadIn: 0
PreviewTime: 54716
Countdown: 1
SampleSet: Soft
StackLeniency: 0.7
Mode: 0
LetterboxInBreaks: 0
WidescreenStoryboard: 0

[Editor]
DistanceSpacing: 2
BeatDivisor: 4
GridSize: 16
TimelineZoom: 1

[Metadata]
Title:Noise (English ver.)
TitleUnicode:Noise (English ver.)
Artist:Mio Yamazaki
ArtistUnicode:Mio Yamazaki
Creator:nigelf
Version:what a beautiful world
Source:
Tags:
BeatmapID:1960416
BeatmapSetID:938497

[Difficulty]
HPDrainRate:3
CircleSize:4.5
OverallDifficulty:9.5
ApproachRate:10
SliderMultiplier:1.8
SliderTickRate:1

[Events]
//Background and Video events
0,0,"ZDBcaGK - Kopie.jpg",0,0
//Break Periods
//Storyboard Layer 0 (Background)
//Storyboard Layer 1 (Fail)
//Storyboard Layer 2 (Pass)
//Storyboard Layer 3 (Foreground)
//Storyboard Layer 4 (Overlay)
//Storyboard Sound Samples

[TimingPoints]
0,-39.2156862745098,3,2,0,50,0,0
316,266.666666666667,3,2,0,50,1,0
38716,-125,3,2,0,70,0,0
48316,-133.333333333333,3,2,0,75,0,0
53116,-200,3,2,0,70,0,0
53382,-166.666666666667,3,2,0,70,0,0
53649,-142.857142857143,3,2,0,70,0,0
53916,-125,3,2,0,70,0,0
54449,-166.666666666667,3,2,0,50,0,0
54716,-83.3333333333333,3,2,0,100,0,1
69916,-83.3333333333333,3,2,0,100,0,0
70716,-100,3,2,0,80,0,0
76316,-200,3,2,0,80,0,0
76449,-200,3,2,0,20,0,0
76982,-200,3,2,0,60,0,0
77116,-100,3,2,0,80,0,0
83516,-142.857142857143,3,2,0,60,0,0
96316,-166.666666666667,3,2,0,60,0,0
99516,-125,3,2,0,70,0,0
109116,-133.333333333333,3,2,0,75,0,0
113916,-200,3,2,0,75,0,0
114182,-166.666666666667,3,2,0,75,0,0
114449,-142.857142857143,3,2,0,75,0,0
114716,-125,3,2,0,75,0,0
115249,-125,3,2,0,5,0,0
115516,-200,3,2,0,60,0,0
128316,-100,3,2,0,80,0,0
129116,-76.9230769230769,4,2,0,100,0,1
144316,-76.9230769230769,4,2,0,100,0,0
145116,-90.9090909090909,4,2,0,80,0,0
157916,-83.3333333333333,4,2,0,100,0,1
164182,-83.3333333333333,4,2,0,100,0,0
164316,-66.6666666666667,4,2,0,100,0,1
169116,303.030303030303,4,2,0,50,1,0
169116,-166.666666666667,4,2,0,50,0,0
169419,-166.666666666667,4,2,0,20,0,0
169669,270.27027027027,4,2,0,20,1,0
169669,-166.666666666667,4,2,0,20,0,0
169939,-1000,4,2,0,20,0,0
170209,-1000,4,2,0,5,0,0

[Colours]
Combo1 : 255,192,0
Combo2 : 255,128,64
Combo3 : 255,128,128
Combo4 : 242,24,57

[HitObjects]
46,60,449,6,0,P|6:94|62:118,1,135
107,48,516,2,0,B|112:138|112:138|110:101|111:100|111:100|171:97|171:97|171:48|171:46|171:46|173:143|173:143|171:142,1,315
228,48,649,2,0,L|228:150,1,90
286,42,716,2,0,B|288:160|288:160|289:102|289:102|339:85|348:72|378:60|290:42|290:42|330:47,1,315
368,49,782,2,0,B|370:167|370:167|371:109|371:109|421:92|430:79|460:67|372:49|372:49|412:54,1,315
479,180,849,2,0,B|479:122|479:122|425:58|425:58|479:120|479:120|503:51|503:51,1,270
0,150,916,2,0,B|-3:252|-3:252|-2:206|-2:206|78:206|78:206|82:155|82:155|72:267|72:267,1,360
119,254,982,2,0,B|124:140|124:140|204:146|204:146|197:270|197:270|199:215|199:215|120:209|120:209,1,450
260,156,1049,2,0,L|248:295,1,135
312,298,1116,2,0,B|319:154|319:154|419:211|335:236|335:236|391:305,1,360
42,151,1849,2,0,B|31:308|31:309|31:309|113:308,1,225
154,165,1916,2,0,L|150:322,1,135
218,313,2049,2,0,B|228:165|228:165|281:315|281:315|294:175|294:175|296:165,1,450
461,179,2116,2,0,B|368:174|368:174|360:269|360:269|470:268|470:268|363:269|363:269|350:341|350:341|480:339|480:339,1,585
229,351,3582,6,0,P|226:289|269:224,1,125.999996154785,2|0,0:0|0:0,0:0:0:0:
405,184,3982,6,0,L|412:253,1,62.9999980773926,0|0,1:0|0:0,0:0:0:0:
427,109,4248,6,0,L|420:178,1,62.9999980773926,2|0,0:0|0:0,0:0:0:0:
405,33,4515,2,0,L|412:102,1,62.9999980773926,2|0,0:0|0:0,0:0:0:0:
299,178,4782,5,2,0:0:0:0:
299,178,4915,2,0,P|259:161|227:158,1,62.9999980773926,2|0,0:0|0:0,0:0:0:0:
128,202,5182,2,0,P|162:173|244:158,1,125.999996154785,2|0,0:0|0:0,0:0:0:0:
337,282,5582,2,0,P|300:285|266:278,1,62.9999980773926,0|0,1:0|0:0,0:0:0:0:
410,252,5848,2,0,P|373:249|339:256,1,62.9999980773926,2|0,0:0|0:0,0:0:0:0:
483,282,6115,2,0,P|446:285|412:278,1,62.9999980773926,2|0,0:0|0:0,0:0:0:0:
333,148,6382,6,0,B|320:110|338:62|338:62|301:80,1,125.999996154785,6|0,0:0|0:0,0:0:0:0:
275,9,6782,2,0,B|288:47|270:95|270:95|307:77,1,125.999996154785,2|0,0:0|0:0,0:0:0:0:
453,26,7182,6,0,B|496:69|485:131|485:131|496:135|496:135|485:131|485:131|435:166|456:218|456:218|467:222|467:222|456:218|456:218|427:253|439:304,1,346.49998942566,2|0,0:0|0:0,0:0:0:0:
437,297,7982,6,0,P|390:268|293:288,1,144,6|2,0:0|0:0,0:0:0:0:
206,320,8382,2,0,P|195:268|193:246,1,72,0|2,0:0|0:0,0:0:0:0:
215,143,8648,1,0,0:0:0:0:
111,175,8782,2,0,P|61:172|36:159,1,72,2|0,0:0|0:0,0:0:0:0:
191,77,9048,2,0,P|213:121|214:149,1,72,2|0,0:0|0:0,0:0:0:0:
65,54,9315,2,0,P|82:23|110:1,1,72,0|0,1:0|0:0,0:0:0:0:
282,21,9582,6,0,B|322:38|322:38|431:16,1,144,2|2,0:0|0:0,0:0:0:0:
495,96,9982,2,0,P|480:134|480:178,1,72,0|2,0:0|0:0,0:0:0:0:
500,270,10248,1,0,0:0:0:0:
397,304,10382,2,0,L|315:299,1,72,2|0,0:0|0:0,0:0:0:0:
320,127,10648,2,0,L|356:200,1,72,2|0,0:0|0:0,0:0:0:0:
204,282,10915,2,0,L|249:213,1,72,0|0,1:0|0:0,0:0:0:0:
181,60,11182,6,0,P|140:120|158:206,1,144,2|2,0:0|0:0,0:0:0:0:
204,282,11582,2,0,L|197:373,1,72,0|2,0:0|0:0,0:0:0:0:
110,290,11848,1,0,0:0:0:0:
147,188,11982,2,0,P|179:174|226:173,1,72,2|0,0:0|0:0,0:0:0:0:
346,59,12248,2,0,P|342:93|319:134,1,72,2|0,0:0|0:0,0:0:0:0:
360,296,12515,2,0,P|331:275|307:235,1,72,0|0,1:0|0:0,0:0:0:0:
241,86,12782,6,0,B|193:81|193:81|153:97|153:97|96:90,1,144,2|2,0:0|0:0,0:0:0:0:
17,157,13182,2,0,P|13:194|23:238,1,72,0|2,0:0|0:0,0:0:0:0:
90,308,13448,1,0,0:0:0:0:
163,228,13582,2,0,L|237:238,1,72,2|0,0:0|0:0,0:0:0:0:
277,336,13848,2,0,L|203:346,1,72,2|0,0:0|0:0,0:0:0:0:
344,253,14115,1,0,1:0:0:0:
408,380,14248,1,0,0:0:0:0:
499,240,14382,6,0,B|524:170|467:164|501:88,1,144,6|2,0:0|0:0,0:0:0:0:
427,15,14782,2,0,P|395:31|351:38,1,72,0|2,0:0|0:0,0:0:0:0:
253,21,15048,1,0,0:0:0:0:
180,101,15182,2,0,L|193:173,1,72,2|0,0:0|0:0,0:0:0:0:
355,229,15448,2,0,L|286:204,1,72,2|0,0:0|0:0,0:0:0:0:
157,319,15715,2,0,L|212:271,1,72,0|0,1:0|0:0,0:0:0:0:
77,161,15982,6,0,P|46:201|50:299,1,144,2|2,0:0|0:0,0:0:0:0:
157,319,16382,2,0,L|150:247,1,72,0|2,0:0|0:0,0:0:0:0:
190,147,16648,1,0,0:0:0:0:
293,179,16782,2,0,P|330:180|363:169,1,72,2|0,0:0|0:0,0:0:0:0:
442,16,17048,2,0,P|422:47|415:81,1,72,2|0,0:0|0:0,0:0:0:0:
512,218,17315,2,0,P|494:185|468:162,1,72,0|0,1:0|0:0,0:0:0:0:
323,88,17582,6,0,B|277:59|220:79|236:94|185:126|115:85,1,202.500007724762,6|2,0:0|0:0,0:0:0:0:
21,175,18115,2,0,L|26:255,1,67.5000025749208,0|0,1:0|0:0,0:0:0:0:
149,297,18382,2,0,P|194:289|243:300,1,67.5000025749208,2|0,0:0|0:0,0:0:0:0:
292,181,18648,2,0,P|247:189|198:178,1,67.5000025749208,2|0,0:0|0:0,0:0:0:0:
321,283,18915,2,0,P|366:275|415:286,1,67.5000025749208,0|0,1:0|0:0,0:0:0:0:
490,151,19182,6,0,B|510:82|477:20|477:20|461:68|405:82,1,202.500007724762,6|2,0:0|0:0,0:0:0:0:
298,65,19715,2,0,P|301:99|313:131,1,67.5000025749208,0|0,1:0|0:0,0:0:0:0:
334,265,19982,2,0,L|253:273,1,67.5000025749208,2|0,0:0|0:0,0:0:0:0:
166,361,20248,2,0,L|247:369,1,67.5000025749208,2|0,0:0|0:0,0:0:0:0:
106,276,20515,2,0,L|25:284,1,67.5000025749208,0|0,1:0|0:0,0:0:0:0:
11,122,20782,6,0,B|59:111|59:111|112:132|112:132|166:123|166:123|207:89,1,202.500007724762,6|2,0:0|0:0,0:0:0:0:
337,14,21315,2,0,P|351:47|357:97,1,67.5000025749208,0|0,1:0|0:0,0:0:0:0:
427,224,21582,2,0,P|433:190|446:159,1,67.5000025749208,2|0,0:0|0:0,0:0:0:0:
337,14,21848,5,0,1:0:0:0:
272,193,21982,1,0,1:0:0:0:
219,10,22115,1,0,1:0:0:0:
369,128,22248,1,0,1:0:0:0:
178,121,22382,5,2,0:0:0:0:
174,125,22648,5,2,0:0:0:0:
170,129,22915,5,2,0:0:0:0:
166,133,23182,5,2,0:0:0:0:
166,133,23715,6,0,L|102:138,1,53.9999983520508
37,169,23982,6,0,B|100:163|100:163|148:180|148:180|186:158|186:158|261:151,1,215.999993408203,6|0,0:0|0:0,0:0:0:0:
481,129,24382,2,0,B|509:181|509:181|469:277|469:277|434:225,1,215.999993408203,2|2,0:0|0:0,0:0:0:0:
289,47,24782,2,0,L|181:54,1,107.999996704102,0|0,1:0|0:0,0:0:0:0:
227,242,25048,1,2,0:0:0:0:
396,73,25182,1,0,1:0:0:0:
161,84,25315,2,0,L|53:77,1,107.999996704102,2|0,0:0|0:0,0:0:0:0:
257,217,25582,6,0,B|313:207|313:207|355:229|355:229|428:218|428:218|399:251,1,215.999993408203,2|0,0:0|0:0,0:0:0:0:
161,310,25982,2,0,B|126:270|125:217|125:217|68:243|13:222,1,215.999993408203,2|2,0:0|0:0,0:0:0:0:
242,111,26382,2,0,P|257:168|256:222,1,107.999996704102,0|0,1:0|0:0,0:0:0:0:
120,9,26648,1,2,0:0:0:0:
386,62,26782,1,0,1:0:0:0:
209,110,26915,2,0,L|79:123,1,107.999996704102,2|0,0:0|0:0,0:0:0:0:
280,302,27182,6,0,B|337:324|386:277|386:277|454:257|496:280|510:306|510:306|497:343|451:349,1,323.999990112305,6|0,0:0|0:0,0:0:0:0:
314,212,27715,2,0,L|303:89,1,107.999996704102,2|0,0:0|0:0,0:0:0:0:
4,130,27982,6,0,B|40:174|40:174|208:146,1,215.999993408203,0|2,1:0|0:0,0:0:0:0:
483,102,28382,1,0,1:0:0:0:
199,42,28515,2,0,P|187:94|202:158,1,107.999996704102,2|0,0:0|0:0,0:0:0:0:
351,371,28782,6,0,P|404:336|450:192,1,215.999993408203,6|0,0:0|0:0,0:0:0:0:
351,24,29182,2,0,P|404:58|450:202,1,215.999993408203,2|0,0:0|0:0,0:0:0:0:
190,176,29582,2,0,L|298:171,1,107.999996704102,4|0,1:2|0:0,0:0:0:0:
76,38,29848,5,4,3:0:0:0:
163,283,29982,1,4,3:0:0:0:
232,33,30115,1,4,3:0:0:0:
23,188,30249,1,4,3:0:0:0:
335,171,30382,5,6,0:0:0:0:
163,283,30515,2,0,L|40:276,1,107.999996704102,2|0,0:0|0:0,0:0:0:0:
324,204,30782,2,0,L|447:197,1,107.999996704102,2|0,0:0|0:0,0:0:0:0:
232,33,31048,1,2,0:0:0:0:
256,366,31182,2,0,P|321:334|311:191,1,215.999993408203,0|2,1:0|0:0,0:0:0:0:
72,372,31582,1,0,1:0:0:0:
7,166,31715,2,0,L|15:40,1,107.999996704102,2|0,0:0|0:0,0:0:0:0:
323,204,31982,6,0,B|262:241|262:241|115:210,1,215.999993408203,6|0,0:0|0:0,0:0:0:0:
398,118,32382,2,0,P|431:170|436:226,1,107.999996704102,2|0,0:0|0:0,0:0:0:0:
250,374,32648,1,2,0:0:0:0:
240,114,32782,2,0,L|249:3,1,107.999996704102,0|0,1:0|0:0,0:0:0:0:
341,225,33048,1,2,0:0:0:0:
120,211,33182,1,0,1:0:0:0:
361,370,33315,2,0,P|419:373|465:353,1,107.999996704102,0|0,1:0|0:0,0:0:0:0:
122,239,33582,6,0,P|72:218|18:222,1,107.999996704102,6|0,0:0|0:0,0:0:0:0:
237,141,33848,2,0,P|230:87|199:42,1,107.999996704102,2|0,0:0|0:0,0:0:0:0:
403,162,34115,2,0,P|446:129|469:80,1,107.999996704102,2|0,0:0|0:0,0:0:0:0:
235,232,34382,2,0,B|216:282|216:282|240:315|240:315|249:382|249:382|280:317,1,215.999993408203,0|2,1:0|0:0,0:0:0:0:
339,94,34782,1,0,3:0:0:0:
92,172,34915,2,0,P|79:120|89:65,1,107.999996704102,0|0,1:0|0:0,0:0:0:0:
340,236,35182,5,6,0:0:0:0:
140,318,35315,2,0,L|17:307,1,107.999996704102,2|0,0:0|0:0,0:0:0:0:
203,117,35582,2,0,L|326:106,1,107.999996704102,2|0,0:0|0:0,0:0:0:0:
260,308,35848,1,2,0:0:0:0:
50,172,35982,2,0,P|39:122|52:63,1,107.999996704102,0|0,1:0|0:0,0:0:0:0:
337,28,36248,5,0,1:0:0:0:
247,273,36382,1,0,1:0:0:0:
464,126,36516,1,0,1:0:0:0:
203,117,36648,1,0,1:0:0:0:
408,278,36782,6,0,P|455:293|512:275,1,107.999996704102,4|0,1:2|0:0,0:0:0:0:
234,127,37048,1,0,1:0:0:0:
117,359,37182,1,0,1:0:0:0:
102,100,37315,1,0,1:0:0:0:
260,308,37448,1,0,1:0:0:0:
370,36,37582,6,0,L|256:28,1,107.999996704102,6|0,1:2|0:0,0:0:0:0:
8,170,37848,1,0,1:0:0:0:
266,137,37982,1,0,1:0:0:0:
31,28,38115,1,0,1:0:0:0:
113,272,38248,1,0,1:0:0:0:
370,132,38382,6,0,P|420:120|484:123,1,107.999996704102,6|0,1:2|0:0,0:0:0:0:
166,27,38648,1,8,3:0:0:0:
240,295,38782,1,4,3:0:0:0:
170,31,38915,1,8,3:0:0:0:
244,299,39048,1,4,3:0:0:0:
498,154,39182,5,6,0:0:0:0:
498,154,39982,6,0,B|454:145|454:145|395:155,1,90,4|0,1:2|0:0,0:0:0:0:
268,303,40248,2,0,B|312:312|312:312|371:302,1,90,4|0,1:2|0:0,0:0:0:0:
211,154,40515,2,0,B|167:145|167:145|108:155,1,90,4|0,1:2|0:0,0:0:0:0:
176,353,40782,5,12,3:0:0:0:
306,192,40915,1,8,3:0:0:0:
134,243,41048,1,4,3:0:0:0:
268,303,41182,1,4,3:0:0:0:
216,188,41315,2,0,L|229:84,1,90,4|0,3:0|0:0,0:0:0:0:
414,208,41582,5,4,1:2:0:0:
268,303,41715,1,0,0:0:0:0:
227,98,41848,2,0,P|184:91|136:103,1,90,4|0,1:2|0:0,0:0:0:0:
15,268,42115,2,0,P|58:275|106:263,1,90,4|0,1:2|0:0,0:0:0:0:
261,116,42382,5,12,3:0:0:0:
359,277,42515,1,8,3:0:0:0:
206,223,42648,1,4,3:0:0:0:
349,168,42782,1,4,3:0:0:0:
274,280,42915,2,0,L|280:373,1,90,4|0,3:0|0:0,0:0:0:0:
443,213,43182,5,4,1:2:0:0:
261,116,43315,1,0,0:0:0:0:
464,21,43448,2,0,L|454:135,1,90,4|0,1:2|0:0,0:0:0:0:
273,243,43715,2,0,L|263:129,1,90,4|0,1:2|0:0,0:0:0:0:
56,240,43982,5,12,3:0:0:0:
213,359,44115,1,8,3:0:0:0:
269,198,44248,1,4,3:0:0:0:
145,273,44382,1,4,3:0:0:0:
278,293,44515,2,0,L|388:285,1,90,4|0,3:0|0:0,0:0:0:0:
484,61,44782,5,4,1:2:0:0:
255,106,44915,1,0,0:0:0:0:
482,212,45048,1,4,1:2:0:0:
355,14,45182,1,0,0:0:0:0:
188,177,45315,2,0,L|68:168,1,90,4|0,1:2|0:0,0:0:0:0:
253,328,45582,6,0,B|417:320|417:320|357:279,1,225,0|0,1:0|0:0,0:0:0:0:
277,223,46382,6,0,P|270:178|285:118,1,90,6|0,0:0|0:0,0:0:0:0:
357,26,46648,1,2,0:0:0:0:
177,49,46782,2,0,L|71:37,1,90,0|0,1:0|0:0,0:0:0:0:
129,185,47048,1,2,0:0:0:0:
295,113,47182,6,0,L|401:101,1,90,2|0,0:0|0:0,0:0:0:0:
288,254,47448,2,0,L|182:242,1,90,2|0,0:0|0:0,0:0:0:0:
1,217,47715,1,0,1:0:0:0:
85,333,47848,1,2,0:0:0:0:
199,243,47982,6,0,B|215:200|215:200|196:66,1,180,2|0,0:0|0:0,0:0:0:0:
400,96,48382,2,0,P|360:119|305:121,1,90,0|0,1:0|0:0,0:0:0:0:
322,0,48648,1,2,0:0:0:0:
511,85,48782,6,0,L|503:193,1,90,2|0,0:0|0:0,0:0:0:0:
398,308,49048,2,0,L|390:200,1,90,2|0,0:0|0:0,0:0:0:0:
207,142,49315,1,0,1:0:0:0:
270,290,49448,1,2,0:0:0:0:
314,86,49582,6,0,P|250:31|138:44,1,180,6|0,0:0|0:0,0:0:0:0:
195,229,49982,2,0,P|209:186|207:142,1,90,0|0,1:0|0:0,0:0:0:0:
28,162,50248,1,0,1:0:0:0:
148,331,50382,6,0,L|250:326,1,90,2|0,0:0|0:0,0:0:0:0:
406,207,50648,2,0,L|304:202,1,90,2|0,0:0|0:0,0:0:0:0:
486,82,50915,1,0,1:0:0:0:
415,237,51048,1,0,0:0:0:0:
288,83,51182,6,0,P|239:73|179:91,1,90,2|0,0:0|0:0,0:0:0:0:
37,156,51448,1,2,0:0:0:0:
217,274,51582,2,0,P|239:235|242:191,1,90,0|0,1:0|0:0,0:0:0:0:
90,37,51848,1,2,0:0:0:0:
3,294,51982,5,6,1:2:0:0:
3,294,52782,6,0,B|74:273|60:329|148:301,1,125.999996154785,6|0,0:0|0:0,0:0:0:0:
207,260,53182,2,0,P|185:217|199:137,1,125.999996154785,2|0,0:0|0:0,0:0:0:0:
315,102,53582,2,0,L|390:106,1,62.9999980773926,0|0,1:0|0:0,0:0:0:0:
416,191,53848,2,0,L|341:195,1,62.9999980773926,0|8,0:0|3:0,0:0:0:0:
297,271,54115,1,8,3:0:0:0:
297,271,54248,1,8,3:0:0:0:
350,349,54382,6,0,P|403:359|468:331,1,125.999996154785,8|0,3:0|0:0,0:0:0:0:
486,238,54782,2,0,B|462:203|462:203|470:100,1,125.999996154785,2|0,0:0|0:0,0:0:0:0:
376,33,55182,2,0,P|343:45|303:41,1,62.9999980773926,0|0,1:0|0:0,0:0:0:0:
223,22,55448,1,8,3:0:0:0:
223,22,55582,1,8,3:0:0:0:
154,86,55715,2,0,L|159:161,1,62.9999980773926,8|0,3:0|0:0,0:0:0:0:
212,226,55982,6,0,P|156:244|95:220,1,125.999996154785,8|0,3:0|0:0,0:0:0:0:
24,158,56382,2,0,P|41:214|17:275,1,125.999996154785,2|0,0:0|0:0,0:0:0:0:
109,362,56782,2,0,P|142:346|173:342,1,62.9999980773926,0|0,1:0|0:0,0:0:0:0:
265,360,57048,1,8,3:0:0:0:
265,360,57182,1,8,3:0:0:0:
347,314,57315,1,8,3:0:0:0:
347,314,57449,1,8,3:0:0:0:
348,219,57582,6,0,P|315:193|215:193,1,125.999996154785,8|0,3:0|0:0,0:0:0:0:
153,237,57982,2,0,P|179:204|179:104,1,125.999996154785,2|0,0:0|0:0,0:0:0:0:
270,27,58382,2,0,P|293:52|329:68,1,62.9999980773926,0|0,1:0|0:0,0:0:0:0:
411,102,58648,1,8,3:0:0:0:
411,102,58782,1,8,3:0:0:0:
462,188,58915,1,8,3:0:0:0:
462,188,59049,1,8,3:0:0:0:
417,270,59182,6,0,P|376:262|291:299,1,125.999996154785,6|0,0:0|0:0,0:0:0:0:
181,312,59582,2,0,P|222:320|307:283,1,125.999996154785,2|0,0:0|0:0,0:0:0:0:
320,166,59982,2,0,L|251:157,1,62.9999980773926,0|0,1:0|0:0,0:0:0:0:
215,73,60248,2,0,L|284:64,1,62.9999980773926,0|8,0:0|3:0,0:0:0:0:
375,55,60515,1,8,3:0:0:0:
375,55,60648,1,8,3:0:0:0:
449,123,60782,5,8,3:0:0:0:
449,123,60915,2,0,P|442:162|447:192,1,62.9999980773926
488,269,61182,2,0,P|449:232|378:230,1,125.999996154785,2|0,0:0|0:0,0:0:0:0:
261,275,61582,2,0,L|188:267,1,62.9999980773926,0|0,1:0|0:0,0:0:0:0:
124,209,61848,1,8,3:0:0:0:
124,209,61982,1,8,3:0:0:0:
200,153,62115,2,0,P|205:119|197:80,1,62.9999980773926,8|0,3:0|0:0,0:0:0:0:
132,25,62382,6,0,P|78:21|19:66,1,125.999996154785,8|0,3:0|0:0,0:0:0:0:
8,155,62782,2,0,L|19:289,1,125.999996154785,2|0,0:0|0:0,0:0:0:0:
132,335,63182,2,0,L|138:261,1,62.9999980773926,0|0,1:0|0:0,0:0:0:0:
210,213,63448,1,8,3:0:0:0:
210,213,63582,1,8,3:0:0:0:
287,267,63715,2,0,P|317:271|359:263,1,62.9999980773926,8|0,3:0|0:0,0:0:0:0:
422,205,63982,6,0,B|402:166|402:166|415:77,1,125.999996154785,8|0,3:0|0:0,0:0:0:0:
338,27,64382,2,0,P|282:52|218:42,1,125.999996154785,2|0,0:0|0:0,0:0:0:0:
96,11,64782,2,0,L|89:94,1,62.9999980773926,0|0,1:0|0:0,0:0:0:0:
83,171,65048,1,8,3:0:0:0:
83,171,65182,1,8,3:0:0:0:
173,196,65315,2,0,P|210:188|250:192,1,62.9999980773926,8|0,3:0|0:0,0:0:0:0:
334,232,65582,6,0,L|329:350,1,107.999996704102,2|0,0:0|0:0,0:0:0:0:
240,365,65982,1,0,0:0:0:0:
240,365,66115,2,0,P|190:369|171:367,1,53.9999983520508,0|0,3:0|0:0,0:0:0:0:
123,280,66382,2,0,P|173:276|192:278,1,53.9999983520508,0|0,1:0|0:0,0:0:0:0:
240,210,66648,1,0,0:0:0:0:
240,210,66782,1,8,3:0:0:0:
240,210,66915,2,0,L|234:148,1,53.9999983520508,8|0,3:0|0:0,0:0:0:0:
228,64,67182,6,0,P|274:42|347:49,1,107.999996704102,4|0,3:0|0:0,0:0:0:0:
407,102,67582,1,0,0:0:0:0:
407,102,67715,2,0,L|471:97,1,53.9999983520508,0|0,3:0|0:0,0:0:0:0:
359,187,67982,2,0,L|295:182,1,53.9999983520508,0|0,1:0|0:0,0:0:0:0:
215,200,68248,1,0,0:0:0:0:
215,200,68382,1,8,3:0:0:0:
215,200,68515,2,0,P|208:244|212:271,1,53.9999983520508,8|0,3:0|0:0,0:0:0:0:
272,358,68782,6,0,L|109:344,1,144,6|0,0:2|0:0,0:0:0:0:
40,282,69182,2,0,P|51:235|48:208,1,72,0|2,0:0|0:0,0:0:0:0:
14,109,69448,1,0,0:0:0:0:
116,73,69582,2,0,L|189:81,1,72,0|0,1:0|0:0,0:0:0:0:
265,164,69848,1,0,0:0:0:0:
265,164,69982,1,8,3:0:0:0:
204,253,70115,2,0,L|132:245,1,72,8|0,3:0|0:0,0:0:0:0:
269,363,70382,6,0,P|311:340|410:345,1,144,4|0,3:0|0:0,0:0:0:0:
480,265,70782,2,0,P|463:223|464:191,1,72,0|2,0:0|0:0,0:0:0:0:
491,92,71048,1,0,0:0:0:0:
394,41,71182,2,0,L|322:45,1,72,0|0,1:0|0:0,0:0:0:0:
244,120,71448,1,8,3:0:0:0:
244,120,71582,1,8,3:0:0:0:
322,194,71715,2,0,L|413:200,1,72,8|0,3:0|0:0,0:0:0:0:
245,288,71982,6,0,P|196:302|104:255,1,144,4|0,3:0|0:0,0:0:0:0:
78,164,72382,2,0,L|0:167,1,72,0|2,0:0|0:0,0:0:0:0:
34,62,72648,1,0,0:0:0:0:
140,83,72782,2,0,P|167:114|179:150,1,72,0|0,1:0|0:0,0:0:0:0:
260,221,73048,1,8,3:0:0:0:
260,221,73182,1,8,3:0:0:0:
334,142,73315,2,0,P|347:109|372:83,1,72,8|0,3:0|0:0,0:0:0:0:
457,181,73582,6,0,B|448:230|448:230|464:271|464:271|453:341,1,144,4|0,3:0|0:0,0:0:0:0:
354,358,73982,2,0,P|303:362|273:351,1,72,0|2,0:0|0:0,0:0:0:0:
197,291,74248,1,0,0:0:0:0:
277,218,74382,2,0,L|268:140,1,72,0|0,1:0|0:0,0:0:0:0:
200,63,74648,1,8,3:0:0:0:
200,63,74782,1,8,3:0:0:0:
126,142,74915,1,8,3:0:0:0:
126,142,75049,1,8,3:0:0:0:
143,249,75182,6,0,P|214:213|295:225,1,144,4|0,3:0|0:0,0:0:0:0:
365,279,75582,2,0,L|453:271,1,72,0|2,0:0|0:0,0:0:0:0:
498,183,75848,1,0,0:0:0:0:
433,95,75982,2,0,P|391:85|354:87,1,72,0|0,1:0|0:0,0:0:0:0:
267,136,76248,1,8,3:0:0:0:
267,136,76382,1,8,3:0:0:0:
164,102,76515,2,0,P|154:63|159:23,1,72,8|8,3:0|3:0,0:0:0:0:
271,140,76782,6,0,L|262:300,1,144,4|0,3:0|0:0,0:0:0:0:
173,344,77182,2,0,P|134:331|92:332,1,72,0|2,0:0|0:0,0:0:0:0:
19,262,77448,1,0,0:0:0:0:
102,192,77582,2,0,P|115:153|114:111,1,72,0|0,1:0|0:0,0:0:0:0:
173,31,77848,1,8,3:0:0:0:
173,31,77982,1,8,3:0:0:0:
264,88,78115,2,0,L|352:80,1,72,8|0,3:0|0:0,0:0:0:0:
416,19,78382,6,0,P|378:57|422:185,1,202.500007724762,2|0,0:0|0:0,0:0:0:0:
490,253,78915,2,0,L|476:329,1,67.5000025749208,2|0,0:0|0:0,0:0:0:0:
346,352,79182,2,0,P|308:357|271:351,1,67.5000025749208,0|0,1:0|0:0,0:0:0:0:
190,305,79448,1,8,3:0:0:0:
190,305,79582,1,8,3:0:0:0:
248,222,79715,2,0,L|239:148,1,67.5000025749208,8|0,3:0|0:0,0:0:0:0:
201,60,79982,6,0,P|136:41|28:124,1,202.500007724762,2|0,0:0|0:0,0:0:0:0:
22,213,80515,2,0,L|29:303,1,67.5000025749208,2|0,0:0|0:0,0:0:0:0:
144,348,80782,2,0,P|158:319|162:261,1,67.5000025749208,0|0,1:0|0:0,0:0:0:0:
220,200,81048,1,8,3:0:0:0:
220,200,81182,1,8,3:0:0:0:
306,252,81315,2,0,L|393:243,1,67.5000025749208,8|0,3:0|0:0,0:0:0:0:
474,237,81582,5,2,0:0:0:0:
256,192,81648,12,0,82915,0:0:0:0:
262,176,83182,5,2,0:0:0:0:
258,180,83448,5,2,0:0:0:0:
254,184,83715,5,2,0:0:0:0:
250,188,83982,6,0,P|288:195|220:135,1,288,2|0,0:0|0:0,0:0:0:0:
224,116,84782,5,6,0:0:0:0:
136,218,85048,1,2,0:0:0:0:
89,90,85315,1,2,0:0:0:0:
223,116,85582,5,2,0:0:0:0:
311,14,85848,1,2,0:0:0:0:
357,142,86115,1,2,0:0:0:0:
491,168,86382,5,2,0:0:0:0:
403,270,86648,1,2,0:0:0:0:
357,142,86915,1,2,0:0:0:0:
223,116,87182,5,2,0:0:0:0:
311,14,87448,1,2,0:0:0:0:
357,142,87715,1,2,0:0:0:0:
135,218,87982,5,6,0:0:0:0:
223,116,88248,1,2,0:0:0:0:
269,244,88515,1,2,0:0:0:0:
403,270,88782,5,2,0:0:0:0:
315,372,89048,1,2,0:0:0:0:
269,244,89315,1,2,0:0:0:0:
135,218,89582,5,2,0:0:0:0:
47,320,89848,1,2,0:0:0:0:
1,192,90115,1,2,0:0:0:0:
135,218,90382,5,2,0:0:0:0:
223,116,90648,1,2,0:0:0:0:
89,90,90915,1,2,0:0:0:0:
269,244,91182,5,2,0:0:0:0:
181,346,91448,1,2,0:0:0:0:
135,218,91715,1,2,0:0:0:0:
269,244,91982,5,2,0:0:0:0:
357,142,92248,1,2,0:0:0:0:
223,116,92515,1,2,0:0:0:0:
315,372,92782,5,2,0:0:0:0:
269,244,93048,1,2,0:0:0:0:
403,270,93315,1,2,0:0:0:0:
491,168,93582,5,2,0:0:0:0:
445,40,93848,1,2,0:0:0:0:
357,142,94115,1,2,0:0:0:0:
89,90,94382,5,2,0:0:0:0:
135,218,94648,1,2,0:0:0:0:
223,116,94915,1,2,0:0:0:0:
181,346,95182,5,2,0:0:0:0:
135,218,95448,1,2,0:0:0:0:
47,320,95715,1,2,0:0:0:0:
223,116,95982,5,2,0:0:0:0:
269,244,96248,1,2,0:0:0:0:
357,142,96515,1,2,0:0:0:0:
89,90,96782,5,2,0:0:0:0:
223,116,97048,1,2,0:0:0:0:
135,218,97315,1,2,0:0:0:0:
357,142,97582,5,0,1:0:0:0:
427,347,97715,1,4,3:0:0:0:
248,222,97848,5,0,1:0:0:0:
466,219,97982,1,4,3:0:0:0:
291,350,98115,5,0,1:0:0:0:
68,109,98382,6,0,B|178:147|217:228|336:248|342:235,1,292.499986610413
391,253,98582,1,0,0:0:0:0:
444,214,98648,1,0,0:0:0:0:
460,151,98715,1,0,0:0:0:0:
431,92,98782,1,0,0:0:0:0:
374,59,98848,1,0,0:0:0:0:
309,55,98915,1,0,0:0:0:0:
262,102,98982,1,0,0:0:0:0:
214,150,99048,1,0,0:0:0:0:
166,196,99115,1,0,0:0:0:0:
117,241,99182,1,0,0:0:0:0:
69,287,99248,1,0,0:0:0:0:
125,295,99315,1,0,0:0:0:0:
192,297,99382,1,0,0:0:0:0:
259,298,99448,1,0,0:0:0:0:
326,297,99515,1,0,0:0:0:0:
441,155,99648,2,0,B|334:122|334:120|334:121|334:121|226:194,1,233.999989288331
231,197,99982,2,0,B|108:238|108:238|5:149|5:149,1,233.999989288331
35,124,100315,2,0,B|75:75|156:66|177:123|185:138|185:138,1,175.499991966248
186,138,100582,2,0,B|222:190|341:219|407:127,1,233.999989288331
35,124,101048,2,0,B|75:75|156:66|177:123|185:138|185:138,1,175.499991966248
186,138,101315,2,0,B|222:190|341:219|407:127,1,233.999989288331
60,68,101915,1,0,0:0:0:0:
121,64,101981,1,0,0:0:0:0:
182,61,102048,1,0,0:0:0:0:
243,57,102114,1,0,0:0:0:0:
305,54,102181,1,0,0:0:0:0:
337,63,102248,1,0,0:0:0:0:
292,104,102314,1,0,0:0:0:0:
246,146,102381,1,0,0:0:0:0:
201,187,102448,1,0,0:0:0:0:
156,228,102514,1,0,0:0:0:0:
110,270,102581,1,0,0:0:0:0:
116,291,102648,1,0,0:0:0:0:
177,289,102714,1,0,0:0:0:0:
238,285,102781,1,0,0:0:0:0:
299,276,102848,1,0,0:0:0:0:
359,261,102914,1,0,0:0:0:0:
9,201,103648,2,0,B|26:280|94:308|94:308|130:283|98:285|118:313|137:314|143:283|147:284|152:291|152:300|151:307|146:314|139:315|137:315|134:314,1,175.499991966248
