osu file format v14

[General]
AudioFilename: audio.mp3
AudioLeadIn: 0
PreviewTime: 54382
Countdown: 0
SampleSet: Soft
StackLeniency: 0.5
Mode: 0
LetterboxInBreaks: 0
WidescreenStoryboard: 0

[Editor]
DistanceSpacing: 1.5
BeatDivisor: 4
GridSize: 16
TimelineZoom: 1.5

[Metadata]
Title:Noise (English ver.)
TitleUnicode:ノイズ(English ver.)
Artist:Mio Yamazaki
ArtistUnicode:ミオヤマザキ
Creator:Akitoshi
Version:lululu's Extra
Source:地獄少女 宵伽
Tags:Corinn English Jigoku Shoujo Yoi no Togi Opening Hey lululu Asagi
BeatmapID:1489536
BeatmapSetID:702892

[Difficulty]
HPDrainRate:6
CircleSize:4.2
OverallDifficulty:9
ApproachRate:9.6
SliderMultiplier:1.7
SliderTickRate:1

[Events]
//Background and Video events
0,0,"guest.jpg",0,0
//Break Periods
2,115516,126207
//Storyboard Layer 0 (Background)
//Storyboard Layer 1 (Fail)
//Storyboard Layer 2 (Pass)
//Storyboard Layer 3 (Foreground)
//Storyboard Sound Samples

[TimingPoints]
316,266.666666666667,3,2,0,50,1,0
316,-200,3,2,0,50,0,0
12849,-125,3,2,0,50,0,0
13049,-125,3,2,0,50,0,0
13116,-90.9090909090909,3,2,0,80,0,0
25916,-125,3,2,0,60,0,0
38716,-100,3,2,0,70,0,0
48316,-166.666666666667,3,2,0,75,0,0
53116,-166.666666666667,3,2,0,70,0,0
53916,-500,3,2,0,70,0,0
54449,-500,3,2,0,50,0,0
54716,-83.3333333333333,3,2,0,100,0,1
70716,-90.9090909090909,3,2,0,80,0,0
77116,-90.9090909090909,3,2,0,80,0,0
82716,-500,3,2,0,80,0,0
83516,-125,3,2,0,60,0,0
99516,-125,3,2,0,70,0,0
109116,-125,3,2,0,75,0,0
128316,-125,3,2,0,80,0,0
129116,-83.3333333333333,3,2,0,100,0,1
145116,-125,3,2,0,80,0,0
157916,-83.3333333333333,3,2,0,100,0,1
164049,-76.9230769230769,3,2,0,100,0,1
164182,-76.9230769230769,3,2,0,100,0,0
164316,-83.3333333333333,3,2,0,100,0,1
169116,303.030303030303,4,2,0,50,1,0
169116,-83.3333333333333,3,2,0,50,0,0
169419,-100,3,2,0,20,0,0
169669,270.27027027027,4,2,0,20,1,0
169669,-125,3,2,0,20,0,0
169939,-166.666666666667,3,2,0,20,0,0

[Colours]
Combo1 : 255,64,64
Combo2 : 255,128,64
Combo3 : 255,128,128
Combo4 : 192,192,192

[HitObjects]
0,33,316,6,0,B|74:11|74:11|105:77|61:124|61:124|24:175|38:245|38:245|93:238|109:177,1,425,4|0,3:0|0:0,0:0:0:0:
203,86,1916,6,0,B|231:56|272:56|272:56|302:86|342:92|342:92|402:62|402:62|475:115|533:56|533:56|465:74,1,425,2|0,0:0|0:0,0:0:0:0:
262,167,3516,6,0,B|232:191|182:171|182:171|233:193|247:258|234:313|234:313|250:261|295:238|350:259|350:259|327:261|307:280,1,425,2|0,0:0|0:0,0:0:0:0:
322,269,5116,5,2,0:0:0:0:
339,298,5916,1,2,0:0:0:0:
339,298,6716,6,0,B|387:270|424:302|424:302|458:282|458:282|491:301|516:294|516:294|520:222|455:226|462:144|462:144|494:181|527:191,1,425,2|0,0:0|0:0,0:0:0:0:
363,173,8316,6,0,B|291:207|217:145|217:145|216:69|270:19|333:9|375:48|353:91|310:103|276:77,1,425,2|0,0:0|0:0,0:0:0:0:
203,244,9916,6,0,B|152:246|36:212|72:129|72:129|129:150|115:212|94:231|94:231|69:271|90:337,1,425,2|0,0:0|0:0,0:0:0:0:
85,319,11516,5,2,0:0:0:0:
256,192,11582,12,0,12716,0:0:0:0:
168,142,12849,6,0,L|53:165,1,102,0|0,3:0|0:0,0:0:0:0:
19,160,13116,6,0,P|0:119|9:61,1,93.5000028533936,6|0,0:0|0:0,0:0:0:0:
152,12,13382,1,4,1:2:0:0:
151,234,13516,1,0,0:0:0:0:
248,102,13649,1,4,1:2:0:0:
248,102,13782,1,0,0:0:0:0:
138,141,13916,6,0,L|151:241,1,93.5000028533936,4|0,1:2|0:0,0:0:0:0:
255,328,14182,1,4,1:2:0:0:
255,328,14316,1,0,0:0:0:0:
248,102,14449,1,4,1:2:0:0:
74,225,14582,1,0,0:0:0:0:
258,248,14716,6,0,P|306:255|378:242,1,93.5000028533936,4|0,1:2|0:0,0:0:0:0:
453,94,14982,2,0,P|422:132|398:200,1,93.5000028533936,4|0,1:2|0:0,0:0:0:0:
493,338,15249,2,0,P|475:292|427:237,1,93.5000028533936,4|0,1:2|0:0,0:0:0:0:
322,184,15516,5,4,1:2:0:0:
304,346,15649,1,0,0:0:0:0:
167,120,15782,1,4,1:2:0:0:
185,282,15915,1,0,0:0:0:0:
314,94,16049,1,4,1:2:0:0:
339,266,16182,1,0,0:0:0:0:
173,204,16316,6,0,P|131:225|106:287,1,93.5000028533936,4|0,1:2|0:0,0:0:0:0:
0,113,16582,2,0,P|42:134|67:196,1,93.5000028533936,4|0,1:2|0:0,0:0:0:0:
171,22,16849,2,0,L|44:1,1,93.5000028533936,4|0,1:2|0:0,0:0:0:0:
225,133,17116,5,4,1:2:0:0:
402,128,17249,1,0,0:0:0:0:
246,44,17382,1,4,1:2:0:0:
319,177,17516,1,0,0:0:0:0:
386,37,17649,1,4,1:2:0:0:
386,37,17782,1,0,0:0:0:0:
319,177,17916,6,0,P|319:230|339:267,1,93.5000028533936,4|0,1:2|0:0,0:0:0:0:
381,384,18182,2,0,P|335:357|293:356,1,93.5000028533936,4|0,1:2|0:0,0:0:0:0:
167,343,18449,2,0,P|212:316|234:280,1,93.5000028533936,4|0,1:2|0:0,0:0:0:0:
148,105,18716,6,0,L|257:91,1,93.5000028533936,4|0,1:2|0:0,0:0:0:0:
508,245,18982,2,0,L|410:233,1,93.5000028533936,4|0,1:2|0:0,0:0:0:0:
293,256,19249,1,6,1:2:0:0:
344,64,19382,1,2,0:0:0:0:
197,177,19516,6,0,L|6:201,1,187.000005706787,4|4,1:2|1:2,0:0:0:0:
148,105,19916,1,0,0:0:0:0:
89,281,20049,1,6,1:2:0:0:
24,101,20182,1,2,0:0:0:0:
197,177,20316,6,0,P|228:140|228:71,1,93.5000028533936,4|0,1:2|0:0,0:0:0:0:
24,101,20582,2,0,L|36:213,1,93.5000028533936,4|0,1:2|0:0,0:0:0:0:
124,358,20849,1,6,1:2:0:0:
197,177,20982,1,2,0:0:0:0:
89,281,21116,6,0,P|44:272|-16:298,1,93.5000028533936,4|0,1:2|0:0,0:0:0:0:
276,348,21382,2,0,P|321:357|381:331,1,93.5000028533936,4|0,1:2|0:0,0:0:0:0:
441,144,21649,1,6,1:2:0:0:
318,259,21782,1,2,0:0:0:0:
475,329,21916,6,0,L|484:212,1,93.5000028533936,4|0,1:2|0:0,0:0:0:0:
333,71,22182,2,0,L|325:164,1,93.5000028533936,4|0,1:2|0:0,0:0:0:0:
441,144,22449,1,6,1:2:0:0:
240,51,22582,1,2,0:0:0:0:
223,247,22716,6,0,P|268:245|320:263,1,93.5000028533936,4|0,1:2|0:0,0:0:0:0:
295,107,22982,2,0,P|328:137|352:186,1,93.5000028533936,4|0,1:2|0:0,0:0:0:0:
436,63,23249,2,0,P|438:108|420:160,1,93.5000028533936,4|0,1:2|0:0,0:0:0:0:
270,347,23516,5,4,1:2:0:0:
492,231,23649,1,0,0:0:0:0:
421,384,23782,1,4,1:2:0:0:
273,182,23916,1,0,0:0:0:0:
440,292,24049,2,0,L|340:311,1,93.5000028533936,4|0,1:2|0:0,0:0:0:0:
160,348,24316,5,4,1:2:0:0:
163,162,24449,1,0,0:0:0:0:
271,266,24582,1,4,1:2:0:0:
225,100,24716,1,0,0:0:0:0:
92,216,24849,2,0,L|-18:200,1,93.5000028533936,4|0,1:2|0:0,0:0:0:0:
1,68,25116,6,0,L|93:81,1,93.5000028533936,4|0,1:2|0:0,0:0:0:0:
225,100,25382,1,0,1:0:0:0:
116,0,25516,1,0,1:0:0:0:
182,257,25649,1,0,1:0:0:0:
386,74,25782,1,0,1:0:0:0:
400,354,25916,6,0,P|324:372|264:332,1,136,4|0,0:0|0:0,0:0:0:0:
277,212,26316,2,0,L|284:142,1,68,2|0,0:0|0:0,0:0:0:0:
343,284,26582,1,0,0:0:0:0:
343,284,26716,2,0,P|282:256|218:276,2,136,0|2|2,1:0|0:0|0:0,0:0:0:0:
276,347,27382,1,0,0:0:0:0:
276,347,27516,6,0,L|137:360,1,136,2|0,0:0|0:0,0:0:0:0:
0,252,27916,2,0,L|139:265,1,136,2|0,0:0|0:0,0:0:0:0:
211,179,28316,2,0,P|220:145|198:88,1,68,0|0,1:0|0:0,0:0:0:0:
356,190,28582,2,0,P|336:217|307:234,1,68,2|0,0:0|0:0,0:0:0:0:
221,275,28849,1,2,0:0:0:0:
221,275,28982,1,0,0:0:0:0:
284,345,29116,6,0,L|440:330,1,136,2|0,0:0|0:0,0:0:0:0:
487,255,29516,2,0,P|457:244|422:220,1,68,2|0,0:0|0:0,0:0:0:0:
493,160,29782,1,0,0:0:0:0:
493,160,29916,2,0,L|503:17,2,136,0|2|2,1:0|0:0|0:0,0:0:0:0:
351,265,30716,6,0,P|317:236|307:143,1,136,2|0,0:0|0:0,0:0:0:0:
389,30,31116,2,0,P|323:52|236:48,1,136,2|0,0:0|0:0,0:0:0:0:
152,13,31516,2,0,L|169:93,1,68,0|0,1:0|0:0,0:0:0:0:
79,133,31782,2,0,L|96:213,1,68,2|0,0:0|0:0,0:0:0:0:
1,245,32049,2,0,L|18:325,1,68,2|0,0:0|0:0,0:0:0:0:
104,369,32316,6,0,P|146:346|242:352,1,136,2|0,0:0|0:0,0:0:0:0:
330,377,32716,2,0,L|311:287,1,68,2|0,0:0|0:0,0:0:0:0:
295,210,32982,1,0,0:0:0:0:
295,210,33116,2,0,P|352:200|429:178,2,136,0|2|2,1:0|0:0|0:0,0:0:0:0:
189,172,33916,6,0,L|173:23,1,136,2|0,0:0|0:0,0:0:0:0:
276,50,34316,2,0,L|285:120,1,68,2|0,0:0|0:0,0:0:0:0:
295,210,34582,1,0,0:0:0:0:
295,210,34716,2,0,L|288:352,2,136,0|2|2,1:0|0:0|0:0,0:0:0:0:
390,151,35516,5,2,0:0:0:0:
390,151,35649,2,0,P|453:161|514:109,1,136,2|2,0:0|0:0,0:0:0:0:
374,84,36049,2,0,L|392:160,1,68
321,215,36316,2,0,P|291:226|244:227,1,68,0|0,1:0|0:0,0:0:0:0:
155,247,36582,2,0,P|160:215|183:174,1,68,2|0,0:0|0:0,0:0:0:0:
224,90,36849,2,0,P|248:110|272:150,1,68,2|0,0:0|0:0,0:0:0:0:
217,331,37116,6,0,B|187:354|116:341|116:341|75:302|7:313,2,204,6|2|2,0:0|0:0|0:0,0:0:0:0:
217,331,38182,1,0,0:0:0:0:
217,331,38449,1,0,0:0:0:0:
312,271,38716,6,0,P|252:220|137:254,1,170,6|2,0:0|0:0,0:0:0:0:
243,127,39116,1,0,0:0:0:0:
123,84,39249,2,0,L|111:-13,1,85,2|0,0:0|0:0,0:0:0:0:
325,129,39516,6,0,P|274:135|224:116,1,85,2|0,0:0|0:0,0:0:0:0:
475,45,39782,2,0,P|424:39|374:58,1,85,2|0,0:0|0:0,0:0:0:0:
501,260,40049,2,0,L|510:155,1,85,0|0,1:0|0:0,0:0:0:0:
366,318,40316,6,0,P|430:370|512:359,2,170,2|2|2,0:0|0:0|0:0,0:0:0:0:
391,157,41116,2,0,L|402:248,1,85,2|0,0:0|0:0,0:0:0:0:
308,139,41382,2,0,L|319:230,1,85,2|0,0:0|0:0,0:0:0:0:
226,126,41649,2,0,L|237:217,1,85,0|0,1:0|0:0,0:0:0:0:
168,287,41916,6,0,P|126:305|16:239,1,170,2|2,0:0|0:0,0:0:0:0:
97,128,42316,1,0,0:0:0:0:
97,128,42449,2,0,L|108:219,1,85,2|0,0:0|0:0,0:0:0:0:
226,126,42716,2,0,P|216:83|167:44,1,85,2|0,0:0|0:0,0:0:0:0:
302,162,42982,2,0,P|325:124|318:62,1,85,2|0,0:0|0:0,0:0:0:0:
326,248,43249,2,0,P|369:238|408:189,1,85,0|0,1:0|0:0,0:0:0:0:
218,241,43516,6,0,P|136:231|38:239,2,170,2|2|2,0:0|0:0|0:0,0:0:0:0:
309,328,44182,1,0,0:0:0:0:
309,328,44316,2,0,P|327:292|320:232,1,85,2|0,0:0|0:0,0:0:0:0:
433,228,44582,2,0,P|420:189|372:152,1,85,2|0,0:0|0:0,0:0:0:0:
403,33,44849,1,0,1:0:0:0:
496,115,44982,1,0,0:0:0:0:
388,159,45116,6,0,L|199:144,1,170,6|2,0:0|0:0,0:0:0:0:
96,41,45516,2,0,P|137:96|112:204,1,170,0|0,0:0|0:0,0:0:0:0:
39,275,45916,2,0,L|127:264,1,85,2|0,0:0|0:0,0:0:0:0:
173,374,46182,2,0,L|261:385,1,85,2|0,0:0|0:0,0:0:0:0:
277,243,46449,2,0,L|365:232,1,85,0|0,1:0|0:0,0:0:0:0:
496,184,46716,6,0,B|444:161|444:161|476:289,1,170,2|2,0:0|0:0,0:0:0:0:
490,372,47116,2,0,B|444:380|411:346|411:346|375:311|311:327,1,170,0|0,0:0|0:0,0:0:0:0:
228,321,47516,2,0,P|194:285|184:237,1,85,2|0,0:0|0:0,0:0:0:0:
95,221,47782,2,0,P|96:171|123:130,1,85,2|0,0:0|0:0,0:0:0:0:
56,59,48049,2,0,P|92:24|140:14,1,85,0|0,1:0|0:0,0:0:0:0:
217,101,48316,6,0,L|372:119,1,152.999995330811,6|2,0:0|0:0,0:0:0:0:
368,118,48849,1,0,1:0:0:0:
463,178,49116,2,0,P|496:150|512:90,2,101.999996887207,2|2|0,0:0|0:0|1:0,0:0:0:0:
377,206,49916,6,0,L|405:367,1,152.999995330811,6|2,0:0|0:0,0:0:0:0:
403,356,50449,1,0,1:0:0:0:
283,382,50716,2,0,P|233:372|182:328,2,101.999996887207,2|2|0,0:0|0:0|1:0,0:0:0:0:
299,293,51516,6,0,L|272:142,1,152.999995330811,6|2,0:0|0:0,0:0:0:0:
272,142,52049,1,0,1:0:0:0:
69,274,52316,1,2,0:0:0:0:
69,274,52582,5,0,1:0:0:0:
272,142,52716,1,0,1:0:0:0:
231,332,52849,1,0,1:0:0:0:
49,109,52982,1,0,1:0:0:0:
132,379,53116,5,2,0:0:0:0:
137,360,53382,1,2,0:0:0:0:
142,339,53649,1,2,0:0:0:0:
148,316,53916,6,0,L|232:307,1,85,2|0,0:0|0:0,0:0:0:0:
295,364,54716,6,0,B|245:312|276:224|276:224|328:279,1,203.999993774414,6|0,0:0|0:0,0:0:0:0:
432,316,55116,2,0,B|461:203|380:228|406:98,1,203.999993774414,2|2,0:0|0:0,0:0:0:0:
481,42,55516,2,0,B|502:79|502:79|496:144,1,101.999996887207,0|0,1:0|0:0,0:0:0:0:
357,269,55782,1,2,0:0:0:0:
312,83,55916,1,0,1:0:0:0:
173,209,56049,1,2,0:0:0:0:
173,209,56182,1,0,0:0:0:0:
41,64,56316,6,0,P|115:46|199:144,1,203.999993774414,2|0,0:0|0:0,0:0:0:0:
202,300,56716,2,0,P|177:269|183:187,1,101.999996887207,2|0,0:0|0:0,0:0:0:0:
312,83,56982,1,2,0:0:0:0:
456,246,57116,2,0,L|326:275,1,101.999996887207,0|0,1:0|0:0,0:0:0:0:
197,129,57382,1,2,0:0:0:0:
289,318,57516,1,0,1:0:0:0:
406,134,57649,1,2,0:0:0:0:
406,134,57782,1,0,0:0:0:0:
216,221,57916,6,0,B|145:213|75:242|75:242|87:274|77:307,1,203.999993774414,6|0,0:0|0:0,0:0:0:0:
193,324,58316,1,0,0:0:0:0:
131,122,58449,1,2,0:0:0:0:
131,122,58582,1,0,0:0:0:0:
216,221,58716,2,0,L|334:196,1,101.999996887207,0|0,1:0|0:0,0:0:0:0:
448,152,58982,1,0,0:0:0:0:
282,76,59116,1,0,1:0:0:0:
385,268,59249,2,0,P|437:250|515:238,1,101.999996887207,2|0,0:0|0:0,0:0:0:0:
359,362,59516,6,0,P|298:314|332:186,1,203.999993774414,6|0,0:0|0:0,0:0:0:0:
484,66,59916,2,0,P|413:79|268:73,1,203.999993774414,2|0,0:0|0:0,0:0:0:0:
116,14,60316,2,0,L|131:148,1,101.999996887207,4|0,1:2|0:0,0:0:0:0:
178,314,60582,1,4,3:0:0:0:
233,104,60716,1,4,3:0:0:0:
60,191,60849,1,4,3:0:0:0:
271,220,60982,1,4,3:0:0:0:
36,100,61116,6,0,B|48:175|48:175|61:192|61:192|54:209|54:209|70:312,1,203.999993774414,6|0,0:0|0:0,0:0:0:0:
266,376,61516,2,0,P|318:326|256:215,1,203.999993774414,2|2,0:0|0:0,0:0:0:0:
139,283,61916,2,0,L|268:301,1,101.999996887207,0|0,1:0|0:0,0:0:0:0:
396,182,62182,1,2,0:0:0:0:
211,135,62316,1,0,1:0:0:0:
439,270,62449,2,0,P|482:237|493:182,1,101.999996887207,2|0,0:0|0:0,0:0:0:0:
438,77,62716,6,0,B|407:79|368:55|368:55|398:193,1,203.999993774414,6|0,0:0|0:0,0:0:0:0:
321,341,63116,2,0,L|302:232,1,101.999996887207,2|0,0:0|0:0,0:0:0:0:
439,270,63382,1,2,0:0:0:0:
226,337,63516,2,0,P|174:337|110:327,1,101.999996887207,0|0,1:0|0:0,0:0:0:0:
24,167,63782,2,0,P|76:167|140:177,1,101.999996887207,2|0,0:0|1:0,0:0:0:0:
303,240,64049,1,0,1:0:0:0:
303,240,64316,6,0,P|333:172|268:57,2,203.999993774414,6|2|2,0:0|0:0|0:0,0:0:0:0:
365,357,64982,1,0,0:0:0:0:
365,357,65116,2,0,P|273:329|159:324,1,203.999993774414,0|2,1:0|0:0,0:0:0:0:
46,362,65516,1,0,3:0:0:0:
0,224,65649,2,0,P|10:182|54:139,1,101.999996887207,0|0,1:0|0:0,0:0:0:0:
245,66,65916,6,0,P|156:78|51:9,1,203.999993774414,6|0,0:0|0:0,0:0:0:0:
326,0,66316,2,0,P|349:50|336:120,1,101.999996887207,2|0,0:0|0:0,0:0:0:0:
258,201,66582,1,2,0:0:0:0:
364,351,66716,2,0,L|341:232,1,101.999996887207,0|0,1:0|0:0,0:0:0:0:
258,201,66982,1,0,1:0:0:0:
267,365,67116,1,0,1:0:0:0:
399,171,67249,1,0,1:0:0:0:
469,334,67382,1,0,1:0:0:0:
264,283,67516,6,0,L|143:295,1,101.999996887207,4|0,1:2|0:0,0:0:0:0:
0,195,67782,1,0,1:0:0:0:
179,214,67916,1,0,1:0:0:0:
0,207,68049,1,0,1:0:0:0:
179,194,68183,1,0,1:0:0:0:
68,32,68316,6,0,P|54:89|77:141,1,101.999996887207,6|0,1:2|0:0,0:0:0:0:
376,122,68582,1,0,1:0:0:0:
132,83,68716,1,0,1:0:0:0:
310,237,68849,1,0,1:0:0:0:
275,2,68982,1,0,1:0:0:0:
145,218,69116,5,6,1:2:0:0:
145,218,69382,1,8,3:0:0:0:
422,252,69516,1,4,3:0:0:0:
132,83,69649,1,8,3:0:0:0:
411,33,69782,1,4,3:0:0:0:
218,316,69916,5,6,0:0:0:0:
17,93,70716,6,0,L|133:82,1,93.5000028533936,4|0,1:2|0:0,0:0:0:0:
164,212,70982,2,0,L|70:220,1,93.5000028533936,4|0,1:2|0:0,0:0:0:0:
172,13,71249,2,0,L|288:2,1,93.5000028533936,4|0,1:2|0:0,0:0:0:0:
458,155,71516,5,12,3:0:0:0:
398,18,71649,1,8,3:0:0:0:
293,125,71782,1,4,3:0:0:0:
473,82,71916,1,4,3:0:0:0:
447,230,72049,1,4,3:0:0:0:
473,82,72182,1,0,0:0:0:0:
352,208,72316,6,0,L|369:328,1,93.5000028533936,4|0,1:2|0:0,0:0:0:0:
270,384,72582,2,0,L|256:291,1,93.5000028533936,4|0,1:2|0:0,0:0:0:0:
134,138,72849,2,0,L|147:230,1,93.5000028533936,4|0,1:2|0:0,0:0:0:0:
304,72,73116,5,12,3:0:0:0:
134,138,73249,1,8,3:0:0:0:
307,169,73382,1,4,3:0:0:0:
226,9,73516,1,4,3:0:0:0:
224,215,73649,1,4,3:0:0:0:
224,215,73782,1,0,0:0:0:0:
98,50,73916,6,0,P|54:66|-15:87,1,93.5000028533936,4|0,1:2|0:0,0:0:0:0:
215,115,74182,2,0,P|259:131|328:152,1,93.5000028533936,4|0,1:2|0:0,0:0:0:0:
105,220,74449,2,0,P|61:236|-8:257,1,93.5000028533936,4|0,1:2|0:0,0:0:0:0:
256,324,74716,5,12,3:0:0:0:
138,338,74849,1,8,3:0:0:0:
247,231,74982,1,4,3:0:0:0:
336,380,75116,1,4,3:0:0:0:
371,214,75249,1,4,3:0:0:0:
256,324,75382,1,0,0:0:0:0:
435,283,75516,6,0,P|472:250|484:190,1,93.5000028533936,4|0,1:2|0:0,0:0:0:0:
416,137,75782,2,0,P|418:87|384:36,1,93.5000028533936,4|0,1:2|0:0,0:0:0:0:
190,116,76049,1,4,1:2:0:0:
328,142,76182,1,0,0:0:0:0:
232,14,76316,5,0,1:0:0:0:
130,196,77116,6,0,L|13:187,1,93.5000028533936,6|0,0:0|0:0,0:0:0:0:
7,85,77382,2,0,L|100:92,1,93.5000028533936,2|0,0:0|1:0,0:0:0:0:
251,196,77649,1,0,0:0:0:0:
202,55,77782,1,2,0:0:0:0:
197,259,77916,6,0,P|236:279|288:273,1,93.5000028533936,2|0,0:0|0:0,0:0:0:0:
452,209,78182,2,0,P|413:189|361:195,1,93.5000028533936,2|0,0:0|0:0,0:0:0:0:
301,383,78449,1,0,1:0:0:0:
429,307,78582,1,2,0:0:0:0:
251,196,78716,6,0,L|135:183,1,93.5000028533936,2|0,0:0|0:0,0:0:0:0:
361,83,78982,2,0,L|453:93,1,93.5000028533936,0|0,0:0|1:0,0:0:0:0:
364,193,79249,1,0,0:0:0:0:
262,72,79382,1,2,0:0:0:0:
158,185,79516,6,0,P|113:174|73:104,1,93.5000028533936,2|0,0:0|0:0,0:0:0:0:
251,196,79782,2,0,L|267:314,1,93.5000028533936,2|0,0:0|0:0,0:0:0:0:
129,281,80049,1,0,1:0:0:0:
172,95,80182,1,2,0:0:0:0:
251,196,80316,6,0,P|303:212|349:220,1,93.5000028533936,6|0,0:0|0:0,0:0:0:0:
510,144,80582,1,0,0:0:0:0:
361,92,80716,1,0,1:0:0:0:
460,241,80849,1,0,0:0:0:0:
505,52,80982,1,0,1:0:0:0:
361,92,81116,6,0,P|315:94|256:70,1,93.5000028533936,2|0,0:0|0:0,0:0:0:0:
237,196,81382,2,0,P|203:164|178:106,1,93.5000028533936,2|0,0:0|0:0,0:0:0:0:
71,196,81649,2,0,P|68:149|92:91,1,93.5000028533936,0|0,1:0|0:0,0:0:0:0:
147,227,81916,6,0,L|162:333,1,93.5000028533936,2|0,0:0|0:0,0:0:0:0:
365,260,82182,1,2,0:0:0:0:
237,196,82316,1,0,1:0:0:0:
285,358,82449,1,0,0:0:0:0:
285,358,82582,1,2,0:0:0:0:
446,233,82716,6,0,L|456:149,1,85,6|0,1:2|0:0,0:0:0:0:
382,104,83516,6,0,P|427:67|524:97,1,136,6|0,0:0|0:0,0:0:0:0:
379,179,83916,2,0,L|243:160,1,136,2|0,0:0|0:0,0:0:0:0:
136,213,84316,2,0,P|107:165|132:81,1,136,0|0,1:0|0:0,0:0:0:0:
205,28,84716,1,8,3:0:0:0:
300,64,84849,1,8,3:0:0:0:
300,64,84982,1,8,3:0:0:0:
394,102,85116,6,0,B|492:90|492:90|465:84|441:60,1,136,8|0,3:0|0:0,0:0:0:0:
300,64,85516,2,0,L|316:140,1,68,2|0,0:0|0:0,0:0:0:0:
420,177,85782,1,2,0:0:0:0:
339,250,85916,2,0,P|271:288|197:262,1,136,0|8,1:0|3:0,0:0:0:0:
139,209,86316,1,8,3:0:0:0:
166,111,86449,1,8,3:0:0:0:
166,111,86582,1,0,0:0:0:0:
59,15,86716,6,0,L|88:166,1,136,8|0,3:0|0:0,0:0:0:0:
0,256,87116,2,0,P|66:263|118:321,1,136,2|0,0:0|0:0,0:0:0:0:
224,345,87516,2,0,L|361:326,1,136,0|8,1:0|3:0,0:0:0:0:
403,234,87916,1,8,3:0:0:0:
313,185,88049,1,8,3:0:0:0:
399,131,88182,1,8,3:0:0:0:
308,82,88316,6,0,P|239:96|174:104,1,136,8|0,3:0|0:0,0:0:0:0:
71,163,88716,2,0,P|52:119|52:70,2,68,2|0|0,0:0|0:0|0:0,0:0:0:0:
169,191,89116,2,0,L|161:327,1,136,0|8,1:0|3:0,0:0:0:0:
85,269,89516,1,8,3:0:0:0:
247,234,89649,1,8,3:0:0:0:
85,269,89782,1,8,3:0:0:0:
244,362,89916,6,0,P|301:348|404:339,1,136,6|0,0:0|0:0,0:0:0:0:
496,360,90316,2,0,P|513:280|467:229,1,136,2|0,0:0|0:0,0:0:0:0:
373,218,90716,2,0,L|340:59,1,136,0|0,1:0|0:0,0:0:0:0:
412,7,91116,1,8,3:0:0:0:
345,84,91249,1,8,3:0:0:0:
248,50,91382,1,8,3:0:0:0:
179,130,91516,6,0,P|142:70|156:1,1,136,8|0,3:0|0:0,0:0:0:0:
241,201,91916,2,0,L|72:222,1,136,2|0,0:0|0:0,0:0:0:0:
2,159,92316,2,0,P|21:217|26:310,1,136,0|8,1:0|3:0,0:0:0:0:
115,358,92716,1,8,3:0:0:0:
115,358,92849,1,8,3:0:0:0:
207,315,92982,1,0,0:0:0:0:
121,222,93116,6,0,L|112:397,1,136,8|0,3:0|0:0,0:0:0:0:
209,223,93516,2,0,P|183:153|117:128,1,136,2|0,0:0|0:0,0:0:0:0:
16,54,93916,2,0,P|89:47|170:12,1,136,0|8,1:0|3:0,0:0:0:0:
333,54,94316,1,8,3:0:0:0:
241,9,94449,1,8,3:0:0:0:
253,110,94582,1,0,0:0:0:0:
346,151,94716,6,0,P|420:134|505:124,1,136,8|0,3:0|0:0,0:0:0:0:
253,110,95116,2,0,L|273:279,1,136,2|0,0:0|0:0,0:0:0:0:
176,333,95516,2,0,P|96:330|47:261,1,136,0|8,1:0|3:0,0:0:0:0:
31,194,95916,1,8,3:0:0:0:
118,141,96049,1,8,3:0:0:0:
119,242,96182,1,0,0:0:0:0:
31,194,96316,6,0,P|28:129|12:53,2,136,2|0|0,0:0|0:0|3:0,0:0:0:0:
119,242,97116,2,0,L|270:214,1,136,0|0,1:0|0:0,0:0:0:0:
367,177,97516,1,8,3:0:0:0:
242,117,97649,1,8,3:0:0:0:
299,289,97782,1,0,0:0:0:0:
430,249,97916,6,0,P|461:167|434:107,2,136,4|0|0,3:0|0:0|3:0,0:0:0:0:
258,295,98716,2,0,L|238:133,1,136,0|0,1:0|0:0,0:0:0:0:
143,80,99116,1,8,3:0:0:0:
156,197,99249,1,8,3:0:0:0:
341,155,99382,1,0,0:0:0:0:
236,25,99516,6,0,P|231:102|248:184,1,136,6|0,0:2|0:0,0:0:0:0:
441,241,99916,2,0,P|493:172|470:161,1,136,0|0,0:0|0:0,0:0:0:0:
347,231,100316,2,0,L|369:373,1,136,0|0,1:0|0:0,0:0:0:0:
442,328,100716,1,8,3:0:0:0:
270,271,100849,1,8,3:0:0:0:
270,271,100982,1,0,0:0:0:0:
177,344,101116,6,0,P|133:288|164:186,1,136,4|0,3:0|0:0,0:0:0:0:
256,138,101516,2,0,P|189:147|110:121,1,136,0|0,0:0|0:0,0:0:0:0:
27,73,101916,2,0,P|117:99|114:162,1,136,0|8,1:0|3:0,0:0:0:0:
62,253,102316,1,8,3:0:0:0:
0,162,102449,1,8,3:0:0:0:
62,253,102582,1,0,0:0:0:0:
176,216,102716,6,0,P|258:202|337:212,1,136,4|0,3:0|0:0,0:0:0:0:
436,304,103116,2,0,P|497:265|437:203,1,136,0|0,0:0|0:0,0:0:0:0:
400,137,103516,2,0,P|376:80|392:7,1,136,0|8,1:0|3:0,0:0:0:0:
472,90,103916,1,8,3:0:0:0:
315,131,104049,1,8,3:0:0:0:
472,90,104182,1,0,0:0:0:0:
260,64,104316,6,0,L|281:210,1,136,4|0,3:0|0:0,0:0:0:0:
265,341,104716,2,0,P|174:342|145:304,1,136,0|0,0:0|0:0,0:0:0:0:
44,164,105116,2,0,B|111:168|111:168|190:208,1,136,0|8,1:0|3:0,0:0:0:0:
90,253,105516,1,8,3:0:0:0:
136,78,105649,1,8,3:0:0:0:
90,253,105782,1,8,3:0:0:0:
238,261,105916,6,0,P|262:200|230:129,1,136,4|0,3:0|0:0,0:0:0:0:
136,78,106316,2,0,P|102:81|52:82,2,68,0|2|0,0:0|0:0|0:0,0:0:0:0:
245,34,106716,2,0,L|402:23,1,136,0|8,1:0|3:0,0:0:0:0:
487,123,107116,1,8,3:0:0:0:
512,0,107249,1,8,3:0:0:0:
398,94,107382,1,8,3:0:0:0:
480,215,107516,6,0,P|450:206|386:199,1,68,4|0,3:0|0:0,0:0:0:0:
385,358,107782,2,0,P|415:367|479:374,1,68,0|0,0:0|0:0,0:0:0:0:
433,285,108049,1,2,0:0:0:0:
433,285,108182,1,0,0:0:0:0:
307,312,108316,2,0,P|237:320|162:325,1,136,0|8,1:0|3:0,0:0:0:0:
18,236,108716,1,8,3:0:0:0:
196,198,108849,1,8,3:0:0:0:
83,323,108982,1,0,0:0:0:0:
33,147,109116,6,0,B|14:104|30:51|30:51|82:36,1,136,2|0,0:0|0:0,0:0:0:0:
229,91,109516,2,0,B|248:134|232:187|232:187|180:202,1,136,0|0,0:0|0:0,0:0:0:0:
185,6,109916,2,0,L|363:28,1,136,0|8,1:0|3:0,0:0:0:0:
456,96,110316,1,8,3:0:0:0:
359,127,110449,1,8,3:0:0:0:
432,197,110582,1,0,0:0:0:0:
411,297,110716,6,0,L|263:285,1,136,2|0,0:0|0:0,0:0:0:0:
138,352,111116,2,0,P|152:280|122:208,1,136,0|0,0:0|0:0,0:0:0:0:
8,93,111516,2,0,P|79:104|145:86,1,136,0|8,1:0|3:0,0:0:0:0:
276,27,111916,1,8,3:0:0:0:
176,3,112049,1,8,3:0:0:0:
214,142,112182,1,0,0:0:0:0:
355,78,112316,6,0,P|424:82|507:70,2,136,2|0|0,0:0|0:0|0:0,0:0:0:0:
214,142,113116,2,0,P|146:137|78:146,2,136,0|0|0,0:0|0:0|0:0,0:0:0:0:
362,273,113916,5,2,0:0:0:0:
486,218,114182,1,2,0:0:0:0:
378,134,114449,1,2,0:0:0:0:
362,273,114716,1,2,0:0:0:0:
256,192,126716,12,2,128049,0:0:0:0:
159,239,128316,5,0,1:0:0:0:
57,98,128449,1,4,3:0:0:0:
221,152,128582,1,0,1:0:0:0:
57,205,128716,1,4,3:0:0:0:
159,66,128849,1,0,1:0:0:0:
159,66,129116,6,0,B|222:32|309:46|309:46|272:113,1,203.999993774414,6|0,0:2|1:2,0:0:0:0:
139,200,129516,1,0,0:0:0:0:
71,69,129649,1,0,1:0:0:0:
239,177,129782,1,0,0:0:0:0:
108,295,129916,2,0,L|-4:269,1,101.999996887207,6|0,0:0|0:0,0:0:0:0:
239,177,130182,2,0,L|127:203,1,101.999996887207,0|0,1:0|0:0,0:0:0:0:
313,384,130449,2,0,L|201:358,1,101.999996887207,0|0,1:0|0:0,0:0:0:0:
424,227,130716,6,0,B|460:245|489:253|489:253|510:335|482:391,1,203.999993774414,6|0,0:0|1:0,0:0:0:0:
341,281,131116,2,0,B|300:157|372:205|337:66,1,203.999993774414
141,162,131516,2,0,P|174:202|246:216,1,101.999996887207,6|0,0:0|0:0,0:0:0:0:
246,19,131782,2,0,P|194:27|146:82,1,101.999996887207,0|0,1:0|0:0,0:0:0:0:
347,144,132049,2,0,L|473:158,1,101.999996887207,0|0,1:0|0:0,0:0:0:0:
506,2,132316,6,0,P|495:56|515:124,1,101.999996887207,6|0,0:0|0:0,0:0:0:0:
472,339,132582,2,0,P|483:285|463:217,1,101.999996887207,0|0,1:0|0:0,0:0:0:0:
225,239,132849,1,0,1:0:0:0:
388,321,132982,1,0,0:0:0:0:
228,150,133116,2,0,P|173:158|114:176,1,101.999996887207,6|0,0:0|0:0,0:0:0:0:
0,271,133382,1,0,1:0:0:0:
176,361,133516,1,0,0:0:0:0:
128,170,133649,2,0,L|96:43,1,101.999996887207,0|0,1:0|0:0,0:0:0:0:
4,21,133916,6,0,P|96:52|209:16,1,203.999993774414,6|0,0:0|1:0,0:0:0:0:
342,63,134316,1,0,0:0:0:0:
249,200,134449,2,0,L|258:74,1,101.999996887207,0|0,1:0|0:0,0:0:0:0:
440,21,134716,2,0,L|447:122,1,101.999996887207,6|0,0:0|0:0,0:0:0:0:
415,360,134982,1,4,1:2:0:0:
348,156,135116,1,0,0:0:0:0:
501,273,135249,1,4,1:2:0:0:
299,356,135382,1,0,0:0:0:0:
249,200,135516,6,0,P|205:110|277:47,1,203.999993774414,6|0,0:0|1:0,0:0:0:0:
458,210,135916,1,0,0:0:0:0:
285,128,136049,1,0,1:0:0:0:
436,16,136182,1,0,0:0:0:0:
373,249,136316,2,0,L|360:134,1,101.999996887207,6|0,0:0|0:0,0:0:0:0:
489,340,136582,2,0,P|447:361|385:356,1,101.999996887207,0|0,1:0|0:0,0:0:0:0:
184,293,136849,2,0,P|226:272|288:277,1,101.999996887207,0|0,1:0|0:0,0:0:0:0:
103,360,137116,6,0,B|75:300|75:300|96:147,1,203.999993774414,6|0,0:0|1:0,0:0:0:0:
29,13,137516,2,0,P|127:32|166:130,1,203.999993774414,0|0,0:0|0:0,0:0:0:0:
281,245,137916,2,0,L|389:230,1,101.999996887207,6|0,0:0|0:0,0:0:0:0:
371,104,138182,2,0,L|269:118,1,101.999996887207,0|0,1:0|0:0,0:0:0:0:
353,325,138449,1,0,1:0:0:0:
437,166,138582,1,0,0:0:0:0:
206,194,138716,6,0,P|192:244|212:304,1,101.999996887207,6|0,0:0|0:0,0:0:0:0:
99,97,138982,2,0,P|113:47|93:-13,1,101.999996887207,0|0,1:0|0:0,0:0:0:0:
37,203,139249,1,0,1:0:0:0:
197,83,139382,1,0,0:0:0:0:
287,273,139516,2,0,L|304:150,1,101.999996887207,6|0,0:0|0:0,0:0:0:0:
321,24,139782,1,0,1:0:0:0:
206,194,139916,1,0,0:0:0:0:
404,127,140049,1,0,1:0:0:0:
236,3,140182,1,0,0:0:0:0:
460,205,140316,6,0,P|413:225|346:212,1,101.999996887207,6|0,0:0|0:0,0:0:0:0:
241,356,140582,2,0,P|247:305|291:253,1,101.999996887207,0|0,1:0|0:0,0:0:0:0:
228,85,140849,2,0,P|268:115|291:180,1,101.999996887207,0|0,1:0|0:0,0:0:0:0:
169,284,141116,2,0,L|50:300,1,101.999996887207,6|0,0:0|0:0,0:0:0:0:
6,116,141382,1,0,1:0:0:0:
292,176,141516,1,0,1:0:0:0:
114,218,141649,1,0,1:0:0:0:
56,7,141782,1,0,1:0:0:0:
292,176,141916,6,0,L|192:194,1,101.999996887207,6|0,0:0|0:0,0:0:0:0:
414,208,142182,1,0,1:0:0:0:
228,85,142316,1,0,1:0:0:0:
414,208,142449,1,0,1:0:0:0:
330,0,142582,1,0,1:0:0:0:
507,114,142716,6,0,L|493:235,1,101.999996887207,6|0,0:0|0:0,0:0:0:0:
271,321,142982,1,0,1:0:0:0:
414,208,143116,1,0,1:0:0:0:
465,384,143249,1,0,1:0:0:0:
292,176,143382,1,0,1:0:0:0:
437,73,143516,5,6,0:0:0:0:
437,73,143782,1,8,3:0:0:0:
199,202,143916,1,4,3:0:0:0:
448,56,144049,1,8,3:0:0:0:
174,11,144182,1,4,3:0:0:0:
458,41,144316,5,6,0:0:0:0:
158,318,145116,6,0,P|93:333|28:268,1,136,6|0,0:0|0:0,0:0:0:0:
58,175,145516,2,0,P|123:160|188:225,1,136,0|0,1:0|0:0,0:0:0:0:
250,271,145916,2,0,P|277:211|265:144,2,136,2|2|0,0:0|0:0|1:0,0:0:0:0:
333,357,146716,6,0,L|486:338,1,136,2|0,0:0|0:0,0:0:0:0:
497,197,147116,2,0,L|362:213,1,136,0|0,1:0|1:0,0:0:0:0:
264,143,147516,2,0,P|240:82|265:1,2,136,2|2|0,0:0|0:0|1:0,0:0:0:0:
465,101,148316,6,0,B|402:69|402:69|320:79,1,136,2|0,0:0|0:0,0:0:0:0:
366,297,148716,2,0,P|384:228|348:163,1,136,0|0,1:0|1:0,0:0:0:0:
233,249,149116,2,0,L|244:392,2,136,2|2|0,0:0|0:0|1:0,0:0:0:0:
163,96,149916,6,0,P|91:88|36:144,1,136,2|0,0:0|0:0,0:0:0:0:
125,184,150316,2,0,L|277:160,1,136,0|0,1:0|0:0,0:0:0:0:
407,125,150716,1,4,1:2:0:0:
407,125,150982,1,8,3:0:0:0:
163,96,151116,1,8,3:0:0:0:
319,247,151249,1,8,3:0:0:0:
339,0,151382,1,8,3:0:0:0:
512,192,151516,6,0,P|444:222|372:192,1,136,6|0,0:0|0:0,0:0:0:0:
269,140,151916,2,0,L|254:52,2,68,0|0|0,1:0|0:0|0:0,0:0:0:0:
191,227,152316,2,0,P|131:188|51:170,2,136,2|2|0,0:0|0:0|1:0,0:0:0:0:
13,251,153116,6,0,P|-6:194|3:109,1,136,2|0,0:0|0:0,0:0:0:0:
73,48,153516,1,0,1:0:0:0:
73,48,153782,1,0,1:0:0:0:
152,113,153916,2,0,L|304:101,2,136,2|2|0,0:0|0:0|1:0,0:0:0:0:
323,183,154716,6,0,P|370:138|361:62,1,136,2|0,0:0|0:0,0:0:0:0:
242,191,155116,2,0,L|260:333,1,136,0|0,1:0|1:0,0:0:0:0:
449,364,155516,2,0,P|478:309|445:223,2,136,2|2|0,0:0|0:0|1:0,0:0:0:0:
361,287,156316,6,0,L|343:152,1,136,6|2,0:0|0:0,0:0:0:0:
322,24,156716,1,0,1:0:0:0:
434,144,156849,1,2,0:0:0:0:
268,217,156982,1,0,0:0:0:0:
499,86,157116,6,0,P|517:173|481:221,1,136,6|2,0:0|0:0,0:0:0:0:
361,287,157516,1,0,1:0:0:0:
295,141,157649,1,2,0:0:0:0:
498,298,157782,1,0,0:0:0:0:
303,362,157916,6,0,L|202:375,1,101.999996887207,6|0,0:0|0:0,0:0:0:0:
104,158,158182,2,0,L|205:171,1,101.999996887207,4|0,0:0|0:0,0:0:0:0:
432,52,158449,2,0,L|331:65,1,101.999996887207,4|0,0:0|0:0,0:0:0:0:
512,279,158716,5,4,1:2:0:0:
306,210,158849,1,8,3:0:0:0:
512,151,158982,1,4,3:0:0:0:
488,377,159116,1,4,3:0:0:0:
393,136,159249,1,4,3:0:0:0:
393,136,159516,6,0,P|379:85|403:29,1,101.999996887207,6|0,0:0|0:0,0:0:0:0:
477,296,159782,2,0,L|371:313,1,101.999996887207,4|0,0:0|0:0,0:0:0:0:
121,258,160049,2,0,L|221:241,1,101.999996887207,4|0,0:0|0:0,0:0:0:0:
326,368,160316,5,4,1:2:0:0:
393,136,160449,1,8,3:0:0:0:
221,241,160582,1,4,3:0:0:0:
477,296,160716,1,4,3:0:0:0:
352,57,160849,1,4,3:0:0:0:
352,57,161116,6,0,P|393:32|453:32,1,101.999996887207,6|0,0:0|0:0,0:0:0:0:
178,107,161382,2,0,P|135:83|105:32,1,101.999996887207,4|0,1:2|0:0,0:0:0:0:
308,233,161649,2,0,P|309:281|279:332,1,101.999996887207,4|0,1:2|0:0,0:0:0:0:
91,159,161916,5,4,1:2:0:0:
301,126,162049,1,8,3:0:0:0:
198,225,162182,1,4,3:0:0:0:
125,2,162316,1,4,3:0:0:0:
301,126,162449,1,4,3:0:0:0:
91,159,162582,1,4,3:0:0:0:
298,7,162716,5,4,1:2:0:0:
286,263,162849,1,8,3:0:0:0:
195,96,162982,1,4,3:0:0:0:
428,152,163116,1,4,3:0:0:0:
198,225,163249,1,4,3:0:0:0:
298,7,163382,1,4,3:0:0:0:
286,263,163516,5,4,1:2:0:0:
286,263,163582,1,4,3:0:0:0:
286,263,163649,1,4,3:0:0:0:
102,153,163782,1,8,3:0:0:0:
102,153,163848,1,8,3:0:0:0:
102,153,163915,1,8,3:0:0:0:
169,288,164049,6,0,B|196:329|196:329|215:284|191:193,1,165.749992412568,4|0,1:2|0:0,0:0:0:0:
102,153,164316,6,0,L|-16:175,1,101.999996887207,6|0,0:0|0:0,0:0:0:0:
202,24,164582,2,0,L|84:2,1,101.999996887207,4|0,1:2|0:0,0:0:0:0:
296,196,164849,2,0,L|178:218,1,101.999996887207,4|0,1:2|0:0,0:0:0:0:
375,58,165116,6,0,P|422:34|504:41,1,101.999996887207,4|0,1:2|0:0,0:0:0:0:
428,231,165382,2,0,P|425:283|378:351,1,101.999996887207,4|0,1:2|0:0,0:0:0:0:
296,196,165649,2,0,P|251:167|216:92,1,101.999996887207,4|0,1:2|0:0,0:0:0:0:
501,130,165916,6,0,L|376:145,1,101.999996887207,6|0,0:0|0:0,0:0:0:0:
156,257,166182,2,0,L|281:272,1,101.999996887207,6|0,0:0|0:0,0:0:0:0:
503,352,166449,2,0,L|378:367,1,101.999996887207,6|0,0:0|0:0,0:0:0:0:
263,97,166716,6,0,P|245:52|258:-22,1,101.999996887207,4|0,1:2|0:0,0:0:0:0:
376,103,166982,1,4,1:2:0:0:
376,103,167116,1,0,0:0:0:0:
153,197,167249,2,0,L|17:183,1,101.999996887207,4|0,1:2|0:0,0:0:0:0:
9,27,167516,6,0,P|66:33|126:71,1,101.999996887207,6|0,0:0|0:0,0:0:0:0:
303,9,167782,2,0,P|269:55|206:88,1,101.999996887207,4|0,1:2|0:0,0:0:0:0:
164,299,168049,2,0,L|151:173,1,101.999996887207,4|0,1:2|0:0,0:0:0:0:
374,101,168316,5,6,0:0:0:0:
374,101,168582,1,0,1:0:0:0:
483,384,168716,1,0,1:0:0:0:
242,227,168849,1,0,1:0:0:0:
504,87,168982,1,0,1:0:0:0:
216,309,169116,6,0,P|173:282|156:229,1,101.999996887207,2|0,0:0|0:0,0:0:0:0:
137,287,169419,6,0,P|127:246|148:205,1,85
92,223,169669,6,0,P|110:193|147:181,1,68
105,158,169939,6,0,P|133:151|161:166,1,50.9999984436036
