osu file format v14

[General]
AudioFilename: audio.mp3
AudioLeadIn: 0
PreviewTime: 54382
Countdown: 0
SampleSet: Soft
StackLeniency: 0.4
Mode: 0
LetterboxInBreaks: 0
WidescreenStoryboard: 0

[Editor]
DistanceSpacing: 2
BeatDivisor: 4
GridSize: 16
TimelineZoom: 2.999999

[Metadata]
Title:Noise (English ver.)
TitleUnicode:ノイズ(English ver.)
Artist:Mio Yamazaki
ArtistUnicode:ミオヤマザキ
Creator:Akitoshi
Version:Extreme
Source:地獄少女 宵伽
Tags:Corinn English Jigoku Shoujo Yoi no Togi Opening Hey lululu Asagi
BeatmapID:1487213
BeatmapSetID:702892

[Difficulty]
HPDrainRate:6
CircleSize:4
OverallDifficulty:9.5
ApproachRate:9.7
SliderMultiplier:1.8
SliderTickRate:1

[Events]
//Background and Video events
0,0,"ZDBcaGK.jpg",0,0
//Break Periods
//Storyboard Layer 0 (Background)
//Storyboard Layer 1 (Fail)
//Storyboard Layer 2 (Pass)
//Storyboard Layer 3 (Foreground)
//Storyboard Sound Samples

[TimingPoints]
316,266.666666666667,3,2,0,50,1,0
316,-200,3,2,0,50,0,0
1782,-200,3,2,0,5,0,0
1916,-200,3,2,0,50,0,0
8182,-200,3,2,0,5,0,0
8316,-200,3,2,0,50,0,0
12849,-125,3,2,0,50,0,0
13116,-100,3,2,0,80,0,0
25916,-142.857142857143,3,2,0,60,0,0
38649,-142.857142857143,3,2,0,5,0,0
38716,-125,3,2,0,70,0,0
48316,-133.333333333333,3,2,0,75,0,0
53116,-200,3,2,0,70,0,0
53382,-166.666666666667,3,2,0,70,0,0
53649,-142.857142857143,3,2,0,70,0,0
53916,-125,3,2,0,70,0,0
54449,-166.666666666667,3,2,0,50,0,0
54716,-83.3333333333333,3,2,0,100,0,1
69916,-83.3333333333333,3,2,0,100,0,0
70716,-100,3,2,0,80,0,0
76316,-200,3,2,0,80,0,0
76449,-200,3,2,0,20,0,0
76982,-200,3,2,0,60,0,0
77116,-100,3,2,0,80,0,0
83516,-142.857142857143,3,2,0,60,0,0
96316,-166.666666666667,3,2,0,60,0,0
99516,-125,3,2,0,70,0,0
109116,-133.333333333333,3,2,0,75,0,0
113916,-200,3,2,0,75,0,0
114182,-166.666666666667,3,2,0,75,0,0
114449,-142.857142857143,3,2,0,75,0,0
114716,-125,3,2,0,75,0,0
115249,-125,3,2,0,5,0,0
115516,-200,3,2,0,60,0,0
128316,-100,3,2,0,80,0,0
129116,-76.9230769230769,4,2,0,100,0,1
144316,-76.9230769230769,4,2,0,100,0,0
145116,-90.9090909090909,4,2,0,80,0,0
157916,-83.3333333333333,4,2,0,100,0,1
164182,-83.3333333333333,4,2,0,100,0,0
164316,-66.6666666666667,4,2,0,100,0,1
169116,303.030303030303,4,2,0,50,1,0
169116,-166.666666666667,4,2,0,50,0,0
169419,-166.666666666667,4,2,0,20,0,0
169669,270.27027027027,4,2,0,20,1,0
169669,-166.666666666667,4,2,0,20,0,0
169939,-1000,4,2,0,20,0,0
170209,-1000,4,2,0,5,0,0

[Colours]
Combo1 : 255,192,0
Combo2 : 255,128,64
Combo3 : 255,128,128
Combo4 : 242,24,57

[HitObjects]
52,203,316,6,0,B|88:185|135:193|160:225|160:225|228:207|228:207|202:140|233:67|319:54|319:54|287:110|323:158,1,495,4|0,3:0|0:0,0:0:0:0:
390,104,1916,6,0,B|444:96|482:37|482:37|505:93|505:93|482:140|504:182|504:182|431:203|415:288|459:336,1,450,2|0,0:0|0:0,0:0:0:0:
450,325,3516,6,0,B|475:280|451:231|380:217|345:257|344:297|344:297|317:255|285:248|285:248|264:306|197:314|141:254|183:187,1,495,2|0,0:0|0:0,0:0:0:0:
236,125,5116,6,0,B|197:94|140:100|111:142|111:142|85:100|25:100,1,225,2|0,0:0|0:0,0:0:0:0:
40,186,5916,2,0,B|57:337|57:337|110:276,1,225,2|0,0:0|0:0,0:0:0:0:
176,233,6716,6,0,B|223:213|290:247|284:298|281:333|281:333|318:298|361:291|361:291|345:204|345:204|388:237|426:221|426:221|445:233|482:233,1,495,2|0,0:0|0:0,0:0:0:0:
496,150,8316,6,0,B|471:105|502:25|502:25|440:77|376:30|376:30|404:88|396:144|396:144|366:124|361:78,1,450,2|0,0:0|0:0,0:0:0:0:
363,90,9916,6,0,B|317:74|317:74|280:96|280:96|214:44|109:63|109:63|152:133|152:133|118:159|116:207|156:243|197:231,1,495,2|0,0:0|0:0,0:0:0:0:
265,201,11516,6,0,P|328:200|217:307,1,405,2|0,0:0|0:0,0:0:0:0:
298,280,12849,6,0,L|440:271,1,108,0|0,3:0|0:0,0:0:0:0:
442,270,13116,6,0,P|452:224|443:167,1,90,6|0,0:0|0:0,0:0:0:0:
299,24,13382,1,4,1:2:0:0:
265,201,13516,1,0,0:0:0:0:
421,52,13649,2,0,L|510:54,1,90,4|0,1:2|0:0,0:0:0:0:
302,114,13916,5,4,1:2:0:0:
200,12,14049,1,0,0:0:0:0:
86,162,14182,2,0,L|94:259,1,90,4|0,1:2|0:0,0:0:0:0:
208,100,14449,1,4,1:2:0:0:
20,82,14582,1,0,0:0:0:0:
207,223,14716,6,0,P|259:229|304:215,1,90,4|0,1:2|0:0,0:0:0:0:
420,55,14982,2,0,P|388:97|378:143,1,90,4|0,1:2|0:0,0:0:0:0:
460,324,15249,2,0,P|439:275|404:243,1,90,4|0,1:2|0:0,0:0:0:0:
238,136,15516,5,4,1:2:0:0:
166,300,15649,1,0,0:0:0:0:
123,96,15783,1,4,1:2:0:0:
242,230,15916,1,0,0:0:0:0:
36,249,16049,1,4,1:2:0:0:
155,383,16182,1,0,0:0:0:0:
331,272,16316,6,0,P|339:222|323:175,1,90,4|0,1:2|0:0,0:0:0:0:
156,70,16582,1,4,1:2:0:0:
242,230,16716,1,0,0:0:0:0:
394,90,16849,2,0,L|496:95,1,90,4|0,1:2|0:0,0:0:0:0:
249,26,17116,6,0,L|147:31,1,90,4|0,1:2|0:0,0:0:0:0:
328,185,17382,1,4,1:2:0:0:
350,5,17516,1,0,0:0:0:0:
199,146,17649,2,0,L|97:151,1,90,4|0,1:2|0:0,0:0:0:0:
317,294,17916,6,0,L|419:299,1,90,4|0,1:2|0:0,0:0:0:0:
216,120,18182,1,4,1:2:0:0:
160,292,18316,1,0,0:0:0:0:
350,173,18449,1,4,1:2:0:0:
183,279,18582,1,0,0:0:0:0:
16,125,18716,6,0,P|9:79|18:32,1,90,4|0,1:2|0:0,0:0:0:0:
233,93,18982,1,4,1:2:0:0:
86,228,19116,1,0,0:0:0:0:
139,0,19249,1,6,1:2:0:0:
191,190,19382,1,2,0:0:0:0:
341,9,19516,6,0,L|443:14,1,90,4|0,1:2|0:0,0:0:0:0:
215,102,19782,2,0,L|113:107,1,90,4|0,1:2|0:0,0:0:0:0:
326,227,20049,1,6,1:2:0:0:
249,6,20182,1,2,0:0:0:0:
108,194,20316,6,0,P|97:237|107:293,1,90,4|0,1:2|0:0,0:0:0:0:
321,314,20582,2,0,P|332:271|322:215,1,90,4|0,1:2|0:0,0:0:0:0:
249,6,20849,1,6,1:2:0:0:
469,81,20982,1,2,0:0:0:0:
237,124,21116,6,0,L|140:119,1,90,4|0,1:2|0:0,0:0:0:0:
21,316,21382,2,0,L|118:311,1,90,4|0,1:2|0:0,0:0:0:0:
326,226,21649,1,6,1:2:0:0:
93,205,21782,1,2,0:0:0:0:
288,335,21916,6,0,P|351:339|386:324,1,90,4|0,1:2|0:0,0:0:0:0:
498,131,22182,2,0,P|435:127|400:142,1,90,4|0,1:2|0:0,0:0:0:0:
216,268,22449,1,6,1:2:0:0:
309,54,22582,1,2,0:0:0:0:
461,233,22716,6,0,L|458:329,1,90,4|0,1:2|0:0,0:0:0:0:
289,161,22982,1,4,1:2:0:0:
454,87,23116,1,0,0:0:0:0:
315,274,23249,2,0,P|266:275|218:253,1,90,4|0,1:2|0:0,0:0:0:0:
47,110,23516,6,0,P|88:94|133:96,1,90,4|0,1:2|0:0,0:0:0:0:
376,161,23782,1,4,1:2:0:0:
245,10,23916,1,0,0:0:0:0:
105,201,24049,2,0,L|114:311,1,90,4|0,1:2|0:0,0:0:0:0:
336,361,24316,6,0,L|345:251,1,90,4|0,1:2|0:0,0:0:0:0:
372,21,24582,1,4,1:2:0:0:
500,172,24716,1,0,0:0:0:0:
288,108,24849,2,0,P|244:98|190:107,1,90,4|0,1:2|0:0,0:0:0:0:
1,294,25116,6,0,P|45:304|99:295,1,90,4|0,1:2|0:0,0:0:0:0:
288,108,25382,1,0,1:0:0:0:
240,379,25516,1,0,1:0:0:0:
118,131,25649,1,0,1:0:0:0:
362,260,25782,1,0,1:0:0:0:
89,298,25916,6,0,P|59:257|51:174,1,125.999996154785,4|0,0:0|0:0,0:0:0:0:
89,298,26316,2,0,P|96:247|149:183,1,125.999996154785,2|0,0:0|0:0,0:0:0:0:
291,138,26716,2,0,L|305:69,1,62.9999980773926,0|0,1:0|0:0,0:0:0:0:
291,138,26982,2,0,L|343:184,1,62.9999980773926,2|0,0:0|0:0,0:0:0:0:
291,138,27249,2,0,L|224:160,1,62.9999980773926,2|0,0:0|0:0,0:0:0:0:
116,266,27516,6,0,P|162:264|231:313,1,125.999996154785,2|0,0:0|0:0,0:0:0:0:
26,342,27916,2,0,P|47:301|124:265,1,125.999996154785,2|0,0:0|0:0,0:0:0:0:
226,306,28316,2,0,L|310:300,1,62.9999980773926,0|0,1:0|0:0,0:0:0:0:
316,244,28582,2,0,L|279:319,1,62.9999980773926,2|0,0:0|0:0,0:0:0:0:
323,352,28849,2,0,L|275:282,1,62.9999980773926,2|0,0:0|0:0,0:0:0:0:
183,180,29116,6,0,P|218:156|305:149,1,125.999996154785,2|0,0:0|0:0,0:0:0:0:
415,180,29516,2,0,P|380:156|293:149,1,125.999996154785,2|0,0:0|0:0,0:0:0:0:
183,180,29916,2,0,L|108:171,1,62.9999980773926,0|0,1:0|0:0,0:0:0:0:
170,210,30182,2,0,L|95:201,1,62.9999980773926,2|0,0:0|0:0,0:0:0:0:
157,241,30449,2,0,L|82:232,1,62.9999980773926,2|0,0:0|0:0,0:0:0:0:
200,350,30716,6,0,L|336:333,1,125.999996154785,2|0,0:0|0:0,0:0:0:0:
450,350,31116,2,0,L|313:333,1,125.999996154785,2|0,0:0|0:0,0:0:0:0:
262,189,31516,2,0,P|256:155|261:125,1,62.9999980773926,0|0,1:0|0:0,0:0:0:0:
262,189,31782,2,0,P|294:200|317:220,1,62.9999980773926,2|0,0:0|0:0,0:0:0:0:
262,189,32049,2,0,P|235:211|207:221,1,62.9999980773926,2|0,0:0|0:0,0:0:0:0:
50,222,32316,6,0,B|19:177|48:125|48:125|66:140,1,125.999996154785,2|0,0:0|0:0,0:0:0:0:
81,57,32716,2,0,B|112:102|83:154|83:154|65:139,1,125.999996154785,2|0,0:0|0:0,0:0:0:0:
167,18,33116,2,0,P|185:53|188:85,1,62.9999980773926,0|0,1:0|0:0,0:0:0:0:
281,86,33382,2,0,P|268:123|248:148,1,62.9999980773926,2|0,0:0|0:0,0:0:0:0:
315,215,33649,2,0,P|280:232|248:235,1,62.9999980773926,2|0,0:0|0:0,0:0:0:0:
142,269,33916,6,0,P|194:236|272:241,1,125.999996154785,2|0,0:0|0:0,0:0:0:0:
229,351,34316,2,0,P|226:289|269:224,1,125.999996154785,2|0,0:0|0:0,0:0:0:0:
405,184,34716,2,0,L|412:253,1,62.9999980773926,0|0,1:0|0:0,0:0:0:0:
427,109,34982,2,0,L|420:178,1,62.9999980773926,2|0,0:0|0:0,0:0:0:0:
405,33,35249,2,0,L|412:102,1,62.9999980773926,2|0,0:0|0:0,0:0:0:0:
299,178,35516,5,2,0:0:0:0:
299,178,35649,2,0,P|259:161|227:158,1,62.9999980773926,2|0,0:0|0:0,0:0:0:0:
128,202,35916,2,0,P|162:173|244:158,1,125.999996154785,2|0,0:0|0:0,0:0:0:0:
337,282,36316,2,0,P|300:285|266:278,1,62.9999980773926,0|0,1:0|0:0,0:0:0:0:
410,252,36582,2,0,P|373:249|339:256,1,62.9999980773926,2|0,0:0|0:0,0:0:0:0:
483,282,36849,2,0,P|446:285|412:278,1,62.9999980773926,2|0,0:0|0:0,0:0:0:0:
333,148,37116,6,0,B|320:110|338:62|338:62|301:80,1,125.999996154785,6|0,0:0|0:0,0:0:0:0:
275,9,37516,2,0,B|288:47|270:95|270:95|307:77,1,125.999996154785,2|0,0:0|0:0,0:0:0:0:
453,26,37916,6,0,B|496:69|485:131|485:131|496:135|496:135|485:131|485:131|435:166|456:218|456:218|467:222|467:222|456:218|456:218|427:253|439:304,1,346.49998942566,2|0,0:0|0:0,0:0:0:0:
437,297,38716,6,0,P|390:268|293:288,1,144,6|2,0:0|0:0,0:0:0:0:
206,320,39116,2,0,P|195:268|193:246,1,72,0|2,0:0|0:0,0:0:0:0:
215,143,39382,1,0,0:0:0:0:
111,175,39516,2,0,P|61:172|36:159,1,72,2|0,0:0|0:0,0:0:0:0:
191,77,39782,2,0,P|213:121|214:149,1,72,2|0,0:0|0:0,0:0:0:0:
65,54,40049,2,0,P|82:23|110:1,1,72,0|0,1:0|0:0,0:0:0:0:
282,21,40316,6,0,B|322:38|322:38|431:16,1,144,2|2,0:0|0:0,0:0:0:0:
495,96,40716,2,0,P|480:134|480:178,1,72,0|2,0:0|0:0,0:0:0:0:
500,270,40982,1,0,0:0:0:0:
397,304,41116,2,0,L|315:299,1,72,2|0,0:0|0:0,0:0:0:0:
320,127,41382,2,0,L|356:200,1,72,2|0,0:0|0:0,0:0:0:0:
204,282,41649,2,0,L|249:213,1,72,0|0,1:0|0:0,0:0:0:0:
181,60,41916,6,0,P|140:120|158:206,1,144,2|2,0:0|0:0,0:0:0:0:
204,282,42316,2,0,L|197:373,1,72,0|2,0:0|0:0,0:0:0:0:
110,290,42582,1,0,0:0:0:0:
147,188,42716,2,0,P|179:174|226:173,1,72,2|0,0:0|0:0,0:0:0:0:
346,59,42982,2,0,P|342:93|319:134,1,72,2|0,0:0|0:0,0:0:0:0:
360,296,43249,2,0,P|331:275|307:235,1,72,0|0,1:0|0:0,0:0:0:0:
241,86,43516,6,0,B|193:81|193:81|153:97|153:97|96:90,1,144,2|2,0:0|0:0,0:0:0:0:
17,157,43916,2,0,P|13:194|23:238,1,72,0|2,0:0|0:0,0:0:0:0:
90,308,44182,1,0,0:0:0:0:
163,228,44316,2,0,L|237:238,1,72,2|0,0:0|0:0,0:0:0:0:
277,336,44582,2,0,L|203:346,1,72,2|0,0:0|0:0,0:0:0:0:
344,253,44849,1,0,1:0:0:0:
408,380,44982,1,0,0:0:0:0:
499,240,45116,6,0,B|524:170|467:164|501:88,1,144,6|2,0:0|0:0,0:0:0:0:
427,15,45516,2,0,P|395:31|351:38,1,72,0|2,0:0|0:0,0:0:0:0:
253,21,45782,1,0,0:0:0:0:
180,101,45916,2,0,L|193:173,1,72,2|0,0:0|0:0,0:0:0:0:
355,229,46182,2,0,L|286:204,1,72,2|0,0:0|0:0,0:0:0:0:
157,319,46449,2,0,L|212:271,1,72,0|0,1:0|0:0,0:0:0:0:
77,161,46716,6,0,P|46:201|50:299,1,144,2|2,0:0|0:0,0:0:0:0:
157,319,47116,2,0,L|150:247,1,72,0|2,0:0|0:0,0:0:0:0:
190,147,47382,1,0,0:0:0:0:
293,179,47516,2,0,P|330:180|363:169,1,72,2|0,0:0|0:0,0:0:0:0:
442,16,47782,2,0,P|422:47|415:81,1,72,2|0,0:0|0:0,0:0:0:0:
512,218,48049,2,0,P|494:185|468:162,1,72,0|0,1:0|0:0,0:0:0:0:
323,88,48316,6,0,B|277:59|220:79|236:94|185:126|115:85,1,202.500007724762,6|2,0:0|0:0,0:0:0:0:
21,175,48849,2,0,L|26:255,1,67.5000025749208,0|0,1:0|0:0,0:0:0:0:
149,297,49116,2,0,P|194:289|243:300,1,67.5000025749208,2|0,0:0|0:0,0:0:0:0:
292,181,49382,2,0,P|247:189|198:178,1,67.5000025749208,2|0,0:0|0:0,0:0:0:0:
321,283,49649,2,0,P|366:275|415:286,1,67.5000025749208,0|0,1:0|0:0,0:0:0:0:
490,151,49916,6,0,B|510:82|477:20|477:20|461:68|405:82,1,202.500007724762,6|2,0:0|0:0,0:0:0:0:
298,65,50449,2,0,P|301:99|313:131,1,67.5000025749208,0|0,1:0|0:0,0:0:0:0:
334,265,50716,2,0,L|253:273,1,67.5000025749208,2|0,0:0|0:0,0:0:0:0:
166,361,50982,2,0,L|247:369,1,67.5000025749208,2|0,0:0|0:0,0:0:0:0:
106,276,51249,2,0,L|25:284,1,67.5000025749208,0|0,1:0|0:0,0:0:0:0:
11,122,51516,6,0,B|59:111|59:111|112:132|112:132|166:123|166:123|207:89,1,202.500007724762,6|2,0:0|0:0,0:0:0:0:
337,14,52049,2,0,P|351:47|357:97,1,67.5000025749208,0|0,1:0|0:0,0:0:0:0:
427,224,52316,2,0,P|433:190|446:159,1,67.5000025749208,2|0,0:0|0:0,0:0:0:0:
337,14,52582,5,0,1:0:0:0:
272,193,52716,1,0,1:0:0:0:
219,10,52849,1,0,1:0:0:0:
369,128,52982,1,0,1:0:0:0:
178,121,53116,5,2,0:0:0:0:
174,125,53382,5,2,0:0:0:0:
170,129,53649,5,2,0:0:0:0:
166,133,53916,5,2,0:0:0:0:
166,133,54449,6,0,L|102:138,1,53.9999983520508
37,169,54716,6,0,B|100:163|100:163|148:180|148:180|186:158|186:158|261:151,1,215.999993408203,6|0,0:0|0:0,0:0:0:0:
481,129,55116,2,0,B|509:181|509:181|469:277|469:277|434:225,1,215.999993408203,2|2,0:0|0:0,0:0:0:0:
289,47,55516,2,0,L|181:54,1,107.999996704102,0|0,1:0|0:0,0:0:0:0:
227,242,55782,1,2,0:0:0:0:
396,73,55916,1,0,1:0:0:0:
161,84,56049,2,0,L|53:77,1,107.999996704102,2|0,0:0|0:0,0:0:0:0:
257,217,56316,6,0,B|313:207|313:207|355:229|355:229|428:218|428:218|399:251,1,215.999993408203,2|0,0:0|0:0,0:0:0:0:
161,310,56716,2,0,B|126:270|125:217|125:217|68:243|13:222,1,215.999993408203,2|2,0:0|0:0,0:0:0:0:
242,111,57116,2,0,P|257:168|256:222,1,107.999996704102,0|0,1:0|0:0,0:0:0:0:
120,9,57382,1,2,0:0:0:0:
386,62,57516,1,0,1:0:0:0:
209,110,57649,2,0,L|79:123,1,107.999996704102,2|0,0:0|0:0,0:0:0:0:
280,302,57916,6,0,B|337:324|386:277|386:277|454:257|496:280|510:306|510:306|497:343|451:349,1,323.999990112305,6|0,0:0|0:0,0:0:0:0:
314,212,58449,2,0,L|303:89,1,107.999996704102,2|0,0:0|0:0,0:0:0:0:
4,130,58716,6,0,B|40:174|40:174|208:146,1,215.999993408203,0|2,1:0|0:0,0:0:0:0:
483,102,59116,1,0,1:0:0:0:
199,42,59249,2,0,P|187:94|202:158,1,107.999996704102,2|0,0:0|0:0,0:0:0:0:
351,371,59516,6,0,P|404:336|450:192,1,215.999993408203,6|0,0:0|0:0,0:0:0:0:
351,24,59916,2,0,P|404:58|450:202,1,215.999993408203,2|0,0:0|0:0,0:0:0:0:
190,176,60316,2,0,L|298:171,1,107.999996704102,4|0,1:2|0:0,0:0:0:0:
76,38,60582,5,4,3:0:0:0:
163,283,60716,1,4,3:0:0:0:
232,33,60849,1,4,3:0:0:0:
23,188,60983,1,4,3:0:0:0:
335,171,61116,5,6,0:0:0:0:
163,283,61249,2,0,L|40:276,1,107.999996704102,2|0,0:0|0:0,0:0:0:0:
324,204,61516,2,0,L|447:197,1,107.999996704102,2|0,0:0|0:0,0:0:0:0:
232,33,61782,1,2,0:0:0:0:
256,366,61916,2,0,P|321:334|311:191,1,215.999993408203,0|2,1:0|0:0,0:0:0:0:
72,372,62316,1,0,1:0:0:0:
7,166,62449,2,0,L|15:40,1,107.999996704102,2|0,0:0|0:0,0:0:0:0:
323,204,62716,6,0,B|262:241|262:241|115:210,1,215.999993408203,6|0,0:0|0:0,0:0:0:0:
398,118,63116,2,0,P|431:170|436:226,1,107.999996704102,2|0,0:0|0:0,0:0:0:0:
250,374,63382,1,2,0:0:0:0:
240,114,63516,2,0,L|249:3,1,107.999996704102,0|0,1:0|0:0,0:0:0:0:
341,225,63782,1,2,0:0:0:0:
120,211,63916,1,0,1:0:0:0:
361,370,64049,2,0,P|419:373|465:353,1,107.999996704102,0|0,1:0|0:0,0:0:0:0:
122,239,64316,6,0,P|72:218|18:222,1,107.999996704102,6|0,0:0|0:0,0:0:0:0:
237,141,64582,2,0,P|230:87|199:42,1,107.999996704102,2|0,0:0|0:0,0:0:0:0:
403,162,64849,2,0,P|446:129|469:80,1,107.999996704102,2|0,0:0|0:0,0:0:0:0:
235,232,65116,2,0,B|216:282|216:282|240:315|240:315|249:382|249:382|280:317,1,215.999993408203,0|2,1:0|0:0,0:0:0:0:
339,94,65516,1,0,3:0:0:0:
92,172,65649,2,0,P|79:120|89:65,1,107.999996704102,0|0,1:0|0:0,0:0:0:0:
340,236,65916,5,6,0:0:0:0:
140,318,66049,2,0,L|17:307,1,107.999996704102,2|0,0:0|0:0,0:0:0:0:
203,117,66316,2,0,L|326:106,1,107.999996704102,2|0,0:0|0:0,0:0:0:0:
260,308,66582,1,2,0:0:0:0:
50,172,66716,2,0,P|39:122|52:63,1,107.999996704102,0|0,1:0|0:0,0:0:0:0:
337,28,66982,5,0,1:0:0:0:
247,273,67116,1,0,1:0:0:0:
464,126,67250,1,0,1:0:0:0:
203,117,67382,1,0,1:0:0:0:
408,278,67516,6,0,P|455:293|512:275,1,107.999996704102,4|0,1:2|0:0,0:0:0:0:
234,127,67782,1,0,1:0:0:0:
117,359,67916,1,0,1:0:0:0:
102,100,68049,1,0,1:0:0:0:
260,308,68182,1,0,1:0:0:0:
370,36,68316,6,0,L|256:28,1,107.999996704102,6|0,1:2|0:0,0:0:0:0:
8,170,68582,1,0,1:0:0:0:
266,137,68716,1,0,1:0:0:0:
31,28,68849,1,0,1:0:0:0:
113,272,68982,1,0,1:0:0:0:
370,132,69116,6,0,P|420:120|484:123,1,107.999996704102,6|0,1:2|0:0,0:0:0:0:
166,27,69382,1,8,3:0:0:0:
240,295,69516,1,4,3:0:0:0:
170,31,69649,1,8,3:0:0:0:
244,299,69782,1,4,3:0:0:0:
498,154,69916,5,6,0:0:0:0:
498,154,70716,6,0,B|454:145|454:145|395:155,1,90,4|0,1:2|0:0,0:0:0:0:
268,303,70982,2,0,B|312:312|312:312|371:302,1,90,4|0,1:2|0:0,0:0:0:0:
211,154,71249,2,0,B|167:145|167:145|108:155,1,90,4|0,1:2|0:0,0:0:0:0:
176,353,71516,5,12,3:0:0:0:
306,192,71649,1,8,3:0:0:0:
134,243,71782,1,4,3:0:0:0:
268,303,71916,1,4,3:0:0:0:
216,188,72049,2,0,L|229:84,1,90,4|0,3:0|0:0,0:0:0:0:
414,208,72316,5,4,1:2:0:0:
268,303,72449,1,0,0:0:0:0:
227,98,72582,2,0,P|184:91|136:103,1,90,4|0,1:2|0:0,0:0:0:0:
15,268,72849,2,0,P|58:275|106:263,1,90,4|0,1:2|0:0,0:0:0:0:
261,116,73116,5,12,3:0:0:0:
359,277,73249,1,8,3:0:0:0:
206,223,73382,1,4,3:0:0:0:
349,168,73516,1,4,3:0:0:0:
274,280,73649,2,0,L|280:373,1,90,4|0,3:0|0:0,0:0:0:0:
443,213,73916,5,4,1:2:0:0:
261,116,74049,1,0,0:0:0:0:
464,21,74182,2,0,L|454:135,1,90,4|0,1:2|0:0,0:0:0:0:
273,243,74449,2,0,L|263:129,1,90,4|0,1:2|0:0,0:0:0:0:
56,240,74716,5,12,3:0:0:0:
213,359,74849,1,8,3:0:0:0:
269,198,74982,1,4,3:0:0:0:
145,273,75116,1,4,3:0:0:0:
278,293,75249,2,0,L|388:285,1,90,4|0,3:0|0:0,0:0:0:0:
484,61,75516,5,4,1:2:0:0:
255,106,75649,1,0,0:0:0:0:
482,212,75782,1,4,1:2:0:0:
355,14,75916,1,0,0:0:0:0:
188,177,76049,2,0,L|68:168,1,90,4|0,1:2|0:0,0:0:0:0:
253,328,76316,6,0,B|417:320|417:320|357:279,1,225,0|0,1:0|0:0,0:0:0:0:
277,223,77116,6,0,P|270:178|285:118,1,90,6|0,0:0|0:0,0:0:0:0:
357,26,77382,1,2,0:0:0:0:
177,49,77516,2,0,L|71:37,1,90,0|0,1:0|0:0,0:0:0:0:
129,185,77782,1,2,0:0:0:0:
295,113,77916,6,0,L|401:101,1,90,2|0,0:0|0:0,0:0:0:0:
288,254,78182,2,0,L|182:242,1,90,2|0,0:0|0:0,0:0:0:0:
1,217,78449,1,0,1:0:0:0:
85,333,78582,1,2,0:0:0:0:
199,243,78716,6,0,B|215:200|215:200|196:66,1,180,2|0,0:0|0:0,0:0:0:0:
400,96,79116,2,0,P|360:119|305:121,1,90,0|0,1:0|0:0,0:0:0:0:
322,0,79382,1,2,0:0:0:0:
511,85,79516,6,0,L|503:193,1,90,2|0,0:0|0:0,0:0:0:0:
398,308,79782,2,0,L|390:200,1,90,2|0,0:0|0:0,0:0:0:0:
207,142,80049,1,0,1:0:0:0:
270,290,80182,1,2,0:0:0:0:
314,86,80316,6,0,P|250:31|138:44,1,180,6|0,0:0|0:0,0:0:0:0:
195,229,80716,2,0,P|209:186|207:142,1,90,0|0,1:0|0:0,0:0:0:0:
28,162,80982,1,0,1:0:0:0:
148,331,81116,6,0,L|250:326,1,90,2|0,0:0|0:0,0:0:0:0:
406,207,81382,2,0,L|304:202,1,90,2|0,0:0|0:0,0:0:0:0:
486,82,81649,1,0,1:0:0:0:
415,237,81782,1,0,0:0:0:0:
288,83,81916,6,0,P|239:73|179:91,1,90,2|0,0:0|0:0,0:0:0:0:
37,156,82182,1,2,0:0:0:0:
217,274,82316,2,0,P|239:235|242:191,1,90,0|0,1:0|0:0,0:0:0:0:
90,37,82582,1,2,0:0:0:0:
3,294,82716,5,6,1:2:0:0:
3,294,83516,6,0,B|74:273|60:329|148:301,1,125.999996154785,6|0,0:0|0:0,0:0:0:0:
207,260,83916,2,0,P|185:217|199:137,1,125.999996154785,2|0,0:0|0:0,0:0:0:0:
315,102,84316,2,0,L|390:106,1,62.9999980773926,0|0,1:0|0:0,0:0:0:0:
416,191,84582,2,0,L|341:195,1,62.9999980773926,0|8,0:0|3:0,0:0:0:0:
297,271,84849,1,8,3:0:0:0:
297,271,84982,1,8,3:0:0:0:
350,349,85116,6,0,P|403:359|468:331,1,125.999996154785,8|0,3:0|0:0,0:0:0:0:
486,238,85516,2,0,B|462:203|462:203|470:100,1,125.999996154785,2|0,0:0|0:0,0:0:0:0:
376,33,85916,2,0,P|343:45|303:41,1,62.9999980773926,0|0,1:0|0:0,0:0:0:0:
223,22,86182,1,8,3:0:0:0:
223,22,86316,1,8,3:0:0:0:
154,86,86449,2,0,L|159:161,1,62.9999980773926,8|0,3:0|0:0,0:0:0:0:
212,226,86716,6,0,P|156:244|95:220,1,125.999996154785,8|0,3:0|0:0,0:0:0:0:
24,158,87116,2,0,P|41:214|17:275,1,125.999996154785,2|0,0:0|0:0,0:0:0:0:
109,362,87516,2,0,P|142:346|173:342,1,62.9999980773926,0|0,1:0|0:0,0:0:0:0:
265,360,87782,1,8,3:0:0:0:
265,360,87916,1,8,3:0:0:0:
347,314,88049,1,8,3:0:0:0:
347,314,88183,1,8,3:0:0:0:
348,219,88316,6,0,P|315:193|215:193,1,125.999996154785,8|0,3:0|0:0,0:0:0:0:
153,237,88716,2,0,P|179:204|179:104,1,125.999996154785,2|0,0:0|0:0,0:0:0:0:
270,27,89116,2,0,P|293:52|329:68,1,62.9999980773926,0|0,1:0|0:0,0:0:0:0:
411,102,89382,1,8,3:0:0:0:
411,102,89516,1,8,3:0:0:0:
462,188,89649,1,8,3:0:0:0:
462,188,89783,1,8,3:0:0:0:
417,270,89916,6,0,P|376:262|291:299,1,125.999996154785,6|0,0:0|0:0,0:0:0:0:
181,312,90316,2,0,P|222:320|307:283,1,125.999996154785,2|0,0:0|0:0,0:0:0:0:
320,166,90716,2,0,L|251:157,1,62.9999980773926,0|0,1:0|0:0,0:0:0:0:
215,73,90982,2,0,L|284:64,1,62.9999980773926,0|8,0:0|3:0,0:0:0:0:
375,55,91249,1,8,3:0:0:0:
375,55,91382,1,8,3:0:0:0:
449,123,91516,5,8,3:0:0:0:
449,123,91649,2,0,P|442:162|447:192,1,62.9999980773926
488,269,91916,2,0,P|449:232|378:230,1,125.999996154785,2|0,0:0|0:0,0:0:0:0:
261,275,92316,2,0,L|188:267,1,62.9999980773926,0|0,1:0|0:0,0:0:0:0:
124,209,92582,1,8,3:0:0:0:
124,209,92716,1,8,3:0:0:0:
200,153,92849,2,0,P|205:119|197:80,1,62.9999980773926,8|0,3:0|0:0,0:0:0:0:
132,25,93116,6,0,P|78:21|19:66,1,125.999996154785,8|0,3:0|0:0,0:0:0:0:
8,155,93516,2,0,L|19:289,1,125.999996154785,2|0,0:0|0:0,0:0:0:0:
132,335,93916,2,0,L|138:261,1,62.9999980773926,0|0,1:0|0:0,0:0:0:0:
210,213,94182,1,8,3:0:0:0:
210,213,94316,1,8,3:0:0:0:
287,267,94449,2,0,P|317:271|359:263,1,62.9999980773926,8|0,3:0|0:0,0:0:0:0:
422,205,94716,6,0,B|402:166|402:166|415:77,1,125.999996154785,8|0,3:0|0:0,0:0:0:0:
338,27,95116,2,0,P|282:52|218:42,1,125.999996154785,2|0,0:0|0:0,0:0:0:0:
96,11,95516,2,0,L|89:94,1,62.9999980773926,0|0,1:0|0:0,0:0:0:0:
83,171,95782,1,8,3:0:0:0:
83,171,95916,1,8,3:0:0:0:
173,196,96049,2,0,P|210:188|250:192,1,62.9999980773926,8|0,3:0|0:0,0:0:0:0:
334,232,96316,6,0,L|329:350,1,107.999996704102,2|0,0:0|0:0,0:0:0:0:
240,365,96716,1,0,0:0:0:0:
240,365,96849,2,0,P|190:369|171:367,1,53.9999983520508,0|0,3:0|0:0,0:0:0:0:
123,280,97116,2,0,P|173:276|192:278,1,53.9999983520508,0|0,1:0|0:0,0:0:0:0:
240,210,97382,1,0,0:0:0:0:
240,210,97516,1,8,3:0:0:0:
240,210,97649,2,0,L|234:148,1,53.9999983520508,8|0,3:0|0:0,0:0:0:0:
228,64,97916,6,0,P|274:42|347:49,1,107.999996704102,4|0,3:0|0:0,0:0:0:0:
407,102,98316,1,0,0:0:0:0:
407,102,98449,2,0,L|471:97,1,53.9999983520508,0|0,3:0|0:0,0:0:0:0:
359,187,98716,2,0,L|295:182,1,53.9999983520508,0|0,1:0|0:0,0:0:0:0:
215,200,98982,1,0,0:0:0:0:
215,200,99116,1,8,3:0:0:0:
215,200,99249,2,0,P|208:244|212:271,1,53.9999983520508,8|0,3:0|0:0,0:0:0:0:
272,358,99516,6,0,L|109:344,1,144,6|0,0:2|0:0,0:0:0:0:
40,282,99916,2,0,P|51:235|48:208,1,72,0|2,0:0|0:0,0:0:0:0:
14,109,100182,1,0,0:0:0:0:
116,73,100316,2,0,L|189:81,1,72,0|0,1:0|0:0,0:0:0:0:
265,164,100582,1,0,0:0:0:0:
265,164,100716,1,8,3:0:0:0:
204,253,100849,2,0,L|132:245,1,72,8|0,3:0|0:0,0:0:0:0:
269,363,101116,6,0,P|311:340|410:345,1,144,4|0,3:0|0:0,0:0:0:0:
480,265,101516,2,0,P|463:223|464:191,1,72,0|2,0:0|0:0,0:0:0:0:
491,92,101782,1,0,0:0:0:0:
394,41,101916,2,0,L|322:45,1,72,0|0,1:0|0:0,0:0:0:0:
244,120,102182,1,8,3:0:0:0:
244,120,102316,1,8,3:0:0:0:
322,194,102449,2,0,L|413:200,1,72,8|0,3:0|0:0,0:0:0:0:
245,288,102716,6,0,P|196:302|104:255,1,144,4|0,3:0|0:0,0:0:0:0:
78,164,103116,2,0,L|0:167,1,72,0|2,0:0|0:0,0:0:0:0:
34,62,103382,1,0,0:0:0:0:
140,83,103516,2,0,P|167:114|179:150,1,72,0|0,1:0|0:0,0:0:0:0:
260,221,103782,1,8,3:0:0:0:
260,221,103916,1,8,3:0:0:0:
334,142,104049,2,0,P|347:109|372:83,1,72,8|0,3:0|0:0,0:0:0:0:
457,181,104316,6,0,B|448:230|448:230|464:271|464:271|453:341,1,144,4|0,3:0|0:0,0:0:0:0:
354,358,104716,2,0,P|303:362|273:351,1,72,0|2,0:0|0:0,0:0:0:0:
197,291,104982,1,0,0:0:0:0:
277,218,105116,2,0,L|268:140,1,72,0|0,1:0|0:0,0:0:0:0:
200,63,105382,1,8,3:0:0:0:
200,63,105516,1,8,3:0:0:0:
126,142,105649,1,8,3:0:0:0:
126,142,105783,1,8,3:0:0:0:
143,249,105916,6,0,P|214:213|295:225,1,144,4|0,3:0|0:0,0:0:0:0:
365,279,106316,2,0,L|453:271,1,72,0|2,0:0|0:0,0:0:0:0:
498,183,106582,1,0,0:0:0:0:
433,95,106716,2,0,P|391:85|354:87,1,72,0|0,1:0|0:0,0:0:0:0:
267,136,106982,1,8,3:0:0:0:
267,136,107116,1,8,3:0:0:0:
164,102,107249,2,0,P|154:63|159:23,1,72,8|8,3:0|3:0,0:0:0:0:
271,140,107516,6,0,L|262:300,1,144,4|0,3:0|0:0,0:0:0:0:
173,344,107916,2,0,P|134:331|92:332,1,72,0|2,0:0|0:0,0:0:0:0:
19,262,108182,1,0,0:0:0:0:
102,192,108316,2,0,P|115:153|114:111,1,72,0|0,1:0|0:0,0:0:0:0:
173,31,108582,1,8,3:0:0:0:
173,31,108716,1,8,3:0:0:0:
264,88,108849,2,0,L|352:80,1,72,8|0,3:0|0:0,0:0:0:0:
416,19,109116,6,0,P|378:57|422:185,1,202.500007724762,2|0,0:0|0:0,0:0:0:0:
490,253,109649,2,0,L|476:329,1,67.5000025749208,2|0,0:0|0:0,0:0:0:0:
346,352,109916,2,0,P|308:357|271:351,1,67.5000025749208,0|0,1:0|0:0,0:0:0:0:
190,305,110182,1,8,3:0:0:0:
190,305,110316,1,8,3:0:0:0:
248,222,110449,2,0,L|239:148,1,67.5000025749208,8|0,3:0|0:0,0:0:0:0:
201,60,110716,6,0,P|136:41|28:124,1,202.500007724762,2|0,0:0|0:0,0:0:0:0:
22,213,111249,2,0,L|29:303,1,67.5000025749208,2|0,0:0|0:0,0:0:0:0:
144,348,111516,2,0,P|158:319|162:261,1,67.5000025749208,0|0,1:0|0:0,0:0:0:0:
220,200,111782,1,8,3:0:0:0:
220,200,111916,1,8,3:0:0:0:
306,252,112049,2,0,L|393:243,1,67.5000025749208,8|0,3:0|0:0,0:0:0:0:
474,237,112316,5,2,0:0:0:0:
256,192,112382,12,0,113649,0:0:0:0:
262,176,113916,5,2,0:0:0:0:
258,180,114182,5,2,0:0:0:0:
254,184,114449,5,2,0:0:0:0:
250,188,114716,6,0,P|288:195|220:135,1,288,2|0,0:0|0:0,0:0:0:0:
224,116,115516,5,6,0:0:0:0:
136,218,115782,1,2,0:0:0:0:
89,90,116049,1,2,0:0:0:0:
223,116,116316,5,2,0:0:0:0:
311,14,116582,1,2,0:0:0:0:
357,142,116849,1,2,0:0:0:0:
491,168,117116,5,2,0:0:0:0:
403,270,117382,1,2,0:0:0:0:
357,142,117649,1,2,0:0:0:0:
223,116,117916,5,2,0:0:0:0:
311,14,118182,1,2,0:0:0:0:
357,142,118449,1,2,0:0:0:0:
135,218,118716,5,6,0:0:0:0:
223,116,118982,1,2,0:0:0:0:
269,244,119249,1,2,0:0:0:0:
403,270,119516,5,2,0:0:0:0:
315,372,119782,1,2,0:0:0:0:
269,244,120049,1,2,0:0:0:0:
135,218,120316,5,2,0:0:0:0:
47,320,120582,1,2,0:0:0:0:
1,192,120849,1,2,0:0:0:0:
135,218,121116,5,2,0:0:0:0:
223,116,121382,1,2,0:0:0:0:
89,90,121649,1,2,0:0:0:0:
269,244,121916,5,2,0:0:0:0:
181,346,122182,1,2,0:0:0:0:
135,218,122449,1,2,0:0:0:0:
269,244,122716,5,2,0:0:0:0:
357,142,122982,1,2,0:0:0:0:
223,116,123249,1,2,0:0:0:0:
315,372,123516,5,2,0:0:0:0:
269,244,123782,1,2,0:0:0:0:
403,270,124049,1,2,0:0:0:0:
491,168,124316,5,2,0:0:0:0:
445,40,124582,1,2,0:0:0:0:
357,142,124849,1,2,0:0:0:0:
89,90,125116,5,2,0:0:0:0:
135,218,125382,1,2,0:0:0:0:
223,116,125649,1,2,0:0:0:0:
181,346,125916,5,2,0:0:0:0:
135,218,126182,1,2,0:0:0:0:
47,320,126449,1,2,0:0:0:0:
223,116,126716,5,2,0:0:0:0:
269,244,126982,1,2,0:0:0:0:
357,142,127249,1,2,0:0:0:0:
89,90,127516,5,2,0:0:0:0:
223,116,127782,1,2,0:0:0:0:
135,218,128049,1,2,0:0:0:0:
357,142,128316,5,0,1:0:0:0:
427,347,128449,1,4,3:0:0:0:
248,222,128582,5,0,1:0:0:0:
466,219,128716,1,4,3:0:0:0:
291,350,128849,5,0,1:0:0:0:
271,370,129116,6,0,L|128:355,1,116.999994644165,6|0,0:2|0:0,0:0:0:0:
371,112,129382,1,0,1:2:0:0:
420,377,129516,1,0,0:0:0:0:
193,174,129649,1,0,1:0:0:0:
433,220,129782,1,0,0:0:0:0:
129,256,129916,6,0,L|9:263,1,116.999994644165,6|0,0:0|0:0,0:0:0:0:
236,57,130182,1,0,1:0:0:0:
318,289,130316,1,0,0:0:0:0:
87,92,130449,1,0,1:0:0:0:
326,39,130582,1,0,0:0:0:0:
187,358,130716,6,0,P|121:372|71:358,1,116.999994644165,6|0,0:0|0:0,0:0:0:0:
292,138,130982,1,0,1:0:0:0:
432,261,131116,2,0,L|417:377,1,116.999994644165,0|0,0:0|1:0,0:0:0:0:
129,256,131382,1,0,0:0:0:0:
396,136,131516,6,0,L|512:125,1,116.999994644165,6|0,0:0|0:0,0:0:0:0:
165,26,131782,1,0,1:0:0:0:
265,251,131916,1,0,0:0:0:0:
434,12,132049,1,0,1:0:0:0:
210,132,132182,1,0,0:0:0:0:
448,236,132316,6,0,B|469:290|469:290|449:362,1,116.999994644165,6|0,0:0|0:0,0:0:0:0:
239,135,132582,1,0,1:0:0:0:
475,217,132716,1,0,0:0:0:0:
217,362,132849,2,0,L|81:349,1,116.999994644165,0|0,1:0|0:0,0:0:0:0:
12,58,133116,6,0,B|72:42|72:42|123:66|123:66|198:43|198:43|161:24,1,233.999989288331,6|0,0:0|1:0,0:0:0:0:
51,204,133516,1,0,0:0:0:0:
345,130,133649,2,0,P|368:69|363:10,1,116.999994644165,0|0,1:0|0:0,0:0:0:0:
177,259,133916,6,0,B|341:285|341:285|420:242,1,233.999989288331,6|0,0:0|1:0,0:0:0:0:
90,185,134316,2,0,P|63:242|71:303,1,116.999994644165,0|0,0:0|1:0,0:0:0:0:
244,370,134582,1,0,0:0:0:0:
371,66,134716,5,6,0:0:0:0:
177,259,134849,1,0,0:0:0:0:
185,0,134982,5,4,1:2:0:0:
323,282,135116,1,0,0:0:0:0:
457,3,135249,5,4,1:2:0:0:
208,139,135382,1,0,0:0:0:0:
501,329,135516,6,0,L|509:211,1,116.999994644165,6|0,0:0|0:0,0:0:0:0:
289,24,135782,1,0,1:0:0:0:
330,253,135916,1,0,0:0:0:0:
475,22,136049,1,0,1:0:0:0:
208,139,136182,1,0,0:0:0:0:
377,360,136316,6,0,P|441:368|512:349,1,116.999994644165,6|0,0:0|0:0,0:0:0:0:
309,137,136582,1,0,1:0:0:0:
244,370,136716,1,0,0:0:0:0:
449,235,136849,2,0,L|452:112,1,116.999994644165,0|0,1:0|0:0,0:0:0:0:
184,156,137116,6,0,L|187:279,1,116.999994644165,6|0,0:2|0:0,0:0:0:0:
5,145,137382,1,0,1:0:0:0:
215,40,137516,2,0,P|270:23|343:37,1,116.999994644165,0|0,0:0|1:0,0:0:0:0:
449,235,137782,1,0,0:0:0:0:
154,138,137916,6,0,L|37:147,1,116.999994644165,6|0,0:0|0:0,0:0:0:0:
328,30,138182,1,0,1:0:0:0:
261,257,138316,1,0,0:0:0:0:
143,5,138449,1,0,1:0:0:0:
242,230,138582,1,0,0:0:0:0:
441,126,138716,6,0,B|455:68|455:68|441:12,1,116.999994644165,6|0,0:0|0:0,0:0:0:0:
100,97,138982,2,0,B|86:155|86:155|99:210,1,116.999994644165,0|0,1:0|0:0,0:0:0:0:
358,348,139249,1,0,1:0:0:0:
258,99,139382,1,0,0:0:0:0:
136,349,139516,6,0,B|304:380|304:380|360:348,1,233.999989288331,6|0,0:0|1:0,0:0:0:0:
489,176,139916,1,0,0:0:0:0:
196,109,140049,2,0,L|205:225,1,116.999994644165,0|0,1:0|0:0,0:0:0:0:
491,384,140316,6,0,P|508:324|502:264,1,116.999994644165,6|0,0:0|0:0,0:0:0:0:
304,15,140582,1,0,1:0:0:0:
208,255,140716,1,0,0:0:0:0:
488,111,140849,2,0,L|349:100,1,116.999994644165,0|0,1:0|0:0,0:0:0:0:
91,264,141116,6,0,L|230:253,1,116.999994644165,6|0,0:0|0:0,0:0:0:0:
432,2,141382,1,0,1:0:0:0:
159,141,141516,1,0,1:0:0:0:
493,189,141649,1,0,1:0:0:0:
249,8,141782,1,0,1:0:0:0:
306,344,141916,6,0,L|166:336,1,116.999994644165,6|0,0:0|0:0,0:0:0:0:
41,32,142182,1,0,1:0:0:0:
339,197,142316,1,0,1:0:0:0:
0,197,142449,1,0,1:0:0:0:
281,9,142582,1,0,1:0:0:0:
189,337,142716,6,0,L|49:345,1,116.999994644165,6|0,0:0|0:0,0:0:0:0:
161,17,142982,1,0,1:0:0:0:
331,328,143116,1,0,1:0:0:0:
507,27,143249,1,0,1:0:0:0:
189,179,143383,1,0,1:0:0:0:
503,355,143516,6,0,L|511:226,1,116.999994644165,6|0,0:0|0:0,0:0:0:0:
304,10,143782,1,8,3:0:0:0:
217,319,143916,1,4,3:0:0:0:
308,14,144049,1,8,3:0:0:0:
221,323,144182,1,4,3:0:0:0:
106,23,144316,5,6,0:0:0:0:
106,23,145116,6,0,B|68:67|68:67|95:209,1,198.000006042481,6|0,0:0|0:0,0:0:0:0:
277,186,145516,2,0,P|200:162|93:205,1,198.000006042481,0|0,1:0|0:0,0:0:0:0:
208,354,145916,2,0,L|324:349,1,99.0000030212403,2|0,0:0|0:0,0:0:0:0:
375,181,146182,2,0,L|259:186,1,99.0000030212403,2|0,0:0|0:0,0:0:0:0:
307,349,146449,2,0,L|423:344,1,99.0000030212403,0|0,1:0|0:0,0:0:0:0:
498,135,146716,6,0,P|461:81|326:58,1,198.000006042481,2|0,0:0|0:0,0:0:0:0:
256,215,147116,2,0,P|310:178|333:43,1,198.000006042481,0|0,1:0|1:0,0:0:0:0:
115,84,147516,2,0,L|214:91,1,99.0000030212403,2|0,0:0|0:0,0:0:0:0:
156,248,147782,2,0,L|57:241,1,99.0000030212403,2|0,0:0|0:0,0:0:0:0:
16,78,148049,2,0,L|114:84,1,99.0000030212403,0|0,1:0|0:0,0:0:0:0:
270,252,148316,6,0,P|217:346|110:353,1,198.000006042481,2|0,0:0|0:0,0:0:0:0:
270,252,148716,2,0,P|377:250|437:340,1,198.000006042481,0|0,1:0|1:0,0:0:0:0:
270,252,149116,2,0,L|256:142,1,99.0000030212403,2|0,0:0|0:0,0:0:0:0:
166,115,149382,2,0,L|268:157,1,99.0000030212403,2|0,0:0|0:0,0:0:0:0:
336,93,149649,2,0,L|247:160,1,99.0000030212403,0|0,1:0|0:0,0:0:0:0:
94,267,149916,6,0,B|54:204|54:204|74:51,1,198.000006042481,2|0,0:0|0:0,0:0:0:0:
246,66,150316,2,0,B|286:129|286:129|266:282,1,198.000006042481,0|0,1:0|0:0,0:0:0:0:
456,366,150716,2,0,P|475:321|474:263,1,99.0000030212403,4|0,1:2|0:0,0:0:0:0:
371,47,150982,5,8,3:0:0:0:
361,296,151116,1,8,3:0:0:0:
509,126,151249,1,8,3:0:0:0:
264,165,151383,1,8,3:0:0:0:
456,366,151516,6,0,L|242:342,1,198.000006042481,6|0,0:0|0:0,0:0:0:0:
62,366,151916,2,0,L|276:342,1,198.000006042481,0|0,1:0|0:0,0:0:0:0:
395,243,152316,2,0,P|401:179|388:141,1,99.0000030212403,2|0,0:0|0:0,0:0:0:0:
254,203,152582,2,0,P|227:144|196:118,1,99.0000030212403,2|0,0:0|0:0,0:0:0:0:
107,236,152849,2,0,P|54:198|15:191,1,99.0000030212403,0|0,1:0|0:0,0:0:0:0:
183,352,153116,6,0,P|271:315|387:329,1,198.000006042481,2|0,0:0|0:0,0:0:0:0:
252,174,153516,2,0,P|328:231|373:339,1,198.000006042481,0|0,1:0|1:0,0:0:0:0:
252,174,153916,2,0,L|260:71,1,99.0000030212403,2|0,0:0|0:0,0:0:0:0:
95,109,154182,2,0,L|87:212,1,99.0000030212403,2|0,0:0|0:0,0:0:0:0:
244,272,154449,2,0,L|252:169,1,99.0000030212403,0|0,1:0|0:0,0:0:0:0:
396,9,154716,6,0,B|423:66|423:66|402:136|402:136|425:198,1,198.000006042481,2|0,0:0|0:0,0:0:0:0:
451,378,155116,2,0,B|429:320|429:320|450:250|450:250|423:193,1,198.000006042481,0|0,1:0|1:0,0:0:0:0:
289,89,155516,2,0,P|231:79|189:88,1,99.0000030212403,2|0,0:0|0:0,0:0:0:0:
142,169,155782,2,0,P|179:123|192:82,1,99.0000030212403,2|0,0:0|0:0,0:0:0:0:
146,2,156049,2,0,P|166:57|195:89,1,99.0000030212403,0|0,1:0|0:0,0:0:0:0:
374,200,156316,6,0,L|479:186,1,99.0000030212403,6|0,0:0|0:0,0:0:0:0:
289,89,156582,1,2,0:0:0:0:
349,309,156716,1,0,1:0:0:0:
472,187,156849,2,0,P|480:134|468:87,1,99.0000030212403,2|0,0:0|0:0,0:0:0:0:
253,264,157116,6,0,P|245:317|257:364,1,99.0000030212403,6|0,0:0|0:0,0:0:0:0:
371,140,157382,1,2,0:0:0:0:
149,196,157516,1,0,1:0:0:0:
237,42,157649,2,0,P|291:34|343:48,1,99.0000030212403,2|0,0:0|0:0,0:0:0:0:
143,308,157916,6,0,L|12:293,1,107.999996704102,6|0,0:0|0:0,0:0:0:0:
129,54,158182,2,0,L|260:39,1,107.999996704102,4|0,1:2|0:0,0:0:0:0:
479,230,158449,2,0,L|348:215,1,107.999996704102,4|0,1:2|0:0,0:0:0:0:
120,191,158716,5,4,1:2:0:0:
340,64,158849,1,8,3:0:0:0:
236,296,158982,1,4,3:0:0:0:
183,49,159116,1,4,3:0:0:0:
372,217,159249,1,4,3:0:0:0:
372,217,159516,6,0,P|316:199|263:200,1,107.999996704102,6|0,0:0|0:0,0:0:0:0:
59,370,159782,2,0,P|102:330|128:284,1,107.999996704102,4|0,1:2|0:0,0:0:0:0:
82,20,160049,2,0,P|94:77|121:122,1,107.999996704102,4|0,1:2|0:0,0:0:0:0:
276,357,160316,5,4,1:2:0:0:
366,119,160449,1,8,3:0:0:0:
431,364,160582,1,4,3:0:0:0:
235,206,160716,1,4,3:0:0:0:
487,218,160849,1,4,3:0:0:0:
487,218,161116,6,0,L|476:104,1,107.999996704102,6|0,0:0|0:0,0:0:0:0:
218,188,161382,2,0,L|229:302,1,107.999996704102,4|0,1:2|0:0,0:0:0:0:
497,325,161649,2,0,L|486:211,1,107.999996704102,4|0,1:2|0:0,0:0:0:0:
313,4,161916,5,4,1:2:0:0:
223,242,162049,1,8,3:0:0:0:
158,0,162182,1,4,3:0:0:0:
354,155,162316,1,4,3:0:0:0:
102,143,162449,1,4,3:0:0:0:
313,4,162582,1,4,3:0:0:0:
350,331,162716,5,4,1:2:0:0:
201,124,162849,1,8,3:0:0:0:
202,375,162982,1,4,3:0:0:0:
349,174,163116,1,4,3:0:0:0:
109,250,163249,1,4,3:0:0:0:
350,331,163382,1,4,3:0:0:0:
283,40,163516,5,4,1:2:0:0:
283,40,163582,1,4,3:0:0:0:
283,40,163649,1,4,3:0:0:0:
99,110,163782,1,8,3:0:0:0:
99,110,163849,1,8,3:0:0:0:
99,110,163916,1,8,3:0:0:0:
348,210,164049,2,0,L|469:198,1,107.999996704102,4|0,1:2|0:0,0:0:0:0:
143,33,164316,6,0,P|104:121|158:233,1,202.500007724762,6|0,0:0|0:0,0:0:0:0:
245,271,164582,2,0,L|42:260,1,202.500007724762,4|0,1:2|0:0,0:0:0:0:
21,141,164849,2,0,L|222:125,1,202.500007724762,4|0,1:2|0:0,0:0:0:0:
332,74,165116,6,0,P|417:49|506:144,1,202.500007724762,4|0,1:2|0:0,0:0:0:0:
381,238,165382,2,0,P|316:179|354:54,1,202.500007724762,4|0,1:2|0:0,0:0:0:0:
499,115,165649,2,0,P|476:206|379:237,1,202.500007724762,4|0,1:2|0:0,0:0:0:0:
245,242,165916,6,0,B|179:248|179:248|119:224|119:224|19:235,1,202.500007724762,6|0,0:0|0:0,0:0:0:0:
153,364,166182,2,0,B|219:370|219:370|279:346|279:346|379:357,1,202.500007724762,6|0,0:0|0:0,0:0:0:0:
461,222,166449,2,0,B|468:64|468:64|411:92,1,202.500007724762,6|0,0:0|0:0,0:0:0:0:
263,133,166716,6,0,P|198:112|131:115,1,135.000005149842,4|0,1:2|0:0,0:0:0:0:
265,375,166982,1,4,1:2:0:0:
367,176,167116,1,0,0:0:0:0:
66,354,167249,2,0,P|49:288|67:197,1,135.000005149842,4|0,1:2|0:0,0:0:0:0:
375,25,167516,6,0,L|393:174,1,135.000005149842,6|0,0:0|0:0,0:0:0:0:
89,362,167782,1,4,1:2:0:0:
196,165,167916,1,0,0:0:0:0:
373,363,168049,2,0,P|446:373|528:333,1,135.000005149842,6|0,0:0|0:0,0:0:0:0:
104,225,168316,6,0,L|121:360,1,135.000005149842,6|0,0:0|0:0,0:0:0:0:
426,237,168582,1,0,1:0:0:0:
121,195,168716,1,0,1:0:0:0:
416,52,168850,1,0,1:0:0:0:
346,353,168982,1,0,1:0:0:0:
228,107,169116,5,2,0:0:0:0:
251,85,169419,5,0,0:0:0:0:
274,63,169669,5,0,0:0:0:0:
297,41,169939,6,0,L|318:43,1,18
