osu file format v14

[General]
AudioFilename: audio.mp3
AudioLeadIn: 0
PreviewTime: 54382
Countdown: 0
SampleSet: Soft
StackLeniency: 0.4
Mode: 0
LetterboxInBreaks: 0
WidescreenStoryboard: 1

[Editor]
DistanceSpacing: 2.5
BeatDivisor: 4
GridSize: 16
TimelineZoom: 0.9

[Metadata]
Title:Noise (English ver.)
TitleUnicode:ノイズ(English ver.)
Artist:Mio Yamazaki
ArtistUnicode:ミオヤマザキ
Creator:Akitoshi
Version:Expert
Source:地獄少女 宵伽
Tags:Corinn English Jigoku Shoujo Yoi no Togi Opening Hey lululu Asagi
BeatmapID:1490581
BeatmapSetID:702892

[Difficulty]
HPDrainRate:6
CircleSize:3.8
OverallDifficulty:8.5
ApproachRate:9.3
SliderMultiplier:1.6
SliderTickRate:1

[Events]
//Background and Video events
0,0,"bg on bottom d.jpg",0,0
//Break Periods
2,115716,127762
//Storyboard Layer 0 (Background)
//Storyboard Layer 1 (Fail)
//Storyboard Layer 2 (Pass)
//Storyboard Layer 3 (Foreground)
//Storyboard Sound Samples

[TimingPoints]
316,266.666666666667,3,2,0,50,1,0
316,-200,3,2,0,50,0,0
1782,-200,3,2,0,5,0,0
1916,-200,3,2,0,50,0,0
8182,-200,3,2,0,5,0,0
8316,-200,3,2,0,50,0,0
12849,-125,3,2,0,50,0,0
13116,-100,3,2,0,80,0,0
25916,-142.857142857143,3,2,0,60,0,0
38649,-142.857142857143,3,2,0,5,0,0
38716,-125,3,2,0,70,0,0
48316,-133.333333333333,3,2,0,75,0,0
53116,-200,3,2,0,70,0,0
53382,-166.666666666667,3,2,0,70,0,0
53649,-142.857142857143,3,2,0,70,0,0
53916,-125,3,2,0,70,0,0
54449,-166.666666666667,3,2,0,50,0,0
54716,-83.3333333333333,3,2,0,100,0,1
69916,-83.3333333333333,3,2,0,100,0,0
70716,-100,3,2,0,80,0,0
76316,-200,3,2,0,80,0,0
76449,-200,3,2,0,20,0,0
76982,-200,3,2,0,60,0,0
77116,-100,3,2,0,80,0,0
83516,-142.857142857143,3,2,0,60,0,0
96316,-166.666666666667,3,2,0,60,0,0
99516,-125,3,2,0,70,0,0
109116,-133.333333333333,3,2,0,75,0,0
113916,-200,3,2,0,75,0,0
114182,-166.666666666667,3,2,0,75,0,0
114449,-142.857142857143,3,2,0,75,0,0
114716,-125,3,2,0,75,0,0
115249,-125,3,2,0,5,0,0
115516,-200,3,2,0,60,0,0
128316,-100,3,2,0,80,0,0
129116,-76.9230769230769,4,2,0,100,0,1
144316,-76.9230769230769,4,2,0,100,0,0
145116,-90.9090909090909,4,2,0,80,0,0
157916,-83.3333333333333,4,2,0,100,0,1
164182,-83.3333333333333,4,2,0,100,0,0
164316,-76.9230769230769,4,2,0,100,0,1
169116,303.030303030303,4,2,0,50,1,0
169116,-166.666666666667,4,2,0,50,0,0
169419,-166.666666666667,4,2,0,20,0,0
169669,270.27027027027,4,2,0,20,1,0
169669,-166.666666666667,4,2,0,20,0,0
169939,-1000,4,2,0,20,0,0
170209,-1000,4,2,0,5,0,0

[Colours]
Combo1 : 255,192,0
Combo2 : 255,128,64
Combo3 : 255,128,128
Combo4 : 242,24,57

[HitObjects]
224,107,316,6,0,P|83:15|100:203,1,440,4|0,3:0|0:0,0:0:0:0:
175,212,1916,6,0,B|224:206|224:206|277:241|277:241|333:200|397:229|397:229|354:177|348:114|381:74,1,400,2|0,0:0|0:0,0:0:0:0:
375,81,3516,6,0,B|310:61|272:86|272:86|226:62|226:62|186:111|147:126|147:126|100:104|28:122|28:122|62:170,1,440,2|0,0:0|0:0,0:0:0:0:
103,237,5116,6,0,P|143:211|245:308,1,200,2|0,0:0|0:0,0:0:0:0:
166,290,5916,2,0,P|206:264|308:361,1,200,2|0,0:0|0:0,0:0:0:0:
229,343,6716,6,0,B|274:286|333:291|333:291|379:346|436:314|436:314|385:273|370:215|384:166|433:140,1,440,2|0,0:0|0:0,0:0:0:0:
486,88,8316,6,0,B|452:96|427:111|427:111|373:86|335:87|335:87|305:112|262:120|262:120|203:66|141:93|141:93|151:100|168:106,1,400,2|0,0:0|0:0,0:0:0:0:
165,105,9916,6,0,B|87:82|19:147|19:147|63:168|83:194|83:194|46:263|96:304|96:304|141:292|154:246,1,440,2|0,0:0|0:0,0:0:0:0:
212,201,11516,6,0,B|266:192|266:192|330:227|330:227|358:181|425:179|425:179|472:237|439:292,1,360,2|0,0:0|0:0,0:0:0:0:
359,335,12849,6,0,L|233:346,1,96,0|0,3:0|0:0,0:0:0:0:
239,367,13116,6,0,L|129:357,1,80,6|0,0:0|0:0,0:0:0:0:
35,247,13382,2,0,L|144:237,1,80,4|0,1:2|0:0,0:0:0:0:
239,126,13649,2,0,L|129:116,1,80,4|0,1:2|0:0,0:0:0:0:
340,51,13916,5,4,1:2:0:0:
317,200,14049,1,0,0:0:0:0:
449,126,14182,2,0,P|463:168|462:224,1,80,4|0,1:2|0:0,0:0:0:0:
387,335,14449,1,4,1:2:0:0:
317,200,14582,1,0,0:0:0:0:
170,284,14716,6,0,P|124:286|90:277,1,80,4|0,1:2|0:0,0:0:0:0:
191,123,14982,2,0,P|215:161|224:195,1,80,4|0,1:2|0:0,0:0:0:0:
39,185,15249,2,0,P|60:144|85:119,1,80,4|0,1:2|0:0,0:0:0:0:
195,15,15516,5,4,1:2:0:0:
67,25,15649,1,0,0:0:0:0:
191,123,15782,2,0,L|292:114,1,80,4|0,1:2|0:0,0:0:0:0:
422,104,16049,1,4,1:2:0:0:
306,5,16182,1,0,0:0:0:0:
323,197,16316,6,0,P|285:211|225:202,1,80,4|0,1:2|0:0,0:0:0:0:
110,333,16582,2,0,P|116:293|154:245,1,80,4|0,1:2|0:0,0:0:0:0:
99,79,16849,2,0,P|130:104|152:161,1,80,4|0,1:2|0:0,0:0:0:0:
223,308,17116,6,0,L|322:300,1,80,4|0,1:2|0:0,0:0:0:0:
485,282,17382,1,4,1:2:0:0:
374,376,17516,1,0,0:0:0:0:
410,196,17649,2,0,P|447:173|497:168,1,80,4|0,1:2|0:0,0:0:0:0:
317,282,17916,6,0,P|294:246|286:195,1,80,4|0,1:2|0:0,0:0:0:0:
168,102,18182,2,0,P|210:100|258:118,1,80,4|0,1:2|0:0,0:0:0:0:
399,63,18449,2,0,P|379:100|339:133,1,80,4|0,1:2|0:0,0:0:0:0:
197,194,18716,6,0,L|190:282,1,80,4|0,1:2|0:0,0:0:0:0:
60,366,18982,2,0,L|53:278,1,80,4|0,1:2|0:0,0:0:0:0:
39,126,19249,1,6,1:2:0:0:
166,192,19382,1,2,0:0:0:0:
105,34,19516,6,0,P|59:15|19:15,1,80,4|0,1:2|0:0,0:0:0:0:
138,180,19782,2,0,P|177:176|213:159,1,80,4|0,1:2|0:0,0:0:0:0:
316,69,20049,1,6,1:2:0:0:
344,201,20182,1,2,0:0:0:0:
475,108,20316,6,0,P|482:73|466:15,1,80,4|0,1:2|0:0,0:0:0:0:
367,192,20582,2,0,P|360:227|376:285,1,80,4|0,1:2|0:0,0:0:0:0:
498,230,20849,1,6,1:2:0:0:
454,101,20982,1,2,0:0:0:0:
368,270,21116,6,0,L|270:261,1,80,4|0,1:2|0:0,0:0:0:0:
130,168,21382,2,0,L|228:159,1,80,4|0,1:2|0:0,0:0:0:0:
52,257,21649,1,6,1:2:0:0:
115,137,21782,1,2,0:0:0:0:
195,276,21916,6,0,L|202:370,1,80,4|0,1:2|0:0,0:0:0:0:
333,266,22182,2,0,L|340:172,1,80,4|0,1:2|0:0,0:0:0:0:
362,51,22449,1,6,1:2:0:0:
438,162,22582,1,2,0:0:0:0:
267,114,22716,6,0,P|223:104|169:117,1,80,4|0,1:2|0:0,0:0:0:0:
100,211,22982,2,0,P|113:254|151:294,1,80,4|0,1:2|0:0,0:0:0:0:
268,308,23249,2,0,P|298:274|314:221,1,80,4|0,1:2|0:0,0:0:0:0:
267,114,23516,6,0,P|311:104|365:117,1,80,4|0,1:2|0:0,0:0:0:0:
436,209,23782,2,0,P|422:252|384:292,1,80,4|0,1:2|0:0,0:0:0:0:
268,308,24049,2,0,P|237:274|221:221,1,80,4|0,1:2|0:0,0:0:0:0:
267,114,24316,6,0,P|223:104|169:117,1,80,4|0,1:2|0:0,0:0:0:0:
100,211,24582,2,0,P|113:254|151:294,1,80,4|0,1:2|0:0,0:0:0:0:
268,308,24849,2,0,P|298:274|314:221,1,80,4|0,1:2|0:0,0:0:0:0:
429,133,25116,2,0,L|525:138,1,80,4|0,1:2|0:0,0:0:0:0:
360,42,25382,5,0,1:0:0:0:
314,213,25516,1,0,1:0:0:0:
258,106,25649,1,0,1:0:0:0:
169,192,25783,1,0,1:0:0:0:
26,114,25916,6,0,P|76:94|140:99,1,111.999996582031,4|0,0:0|0:0,0:0:0:0:
240,114,26316,2,0,P|190:94|126:99,1,111.999996582031,2|0,0:0|0:0,0:0:0:0:
98,221,26716,2,0,L|100:284,1,55.9999982910157,0|0,1:0|0:0,0:0:0:0:
149,303,26982,2,0,L|93:273,1,55.9999982910157,2|0,0:0|0:0,0:0:0:0:
52,306,27249,2,0,L|105:272,1,55.9999982910157,2|0,0:0|0:0,0:0:0:0:
187,226,27516,6,0,P|240:222|304:253,1,111.999996582031,2|0,0:0|0:0,0:0:0:0:
399,225,27916,2,0,P|346:221|282:252,1,111.999996582031,2|0,0:0|0:0,0:0:0:0:
364,337,28316,2,0,L|429:341,1,55.9999982910157,0|0,1:0|0:0,0:0:0:0:
308,340,28582,2,0,L|373:336,1,55.9999982910157,2|0,0:0|0:0,0:0:0:0:
252,336,28849,2,0,L|317:340,1,55.9999982910157,2|0,0:0|0:0,0:0:0:0:
141,343,29116,6,0,L|265:335,1,111.999996582031,2|0,0:0|0:0,0:0:0:0:
311,233,29516,2,0,L|186:225,1,111.999996582031,2|0,0:0|0:0,0:0:0:0:
97,166,29916,2,0,P|92:138|97:109,1,55.9999982910157,0|0,1:0|0:0,0:0:0:0:
112,28,30182,2,0,P|138:37|161:56,1,55.9999982910157,2|0,0:0|0:0,0:0:0:0:
224,109,30449,2,0,P|202:127|174:137,1,55.9999982910157,2|0,0:0|0:0,0:0:0:0:
263,12,30716,6,0,P|305:44|326:118,1,111.999996582031,2|0,0:0|0:0,0:0:0:0:
412,34,31116,2,0,P|379:76|306:97,1,111.999996582031,2|0,0:0|0:0,0:0:0:0:
176,136,31516,2,0,L|181:217,1,55.9999982910157,0|0,1:0|0:0,0:0:0:0:
263,191,31782,2,0,L|268:272,1,55.9999982910157,2|0,0:0|0:0,0:0:0:0:
350,246,32049,2,0,L|355:327,1,55.9999982910157,2|0,0:0|0:0,0:0:0:0:
258,349,32316,6,0,P|312:338|352:301,1,111.999996582031,2|0,0:0|0:0,0:0:0:0:
448,253,32716,2,0,P|393:263|353:301,1,111.999996582031,2|0,0:0|0:0,0:0:0:0:
406,171,33116,2,0,P|375:178|343:194,1,55.9999982910157,0|0,1:0|0:0,0:0:0:0:
280,145,33382,2,0,P|289:114|291:78,1,55.9999982910157,2|0,0:0|0:0,0:0:0:0:
365,49,33649,2,0,P|386:72|416:92,1,55.9999982910157,2|0,0:0|0:0,0:0:0:0:
288,7,33916,6,0,L|164:18,1,111.999996582031,2|0,0:0|0:0,0:0:0:0:
65,7,34316,2,0,L|189:18,1,111.999996582031,2|0,0:0|0:0,0:0:0:0:
205,125,34716,2,0,P|208:160|203:181,1,55.9999982910157,0|0,1:0|0:0,0:0:0:0:
155,206,34982,2,0,P|183:185|204:179,1,55.9999982910157,2|0,0:0|0:0,0:0:0:0:
250,209,35249,2,0,P|218:194|202:179,1,55.9999982910157,2|0,0:0|0:0,0:0:0:0:
278,104,35516,5,2,0:0:0:0:
278,104,35649,2,0,L|344:109,1,55.9999982910157,2|0,0:0|0:0,0:0:0:0:
436,128,35916,2,0,P|387:101|321:114,1,111.999996582031,2|0,0:0|0:0,0:0:0:0:
365,242,36316,2,0,L|371:187,1,55.9999982910157,0|0,1:0|0:0,0:0:0:0:
371,298,36582,2,0,L|365:242,1,55.9999982910157,2|0,0:0|0:0,0:0:0:0:
366,354,36849,2,0,L|371:298,1,55.9999982910157,2|0,0:0|0:0,0:0:0:0:
477,296,37116,6,0,P|440:282|369:299,1,111.999996582031,6|0,0:0|0:0,0:0:0:0:
423,205,37516,2,0,P|392:230|371:300,1,111.999996582031,2|0,0:0|0:0,0:0:0:0:
266,340,37916,6,0,B|206:314|167:331|167:331|170:341|170:341|167:331|167:331|126:309|81:321|81:321|77:333|77:333|81:321|81:321|39:306|27:252,1,307.999990600586,2|0,0:0|0:0,0:0:0:0:
33,272,38716,6,0,B|66:246|66:246|53:150,1,128,6|2,0:0|0:0,0:0:0:0:
103,77,39116,2,0,P|135:84|176:76,1,64,0|2,0:0|0:0,0:0:0:0:
250,36,39382,1,0,0:0:0:0:
332,85,39516,2,0,L|328:152,1,64,2|0,0:0|0:0,0:0:0:0:
238,183,39782,2,0,L|242:116,1,64,2|0,0:0|0:0,0:0:0:0:
415,130,40049,2,0,L|411:197,1,64,0|0,1:0|0:0,0:0:0:0:
381,312,40316,6,0,P|317:327|252:300,1,128,2|2,0:0|0:0,0:0:0:0:
181,250,40716,2,0,L|108:256,1,64,0|2,0:0|0:0,0:0:0:0:
34,207,40982,1,0,0:0:0:0:
85,125,41116,2,0,P|116:112|160:111,1,64,2|0,0:0|0:0,0:0:0:0:
199,30,41382,2,0,P|168:17|124:16,1,64,2|0,0:0|0:0,0:0:0:0:
226,171,41649,2,0,P|257:158|301:157,1,64,0|0,1:0|0:0,0:0:0:0:
411,189,41916,6,0,P|407:254|402:335,1,128,2|2,0:0|0:0,0:0:0:0:
313,352,42316,2,0,P|311:320|309:288,1,64,0|2,0:0|0:0,0:0:0:0:
220,251,42582,1,0,0:0:0:0:
131,289,42716,2,0,L|56:281,1,64,2|0,0:0|0:0,0:0:0:0:
28,194,42982,2,0,L|103:186,1,64,2|0,0:0|0:0,0:0:0:0:
126,319,43249,2,0,L|51:311,1,64,0|0,1:0|0:0,0:0:0:0:
0,147,43516,6,0,B|35:168|35:168|141:158,1,128,2|2,0:0|0:0,0:0:0:0:
217,147,43916,2,0,L|224:77,1,64,0|2,0:0|0:0,0:0:0:0:
288,12,44182,1,0,0:0:0:0:
373,57,44316,2,0,P|407:51|444:54,1,64,2|0,0:0|0:0,0:0:0:0:
436,148,44582,2,0,P|402:154|365:151,1,64,2|0,0:0|0:0,0:0:0:0:
246,89,44849,1,0,1:0:0:0:
272,194,44982,1,0,0:0:0:0:
223,83,45116,6,0,B|195:69|195:69|141:60|94:90,1,128,6|2,0:0|0:0,0:0:0:0:
43,162,45516,2,0,L|49:233,1,64,0|2,0:0|0:0,0:0:0:0:
95,309,45782,1,0,0:0:0:0:
187,281,45916,2,0,P|222:289|264:283,1,64,2|0,0:0|0:0,0:0:0:0:
272,194,46182,2,0,P|237:186|195:192,1,64,2|0,0:0|0:0,0:0:0:0:
347,282,46449,2,0,P|382:290|424:284,1,64,0|0,1:0|0:0,0:0:0:0:
493,190,46716,6,0,B|480:98|480:98|451:126,1,128,2|2,0:0|0:0,0:0:0:0:
373,174,47116,2,0,P|359:121|360:108,1,64,0|2,0:0|0:0,0:0:0:0:
298,38,47382,1,0,0:0:0:0:
230,107,47516,2,0,L|154:102,1,64,2|0,0:0|0:0,0:0:0:0:
111,181,47782,2,0,L|187:186,1,64,2|0,0:0|0:0,0:0:0:0:
211,21,48049,2,0,L|135:16,1,64,0|0,1:0|0:0,0:0:0:0:
26,84,48316,6,0,B|6:141|6:141|25:198|25:198|4:260,1,180.000006866455,6|2,0:0|0:0,0:0:0:0:
99,348,48849,2,0,L|170:334,1,60.0000022888184,0|0,1:0|0:0,0:0:0:0:
219,247,49116,2,0,P|178:230|156:228,1,60.0000022888184,2|0,0:0|0:0,0:0:0:0:
315,255,49382,2,0,P|309:210|299:190,1,60.0000022888184,2|0,0:0|0:0,0:0:0:0:
212,69,49649,2,0,P|202:97|200:127,1,60.0000022888184,0|0,1:0|0:0,0:0:0:0:
307,282,49916,6,0,P|370:275|488:262,1,180.000006866455,6|2,0:0|0:0,0:0:0:0:
506,132,50449,2,0,P|478:128|426:123,1,60.0000022888184,0|0,1:0|0:0,0:0:0:0:
346,83,50716,2,0,P|341:53|345:21,1,60.0000022888184,2|0,0:0|0:0,0:0:0:0:
236,23,50982,2,0,P|241:53|237:85,1,60.0000022888184,2|0,0:0|0:0,0:0:0:0:
75,59,51249,2,0,P|105:54|135:58,1,60.0000022888184,0|0,1:0|0:0,0:0:0:0:
204,190,51516,6,0,B|191:242|132:241|132:241|98:209|108:164,1,180.000006866455,6|2,0:0|0:0,0:0:0:0:
238,82,52049,2,0,L|310:86,1,60.0000022888184,0|0,1:0|0:0,0:0:0:0:
377,213,52316,2,0,L|305:217,1,60.0000022888184,2|0,0:0|0:0,0:0:0:0:
147,225,52582,5,0,1:0:0:0:
290,318,52716,1,0,1:0:0:0:
229,159,52849,1,0,1:0:0:0:
185,323,52982,1,0,1:0:0:0:
317,216,53116,5,2,0:0:0:0:
313,212,53382,5,2,0:0:0:0:
309,208,53649,5,2,0:0:0:0:
305,204,53916,5,2,0:0:0:0:
305,204,54449,6,0,L|243:208,1,47.9999985351563,0|0,0:0|0:0,0:0:0:0:
150,200,54716,6,0,B|100:176|100:176|126:334,1,191.999994140625,6|0,0:0|0:0,0:0:0:0:
307,298,55116,2,0,B|260:279|219:304|219:304|179:329|121:310,1,191.999994140625,2|2,0:0|0:0,0:0:0:0:
305,204,55516,2,0,P|314:253|304:309,1,95.9999970703126,0|0,1:0|0:0,0:0:0:0:
218,117,55782,1,2,0:0:0:0:
399,143,55916,1,0,1:0:0:0:
328,6,56049,2,0,L|225:16,1,95.9999970703126,2|0,0:0|0:0,0:0:0:0:
40,127,56316,6,0,B|169:152|169:152|200:141|229:104,1,191.999994140625,2|0,0:0|0:0,0:0:0:0:
328,6,56716,2,0,B|314:55|314:55|339:93|343:149|306:192,1,191.999994140625,2|2,0:0|0:0,0:0:0:0:
143,62,57116,2,0,P|189:83|226:136,1,95.9999970703126,0|0,1:0|0:0,0:0:0:0:
267,267,57382,1,2,0:0:0:0:
93,201,57516,1,0,1:0:0:0:
217,117,57649,2,0,L|312:109,1,95.9999970703126,2|0,0:0|0:0,0:0:0:0:
482,258,57916,6,0,B|418:271|418:271|357:246|357:246|267:267|267:267|342:290,1,287.999991210938,6|0,0:0|0:0,0:0:0:0:
465,152,58449,2,0,L|450:41,1,95.9999970703126,2|0,0:0|0:0,0:0:0:0:
243,17,58716,6,0,B|194:11|194:11|151:32|151:32|88:24|88:24|115:48,1,191.999994140625,0|2,1:0|0:0,0:0:0:0:
287,163,59116,1,0,1:0:0:0:
152,183,59249,2,0,L|42:196,1,95.9999970703126,2|0,0:0|0:0,0:0:0:0:
209,311,59516,6,0,P|312:325|384:255,1,191.999994140625,6|0,0:0|0:0,0:0:0:0:
262,114,59916,2,0,L|275:210,1,95.9999970703126,2|0,0:0|0:0,0:0:0:0:
376,95,60182,1,0,0:0:0:0:
166,12,60316,2,0,L|153:107,1,95.9999970703126,4|0,1:2|0:0,0:0:0:0:
115,306,60582,5,4,3:0:0:0:
29,122,60716,1,4,3:0:0:0:
205,220,60849,1,4,3:0:0:0:
5,245,60982,1,4,3:0:0:0:
153,107,61115,5,6,0:0:0:0:
115,306,61249,2,0,P|157:322|224:311,1,95.9999970703126,2|0,0:0|0:0,0:0:0:0:
401,210,61516,2,0,P|359:194|292:205,1,95.9999970703126,2|0,0:0|0:0,0:0:0:0:
339,325,61782,1,2,0:0:0:0:
506,194,61916,2,0,B|512:56|512:56|452:97,1,191.999994140625,0|2,1:0|0:0,0:0:0:0:
309,198,62316,1,0,1:0:0:0:
180,113,62449,2,0,P|169:67|183:4,1,95.9999970703126,2|0,0:0|0:0,0:0:0:0:
290,221,62716,6,0,B|244:245|205:230|205:230|192:218|192:218|150:202|94:223,1,191.999994140625,6|0,0:0|0:0,0:0:0:0:
2,367,63116,2,0,P|50:376|109:360,1,95.9999970703126,2|0,0:0|0:0,0:0:0:0:
199,225,63382,1,2,0:0:0:0:
5,134,63516,2,0,L|12:245,1,95.9999970703126,0|0,1:0|0:0,0:0:0:0:
160,145,63782,1,2,0:0:0:0:
1,32,63916,1,0,1:0:0:0:
109,218,64049,2,0,P|151:235|209:219,1,95.9999970703126,0|0,1:0|0:0,0:0:0:0:
152,49,64316,6,0,L|161:158,1,95.9999970703126,6|0,0:0|0:0,0:0:0:0:
288,16,64582,2,0,L|279:125,1,95.9999970703126,2|0,0:0|0:0,0:0:0:0:
410,49,64849,2,0,L|419:158,1,95.9999970703126,2|0,0:0|0:0,0:0:0:0:
435,365,65116,2,0,B|386:358|386:358|339:375|339:375|291:371|291:371|243:340,1,191.999994140625,0|2,1:0|0:0,0:0:0:0:
117,238,65516,1,0,3:0:0:0:
229,149,65649,2,0,P|254:197|258:256,1,95.9999970703126,0|0,1:0|0:0,0:0:0:0:
111,99,65916,5,6,0:0:0:0:
248,30,66049,2,0,L|346:34,1,95.9999970703126,2|0,0:0|0:0,0:0:0:0:
451,144,66316,2,0,L|353:148,1,95.9999970703126,2|0,0:0|0:0,0:0:0:0:
202,155,66582,1,2,0:0:0:0:
353,303,66716,2,0,P|401:311|458:298,1,95.9999970703126,0|0,1:0|0:0,0:0:0:0:
229,163,66982,5,0,1:0:0:0:
208,335,67116,1,0,1:0:0:0:
83,158,67249,1,0,1:0:0:0:
62,330,67383,1,0,1:0:0:0:
202,155,67516,6,0,L|311:149,1,95.9999970703126,4|0,1:2|0:0,0:0:0:0:
472,70,67782,1,0,1:0:0:0:
456,242,67916,1,0,1:0:0:0:
326,65,68049,1,0,1:0:0:0:
310,237,68183,1,0,1:0:0:0:
163,59,68316,6,0,P|115:51|61:64,1,95.9999970703126,6|0,1:2|0:0,0:0:0:0:
111,247,68582,1,0,1:0:0:0:
196,74,68716,1,0,1:0:0:0:
273,249,68849,1,0,1:0:0:0:
358,76,68983,1,0,1:0:0:0:
128,144,69116,6,0,L|9:150,1,95.9999970703126,6|0,1:2|0:0,0:0:0:0:
138,240,69382,1,8,3:0:0:0:
188,51,69516,1,4,3:0:0:0:
142,244,69649,1,8,3:0:0:0:
192,55,69782,1,4,3:0:0:0:
304,250,69916,5,6,0:0:0:0:
304,250,70716,6,0,P|262:260|210:247,1,80,4|0,1:2|0:0,0:0:0:0:
298,94,70982,2,0,P|327:125|342:176,1,80,4|0,1:2|0:0,0:0:0:0:
164,179,71249,2,0,P|176:137|213:99,1,80,4|0,1:2|0:0,0:0:0:0:
331,0,71516,5,12,3:0:0:0:
433,89,71649,1,8,3:0:0:0:
298,94,71782,1,4,3:0:0:0:
379,181,71915,1,4,3:0:0:0:
457,89,72049,2,0,L|448:4,1,80,4|0,3:0|0:0,0:0:0:0:
274,93,72316,6,0,P|234:98|197:86,1,80,4|0,1:2|0:0,0:0:0:0:
276,242,72582,2,0,P|291:204|320:178,1,80,4|0,1:2|0:0,0:0:0:0:
144,170,72849,2,0,P|168:202|176:240,1,80,4|0,1:2|0:0,0:0:0:0:
99,381,73116,5,12,3:0:0:0:
83,242,73249,1,8,3:0:0:0:
10,356,73382,1,4,3:0:0:0:
59,228,73516,1,4,3:0:0:0:
159,319,73649,2,0,L|257:309,1,80,4|0,3:0|0:0,0:0:0:0:
362,207,73916,6,0,P|368:167|357:128,1,80,4|0,1:2|0:0,0:0:0:0:
198,138,74182,2,0,P|228:163|267:174,1,80,4|0,1:2|0:0,0:0:0:0:
341,31,74449,2,0,P|303:45|275:73,1,80,4|0,1:2|0:0,0:0:0:0:
203,252,74716,5,12,3:0:0:0:
345,236,74849,1,8,3:0:0:0:
229,164,74982,1,4,3:0:0:0:
278,291,75116,1,4,3:0:0:0:
362,207,75249,2,0,L|351:128,1,80,4|0,3:0|0:0,0:0:0:0:
182,33,75516,6,0,L|90:43,1,80,4|0,1:2|0:0,0:0:0:0:
16,194,75782,2,0,L|108:204,1,80,4|0,1:2|0:0,0:0:0:0:
261,24,76049,2,0,L|182:33,1,80,4|0,1:2|0:0,0:0:0:0:
95,202,76316,6,0,B|86:342|86:342|139:303,1,200,0|0,1:0|0:0,0:0:0:0:
208,232,77116,6,0,B|296:216|276:274|367:257,1,160,6|2,0:0|0:0,0:0:0:0:
342,85,77516,2,0,P|333:124|338:164,1,80,0|0,1:0|0:0,0:0:0:0:
453,132,77782,1,2,0:0:0:0:
330,55,77916,6,0,L|234:61,1,80,2|0,0:0|0:0,0:0:0:0:
137,148,78182,2,0,L|233:154,1,80,2|0,0:0|0:0,0:0:0:0:
56,227,78449,1,0,1:0:0:0:
4,92,78582,1,2,0:0:0:0:
137,148,78716,6,0,B|157:100|132:28|132:28|166:48,1,160,2|0,0:0|0:0,0:0:0:0:
319,89,79116,2,0,P|332:53|327:8,1,80,0|0,1:0|0:0,0:0:0:0:
235,141,79382,1,2,0:0:0:0:
374,178,79516,2,0,L|484:169,1,80,2|0,0:0|0:0,0:0:0:0:
306,267,79782,2,0,L|196:258,1,80,2|0,0:0|0:0,0:0:0:0:
82,241,80049,1,0,1:0:0:0:
137,373,80182,1,2,0:0:0:0:
167,182,80316,6,0,P|175:104|183:11,1,160,6|0,0:0|0:0,0:0:0:0:
345,125,80716,2,0,P|307:134|254:122,1,80,0|0,1:0|0:0,0:0:0:0:
303,4,80982,1,0,1:0:0:0:
440,87,81116,6,0,P|448:128|432:180,1,80,2|0,0:0|0:0,0:0:0:0:
345,293,81382,2,0,P|337:252|353:200,1,80,2|0,0:0|0:0,0:0:0:0:
512,257,81649,2,0,L|432:254,1,80,0|0,1:0|0:0,0:0:0:0:
360,90,81916,6,0,L|440:87,1,80,2|0,0:0|0:0,0:0:0:0:
261,17,82182,1,2,0:0:0:0:
326,199,82316,1,0,1:0:0:0:
185,123,82449,2,0,L|105:120,1,80,0|2,0:0|0:0,0:0:0:0:
288,3,82716,5,6,1:2:0:0:
288,3,83516,6,0,L|298:137,1,111.999996582031,6|0,0:0|0:0,0:0:0:0:
365,163,83916,2,0,L|355:297,1,111.999996582031,2|0,0:0|0:0,0:0:0:0:
217,214,84316,2,0,P|244:213|271:222,1,55.9999982910157,0|0,1:0|0:0,0:0:0:0:
260,305,84582,2,0,P|232:305|205:296,1,55.9999982910157,0|8,0:0|3:0,0:0:0:0:
138,246,84849,1,8,3:0:0:0:
138,246,84982,1,8,3:0:0:0:
217,214,85116,6,0,P|230:157|207:92,1,111.999996582031,8|0,3:0|0:0,0:0:0:0:
108,107,85516,2,0,P|165:120|230:97,1,111.999996582031,2|0,0:0|0:0,0:0:0:0:
308,32,85916,2,0,L|366:39,1,55.9999982910157,0|0,1:0|0:0,0:0:0:0:
423,104,86182,1,8,3:0:0:0:
423,104,86316,1,8,3:0:0:0:
372,170,86449,2,0,P|366:200|374:240,1,55.9999982910157,8|0,3:0|0:0,0:0:0:0:
435,277,86716,6,0,P|375:268|327:304,1,111.999996582031,8|0,3:0|0:0,0:0:0:0:
268,348,87116,2,0,P|208:356|160:321,1,111.999996582031,2|0,0:0|0:0,0:0:0:0:
222,220,87516,2,0,L|228:276,1,55.9999982910157,0|0,1:0|0:0,0:0:0:0:
310,192,87782,1,8,3:0:0:0:
310,192,87916,1,8,3:0:0:0:
252,131,88048,1,8,3:0:0:0:
252,131,88182,1,8,3:0:0:0:
171,155,88316,6,0,P|109:168|49:142,1,111.999996582031,8|0,3:0|0:0,0:0:0:0:
64,68,88716,2,0,P|126:55|186:81,1,111.999996582031,2|0,0:0|0:0,0:0:0:0:
252,131,89116,2,0,L|324:125,1,55.9999982910157,0|0,1:0|0:0,0:0:0:0:
387,166,89382,1,8,3:0:0:0:
387,166,89516,1,8,3:0:0:0:
432,241,89648,1,8,3:0:0:0:
432,241,89782,1,8,3:0:0:0:
378,306,89916,6,0,P|322:301|267:287,1,111.999996582031,6|0,0:0|0:0,0:0:0:0:
203,233,90316,2,0,P|148:246|93:251,1,111.999996582031,2|0,0:0|0:0,0:0:0:0:
11,165,90716,2,0,L|17:99,1,55.9999982910157,0|0,1:0|0:0,0:0:0:0:
96,84,90982,2,0,L|102:150,1,55.9999982910157,0|8,0:0|3:0,0:0:0:0:
190,152,91249,1,8,3:0:0:0:
190,152,91382,1,8,3:0:0:0:
261,105,91516,5,8,3:0:0:0:
261,105,91649,2,0,P|299:103|322:110,1,55.9999982910157,0|0,0:0|0:0,0:0:0:0:
422,117,91916,2,0,P|378:99|303:114,1,111.999996582031,2|0,0:0|0:0,0:0:0:0:
281,184,92316,2,0,L|287:250,1,55.9999982910157,0|0,1:0|0:0,0:0:0:0:
227,299,92582,1,8,3:0:0:0:
227,299,92716,1,8,3:0:0:0:
152,261,92849,2,0,P|110:260|73:273,1,55.9999982910157,8|0,3:0|0:0,0:0:0:0:
40,326,93116,6,0,P|47:265|18:211,1,111.999996582031,8|0,3:0|0:0,0:0:0:0:
1,139,93516,2,0,P|50:102|111:100,1,111.999996582031,2|0,0:0|0:0,0:0:0:0:
209,141,93916,2,0,L|264:137,1,55.9999982910157,0|0,1:0|0:0,0:0:0:0:
329,84,94182,1,8,3:0:0:0:
329,84,94316,1,8,3:0:0:0:
265,28,94449,2,0,L|200:24,1,55.9999982910157,8|0,3:0|0:0,0:0:0:0:
140,73,94716,6,0,P|115:118|125:189,1,111.999996582031,8|0,3:0|0:0,0:0:0:0:
166,246,95116,2,0,P|121:221|50:231,1,111.999996582031,2|0,0:0|0:0,0:0:0:0:
90,370,95516,2,0,L|99:315,1,55.9999982910157,0|0,1:0|0:0,0:0:0:0:
185,338,95782,1,8,3:0:0:0:
185,338,95916,1,8,3:0:0:0:
260,302,96049,2,0,P|274:268|276:231,1,55.9999982910157,8|0,3:0|0:0,0:0:0:0:
280,157,96316,6,0,P|326:144|388:159,2,95.9999970703126,2|0|0,0:0|0:0|3:0,0:0:0:0:
209,198,96982,1,0,0:0:0:0:
133,116,97116,2,0,L|139:56,1,47.9999985351563,0|0,1:0|0:0,0:0:0:0:
213,31,97382,1,0,0:0:0:0:
213,31,97516,1,8,3:0:0:0:
213,31,97649,2,0,L|219:91,1,47.9999985351563,8|0,3:0|0:0,0:0:0:0:
301,116,97916,6,0,L|291:228,2,95.9999970703126,4|0|0,3:0|0:0|3:0,0:0:0:0:
364,65,98582,1,0,0:0:0:0:
458,122,98716,2,0,P|469:151|469:177,1,47.9999985351563,0|0,1:0|0:0,0:0:0:0:
447,249,98982,1,0,0:0:0:0:
447,249,99116,1,8,3:0:0:0:
376,288,99248,1,8,3:0:0:0:
376,288,99382,1,0,0:0:0:0:
296,245,99516,6,0,P|246:238|175:274,1,128,6|0,0:2|0:0,0:0:0:0:
60,296,99916,2,0,P|110:303|181:267,1,128,0|0,0:0|0:0,0:0:0:0:
229,145,100316,2,0,L|226:80,1,64,0|0,1:0|0:0,0:0:0:0:
298,18,100582,1,0,0:0:0:0:
298,18,100716,1,8,3:0:0:0:
369,81,100849,2,0,L|446:73,1,64,8|0,3:0|0:0,0:0:0:0:
357,187,101116,6,0,P|299:177|220:167,1,128,4|0,3:0|0:0,0:0:0:0:
198,283,101516,2,0,P|233:233|223:151,1,128,0|0,0:0|0:0,0:0:0:0:
70,196,101916,2,0,L|134:202,1,64,0|0,1:0|0:0,0:0:0:0:
235,172,102182,1,8,3:0:0:0:
235,172,102316,1,8,3:0:0:0:
327,215,102449,2,0,L|336:291,1,64,8|0,3:0|0:0,0:0:0:0:
417,156,102716,6,0,P|367:116|296:111,1,128,4|0,3:0|0:0,0:0:0:0:
235,172,103116,2,0,P|185:132|114:127,1,128
137,293,103516,2,0,P|146:262|143:231,1,64,0|0,1:0|0:0,0:0:0:0:
50,255,103782,1,8,3:0:0:0:
50,255,103916,1,8,3:0:0:0:
6,340,104049,2,0,P|37:349|68:346,1,64,8|0,3:0|0:0,0:0:0:0:
143,231,104316,6,0,B|220:218|204:261|292:245,1,128,4|0,3:0|0:0,0:0:0:0:
329,173,104716,2,0,P|316:111|344:55,1,128
431,178,105116,2,0,P|438:216|430:244,1,64,0|0,1:0|0:0,0:0:0:0:
400,332,105382,1,8,3:0:0:0:
400,332,105516,1,8,3:0:0:0:
304,336,105649,1,8,3:0:0:0:
304,336,105782,1,8,3:0:0:0:
267,247,105916,6,0,B|280:186|234:184|257:104,1,128,4|0,3:0|0:0,0:0:0:0:
308,43,106316,2,0,P|252:26|182:56,1,128,0|0,0:0|0:0,0:0:0:0:
88,128,106716,2,0,L|95:199,1,64,0|0,1:0|0:0,0:0:0:0:
155,273,106982,1,8,3:0:0:0:
155,273,107116,1,8,3:0:0:0:
237,223,107249,2,0,P|267:220|304:226,1,64,8|8,3:0|3:0,0:0:0:0:
391,257,107516,6,0,P|398:203|407:113,1,128,4|0,3:0|0:0,0:0:0:0:
363,43,107916,2,0,B|326:62|326:62|237:47,1,128,0|0,0:0|0:0,0:0:0:0:
157,153,108316,2,0,L|220:142,1,64,0|0,1:0|0:0,0:0:0:0:
148,36,108582,1,8,3:0:0:0:
148,36,108716,1,8,3:0:0:0:
78,102,108849,2,0,P|63:136|66:179,1,64,8|0,3:0|0:0,0:0:0:0:
99,264,109116,6,0,B|195:237|190:303|283:278,1,180.000006866455,2|0,0:0|0:0,0:0:0:0:
358,249,109649,2,0,L|368:324,1,60.0000022888184,2|0,0:0|0:0,0:0:0:0:
461,208,109916,2,0,L|471:133,1,60.0000022888184,0|0,1:0|0:0,0:0:0:0:
430,73,110182,1,8,3:0:0:0:
430,73,110316,1,8,3:0:0:0:
353,107,110449,2,0,P|311:109|284:101,1,60.0000022888184,8|0,3:0|0:0,0:0:0:0:
230,16,110716,6,0,P|262:77|226:176,1,180.000006866455,2|0,0:0|0:0,0:0:0:0:
147,219,111249,2,0,L|79:212,1,60.0000022888184,2|0,0:0|0:0,0:0:0:0:
169,324,111516,2,0,L|237:317,1,60.0000022888184,0|0,1:0|0:0,0:0:0:0:
321,311,111782,1,8,3:0:0:0:
321,311,111916,1,8,3:0:0:0:
389,253,112049,2,0,P|390:213|381:183,1,60.0000022888184,8|0,3:0|0:0,0:0:0:0:
283,230,112316,5,2,0:0:0:0:
256,192,112382,12,0,113649,0:0:0:0:
256,192,113916,5,2,0:0:0:0:
252,188,114182,5,2,0:0:0:0:
248,184,114449,5,2,0:0:0:0:
244,180,114716,6,0,P|192:157|226:261,1,256,2|0,0:0|0:0,0:0:0:0:
225,261,115516,5,6,0:0:0:0:
283,276,128316,5,0,1:0:0:0:
184,140,128449,1,4,3:0:0:0:
344,192,128582,5,0,1:0:0:0:
184,244,128716,1,4,3:0:0:0:
283,107,128849,5,0,1:0:0:0:
283,107,129116,6,0,B|235:86|199:89|199:89|161:105|161:105|121:77|68:88,1,207.999990478516,6|0,0:2|1:2,0:0:0:0:
23,269,129516,2,0,P|69:295|127:294,1,103.999995239258,0|0,0:0|1:0,0:0:0:0:
98,192,129782,1,0,0:0:0:0:
217,356,129916,6,0,B|244:303|226:255|226:255|285:280|336:248,1,207.999990478516,6|0,0:0|1:0,0:0:0:0:
275,146,130316,1,0,0:0:0:0:
119,296,130449,1,0,1:0:0:0:
163,125,130582,1,0,0:0:0:0:
315,350,130716,6,0,B|477:332|477:332|422:288,1,207.999990478516,6|0,0:0|1:0,0:0:0:0:
297,167,131116,2,0,L|302:56,1,103.999995239258,0|0,0:0|1:0,0:0:0:0:
467,170,131382,1,0,0:0:0:0:
269,265,131516,6,0,P|200:263|162:244,1,103.999995239258,6|0,0:0|0:0,0:0:0:0:
156,31,131782,2,0,P|188:91|191:134,1,103.999995239258,0|0,1:0|0:0,0:0:0:0:
8,246,132049,2,0,P|44:187|79:163,1,103.999995239258,0|0,1:0|0:0,0:0:0:0:
268,265,132316,6,0,L|383:253,1,103.999995239258,6|0,0:0|0:0,0:0:0:0:
192,125,132582,1,0,1:0:0:0:
154,277,132716,1,0,0:0:0:0:
322,155,132849,2,0,P|323:96|299:43,1,103.999995239258,0|0,1:0|0:0,0:0:0:0:
58,18,133116,6,0,B|13:72|13:72|33:225,1,207.999990478516,6|0,0:0|1:0,0:0:0:0:
126,367,133516,1,0,0:0:0:0:
239,181,133649,2,0,L|122:170,1,103.999995239258,0|0,1:0|0:0,0:0:0:0:
350,126,133916,6,0,B|362:176|362:176|335:282|335:282|395:244,1,207.999990478516,6|0,0:0|1:0,0:0:0:0:
419,41,134316,2,0,P|360:16|309:24,1,103.999995239258,0|0,0:0|1:0,0:0:0:0:
172,64,134582,1,0,0:0:0:0:
350,126,134716,5,6,0:0:0:0:
187,175,134849,1,0,0:0:0:0:
357,159,134982,5,4,1:2:0:0:
247,289,135115,1,0,0:0:0:0:
381,183,135249,5,4,1:2:0:0:
358,357,135382,1,0,0:0:0:0:
494,140,135516,6,0,P|449:83|314:82,1,207.999990478516,6|0,0:0|1:0,0:0:0:0:
325,264,135916,2,0,P|360:237|379:157,1,103.999995239258,0|0,0:0|1:0,0:0:0:0:
268,166,136182,1,0,0:0:0:0:
234,370,136316,6,0,P|343:364|463:358,1,207.999990478516,6|0,0:0|1:0,0:0:0:0:
381,183,136716,1,0,0:0:0:0:
232,269,136849,2,0,P|224:332|244:389,1,103.999995239258,0|0,1:0|0:0,0:0:0:0:
415,182,137116,6,0,P|423:119|403:62,1,103.999995239258,6|0,0:0|0:0,0:0:0:0:
241,6,137382,1,0,1:0:0:0:
198,137,137516,2,0,P|249:145|300:133,1,103.999995239258,0|0,0:0|1:0,0:0:0:0:
401,51,137782,1,0,0:0:0:0:
497,236,137916,6,0,L|483:354,1,103.999995239258,6|0,0:0|0:0,0:0:0:0:
277,339,138182,2,0,L|263:221,1,103.999995239258,0|0,1:0|0:0,0:0:0:0:
230,29,138449,1,0,1:0:0:0:
118,166,138582,1,0,0:0:0:0:
339,163,138716,6,0,P|367:219|359:277,1,103.999995239258,6|0,0:0|0:0,0:0:0:0:
93,262,138982,2,0,P|93:210|119:165,1,103.999995239258,0|0,1:0|0:0,0:0:0:0:
311,61,139249,1,0,1:0:0:0:
264,236,139382,1,0,0:0:0:0:
98,67,139516,6,0,B|64:120|64:120|96:278,1,207.999990478516,6|0,0:0|1:0,0:0:0:0:
224,346,139916,1,0,0:0:0:0:
319,161,140049,2,0,P|264:143|204:163,1,103.999995239258,0|0,1:0|0:0,0:0:0:0:
379,346,140316,6,0,L|502:333,1,103.999995239258,6|0,0:0|0:0,0:0:0:0:
332,192,140582,1,0,1:0:0:0:
256,341,140716,1,0,0:0:0:0:
123,208,140849,2,0,P|108:158|120:102,1,103.999995239258,0|0,1:0|0:0,0:0:0:0:
332,192,141116,6,0,L|213:202,1,103.999995239258,6|0,0:0|0:0,0:0:0:0:
424,88,141382,1,0,1:0:0:0:
376,277,141516,1,0,1:0:0:0:
314,57,141649,1,0,1:0:0:0:
449,196,141783,1,0,1:0:0:0:
228,200,141916,6,0,L|109:190,1,103.999995239258,6|0,0:0|0:0,0:0:0:0:
314,57,142182,1,0,1:0:0:0:
249,233,142316,1,0,1:0:0:0:
169,20,142448,1,0,1:0:0:0:
305,149,142582,1,0,1:0:0:0:
124,191,142716,6,0,L|5:201,1,103.999995239258,6|0,0:0|0:0,0:0:0:0:
220,90,142982,1,0,1:0:0:0:
158,289,143116,1,0,1:0:0:0:
90,71,143249,1,0,1:0:0:0:
249,233,143382,1,0,1:0:0:0:
401,108,143516,6,0,B|413:60|413:60|395:5,1,103.999995239258,6|0,0:0|0:0,0:0:0:0:
225,212,143782,1,8,3:0:0:0:
169,20,143916,1,4,3:0:0:0:
229,216,144049,1,8,3:0:0:0:
173,24,144182,1,4,3:0:0:0:
350,181,144316,5,6,0:0:0:0:
350,181,145116,6,0,P|283:150|181:174,1,176.000005371094,6|0,0:0|0:0,0:0:0:0:
350,181,145516,2,0,P|343:107|271:31,1,176.000005371094,0|0,1:0|0:0,0:0:0:0:
350,181,145916,2,0,L|450:188,1,88.000002685547,2|0,0:0|0:0,0:0:0:0:
300,282,146182,2,0,L|400:275,1,88.000002685547,2|0,0:0|0:0,0:0:0:0:
250,372,146449,2,0,L|350:379,1,88.000002685547,0|0,1:0|0:0,0:0:0:0:
496,265,146716,6,0,P|461:177|486:80,1,176.000005371094,2|0,0:0|0:0,0:0:0:0:
496,265,147116,2,0,P|402:251|330:181,1,176.000005371094,0|0,1:0|1:0,0:0:0:0:
225,79,147516,2,0,P|168:70|129:80,1,88.000002685547,2|0,0:0|0:0,0:0:0:0:
311,76,147782,2,0,P|254:85|215:75,1,88.000002685547,2|0,0:0|0:0,0:0:0:0:
397,78,148049,2,0,P|340:69|301:79,1,88.000002685547,0|0,1:0|0:0,0:0:0:0:
211,231,148316,6,0,B|144:281|73:231|73:231|88:209,1,176.000005371094,2|0,0:0|0:0,0:0:0:0:
211,231,148716,2,0,B|278:181|349:231|349:231|333:252,1,176.000005371094,0|0,1:0|1:0,0:0:0:0:
177,151,149116,2,0,P|219:128|264:120,1,88.000002685547,2|0,0:0|0:0,0:0:0:0:
286,18,149382,2,0,P|331:31|369:57,1,88.000002685547,2|0,0:0|0:0,0:0:0:0:
466,23,149649,2,0,P|489:65|497:109,1,88.000002685547,0|0,1:0|0:0,0:0:0:0:
459,285,149916,6,0,B|414:259|414:259|287:282,1,176.000005371094,2|0,0:0|0:0,0:0:0:0:
125,278,150316,2,0,B|170:304|170:304|292:281,1,176.000005371094,0|0,1:0|0:0,0:0:0:0:
372,143,150716,2,0,P|312:123|279:126,1,88.000002685547,4|0,1:2|0:0,0:0:0:0:
194,186,150982,5,8,3:0:0:0:
147,12,151116,1,8,3:0:0:0:
288,124,151249,1,8,3:0:0:0:
107,115,151383,1,8,3:0:0:0:
258,17,151516,6,0,B|310:4|353:35|353:35|434:22,1,176.000005371094,6|0,0:0|0:0,0:0:0:0:
428,226,151916,2,0,B|353:213|353:213|310:244|258:231,1,176.000005371094,0|0,1:0|0:0,0:0:0:0:
200,124,152316,2,0,L|288:124,1,88.000002685547,2|0,0:0|0:0,0:0:0:0:
112,124,152582,2,0,L|200:124,1,88.000002685547,2|0,0:0|0:0,0:0:0:0:
24,124,152849,2,0,L|112:124,1,88.000002685547,0|0,1:0|0:0,0:0:0:0:
167,310,153116,6,0,B|128:351|128:351|-2:331,1,176.000005371094,2|0,0:0|0:0,0:0:0:0:
167,310,153516,2,0,B|206:351|206:351|336:331,1,176.000005371094,0|0,1:0|1:0,0:0:0:0:
406,186,153916,2,0,P|414:132|401:94,1,88.000002685547,2|0,0:0|0:0,0:0:0:0:
406,186,154182,2,0,P|448:219|488:227,1,88.000002685547,2|0,0:0|0:0,0:0:0:0:
406,186,154449,2,0,P|355:206|328:236,1,88.000002685547,0|0,1:0|0:0,0:0:0:0:
206,351,154716,6,0,P|124:369|26:317,1,176.000005371094,2|0,0:0|0:0,0:0:0:0:
139,201,155116,2,0,P|148:287|206:351,1,176.000005371094,0|0,1:0|1:0,0:0:0:0:
392,366,155516,2,0,L|399:259,1,88.000002685547,2|0,0:0|0:0,0:0:0:0:
313,254,155782,2,0,L|416:283,1,88.000002685547,2|0,0:0|0:0,0:0:0:0:
460,216,156049,2,0,L|383:290,1,88.000002685547,0|0,1:0|0:0,0:0:0:0:
206,351,156316,6,0,P|192:309|203:246,1,88.000002685547,6|0,0:0|0:0,0:0:0:0:
243,143,156582,1,2,0:0:0:0:
298,297,156716,1,0,1:0:0:0:
345,174,156849,2,0,P|348:125|328:79,1,88.000002685547,2|0,0:0|0:0,0:0:0:0:
154,42,157116,6,0,L|56:46,1,88.000002685547,6|0,0:0|0:0,0:0:0:0:
154,167,157382,1,2,0:0:0:0:
251,47,157516,1,0,1:0:0:0:
349,133,157649,2,0,L|447:137,1,88.000002685547,2|0,0:0|0:0,0:0:0:0:
169,260,157916,6,0,P|152:200|156:156,1,95.9999970703126,6|0,0:0|0:0,0:0:0:0:
352,261,158182,2,0,P|308:305|268:324,1,95.9999970703126,4|0,1:2|0:0,0:0:0:0:
261,99,158449,2,0,P|321:114|357:139,1,95.9999970703126,4|0,1:2|0:0,0:0:0:0:
445,264,158716,5,4,1:2:0:0:
445,101,158849,1,8,3:0:0:0:
349,233,158982,1,4,3:0:0:0:
504,183,159116,1,4,3:0:0:0:
349,132,159249,1,4,3:0:0:0:
163,349,159516,6,0,P|103:366|59:362,1,95.9999970703126,6|0,0:0|0:0,0:0:0:0:
164,166,159782,2,0,P|208:209|227:249,1,95.9999970703126,4|0,1:2|0:0,0:0:0:0:
2,257,160049,2,0,P|17:196|42:160,1,95.9999970703126,4|0,1:2|0:0,0:0:0:0:
167,73,160316,5,4,1:2:0:0:
4,73,160449,1,8,3:0:0:0:
136,169,160582,1,4,3:0:0:0:
86,14,160716,1,4,3:0:0:0:
35,169,160849,1,4,3:0:0:0:
370,92,161116,6,0,P|387:152|383:196,1,95.9999970703126,6|0,0:0|0:0,0:0:0:0:
187,91,161382,2,0,P|230:46|270:27,1,95.9999970703126,4|0,1:2|0:0,0:0:0:0:
278,253,161649,2,0,P|217:237|181:212,1,95.9999970703126,4|0,1:2|0:0,0:0:0:0:
94,88,161916,5,4,1:2:0:0:
94,251,162049,1,8,3:0:0:0:
190,119,162182,1,4,3:0:0:0:
35,169,162316,1,4,3:0:0:0:
190,220,162449,2,0,L|181:318,1,95.9999970703126,4|4,3:0|3:0,0:0:0:0:
357,187,162716,5,4,1:2:0:0:
194,187,162849,1,8,3:0:0:0:
326,91,162982,1,4,3:0:0:0:
276,246,163116,1,4,3:0:0:0:
225,91,163249,2,0,L|127:100,1,95.9999970703126,4|4,3:0|3:0,0:0:0:0:
283,253,163516,5,4,1:2:0:0:
283,253,163582,1,4,3:0:0:0:
283,253,163649,1,4,3:0:0:0:
333,98,163783,1,8,3:0:0:0:
333,98,163849,1,8,3:0:0:0:
333,98,163916,1,8,3:0:0:0:
476,265,164049,2,0,B|429:278|429:278|375:270,1,95.9999970703126,4|0,1:2|0:0,0:0:0:0:
173,178,164316,6,0,P|95:158|29:203,1,155.999992858887,6|0,0:0|0:0,0:0:0:0:
136,254,164582,2,0,P|157:331|229:366,1,155.999992858887,4|0,1:2|0:0,0:0:0:0:
214,245,164849,2,0,P|270:187|264:107,1,155.999992858887,4|0,1:2|0:0,0:0:0:0:
184,85,165116,6,0,L|358:69,1,155.999992858887,4|0,1:2|0:0,0:0:0:0:
424,206,165382,2,0,L|250:190,1,155.999992858887,4|0,1:2|0:0,0:0:0:0:
184,329,165649,2,0,L|358:313,1,155.999992858887,4|0,1:2|0:0,0:0:0:0:
179,353,165916,6,0,P|143:304|152:203,1,155.999992858887,6|0,0:0|0:0,0:0:0:0:
9,169,166182,2,0,P|69:162|152:220,1,155.999992858887,4|0,1:2|0:0,0:0:0:0:
253,114,166449,2,0,P|228:169|136:212,1,155.999992858887,4|0,1:2|0:0,0:0:0:0:
246,91,166716,6,0,L|367:82,1,103.999995239258,4|0,1:2|0:0,0:0:0:0:
152,18,166982,1,4,1:2:0:0:
134,194,167116,1,0,0:0:0:0:
349,83,167249,2,0,L|470:92,1,103.999995239258,4|0,1:2|0:0,0:0:0:0:
305,267,167516,6,0,L|184:276,1,103.999995239258,6|0,0:0|0:0,0:0:0:0:
407,176,167782,1,4,1:2:0:0:
348,365,167916,1,0,0:0:0:0:
242,162,168049,2,0,L|246:46,1,103.999995239258,4|0,1:2|0:0,0:0:0:0:
48,176,168316,6,0,L|52:292,1,103.999995239258,6|0,0:0|0:0,0:0:0:0:
305,267,168582,1,0,1:0:0:0:
133,114,168716,1,0,1:0:0:0:
376,164,168849,1,0,1:0:0:0:
241,373,168982,1,0,1:0:0:0:
216,190,169116,5,2,0:0:0:0:
220,186,169419,5,0,0:0:0:0:
224,182,169669,5,0,0:0:0:0:
228,178,169939,6,0,L|225:162,1,16
