osu file format v14

[General]
AudioFilename: audio.mp3
AudioLeadIn: 0
PreviewTime: 54382
Countdown: 0
SampleSet: Soft
StackLeniency: 0.5
Mode: 0
LetterboxInBreaks: 0
WidescreenStoryboard: 1

[Editor]
DistanceSpacing: 1.4
BeatDivisor: 4
GridSize: 16
TimelineZoom: 1

[Metadata]
Title:Noise (English ver.)
TitleUnicode:ノイズ(English ver.)
Artist:Mio Yamazaki
ArtistUnicode:ミオヤマザキ
Creator:Akitoshi
Version:Hard
Source:地獄少女 宵伽
Tags:Corinn English Jigoku Shoujo Yoi no Togi Opening Hey lululu Asagi
BeatmapID:1492707
BeatmapSetID:702892

[Difficulty]
HPDrainRate:5.5
CircleSize:3.5
OverallDifficulty:6.5
ApproachRate:8
SliderMultiplier:1.3
SliderTickRate:1

[Events]
//Background and Video events
0,0,"bg on bottom d.jpg",0,0
//Break Periods
2,115716,127566
//Storyboard Layer 0 (Background)
//Storyboard Layer 1 (Fail)
//Storyboard Layer 2 (Pass)
//Storyboard Layer 3 (Foreground)
//Storyboard Sound Samples

[TimingPoints]
316,266.666666666667,3,2,0,50,1,0
316,-142.857142857143,3,2,0,50,0,0
12849,-111.111111111111,3,2,0,50,0,0
13116,-100,3,2,0,80,0,0
25916,-125,3,2,0,60,0,0
38649,-125,3,2,0,5,0,0
38716,-100,3,2,0,70,0,0
48316,-100,3,2,0,75,0,0
53116,-100,3,2,0,70,0,0
53382,-100,3,2,0,70,0,0
53649,-100,3,2,0,70,0,0
53916,-100,3,2,0,70,0,0
54449,-100,3,2,0,50,0,0
54716,-90.9090909090909,3,2,0,100,0,1
69916,-90.9090909090909,3,2,0,100,0,0
70716,-100,3,2,0,80,0,0
76316,-100,3,2,0,80,0,0
76449,-100,3,2,0,20,0,0
76982,-100,3,2,0,60,0,0
77116,-100,3,2,0,80,0,0
83516,-125,3,2,0,60,0,0
96316,-125,3,2,0,60,0,0
99516,-100,3,2,0,70,0,0
109116,-100,3,2,0,75,0,0
113916,-100,3,2,0,75,0,0
114182,-100,3,2,0,75,0,0
114449,-100,3,2,0,75,0,0
114716,-100,3,2,0,75,0,0
115249,-100,3,2,0,5,0,0
115516,-100,3,2,0,60,0,0
128316,-100,3,2,0,80,0,0
129116,-90.9090909090909,4,2,0,100,0,1
144316,-83.3333333333333,4,2,0,100,0,0
145116,-100,4,2,0,80,0,0
157916,-90.9090909090909,4,2,0,100,0,1
164182,-90.9090909090909,4,2,0,100,0,0
164316,-90.9090909090909,4,2,0,100,0,1
169116,303.030303030303,4,2,0,50,1,0
169116,-166.666666666667,4,2,0,50,0,0
169669,270.27027027027,4,2,0,20,1,0
169669,-166.666666666667,4,2,0,20,0,0
170209,-166.666666666667,4,2,0,5,0,0

[Colours]
Combo1 : 255,192,0
Combo2 : 255,128,64
Combo3 : 255,128,128
Combo4 : 242,24,57

[HitObjects]
171,116,316,6,0,P|14:186|182:223,1,454.999986114502,4|0,3:0|0:0,0:0:0:0:
253,166,1916,6,0,B|401:129|401:129|348:239|348:239|383:345|383:345|426:285,1,454.999986114502,2|0,0:0|0:0,0:0:0:0:
471,212,3516,6,0,B|409:173|332:220|332:286|332:286|255:312|255:312|186:250|186:250|95:273,1,454.999986114502,2|0,0:0|0:0,0:0:0:0:
164,335,5116,6,0,P|185:248|109:182,1,181.999994445801,2|0,0:0|0:0,0:0:0:0:
44,147,5916,2,0,P|131:168|197:92,1,181.999994445801,2|0,0:0|0:0,0:0:0:0:
204,19,6716,6,0,P|208:83|493:66,1,454.999986114502,2|0,0:0|0:0,0:0:0:0:
431,2,8316,6,0,B|373:60|373:60|414:292|414:292|325:185,1,454.999986114502,2|0,0:0|0:0,0:0:0:0:
249,137,9916,6,0,P|168:119|274:253,1,454.999986114502,2|0,0:0|0:0,0:0:0:0:
326,186,11516,6,0,B|370:169|370:169|409:186|409:186|455:168|455:168|453:238|484:295|484:295|432:293|395:318|395:318|346:286,1,409.499987503052,2|0,0:0|0:0,0:0:0:0:
287,263,12849,6,0,L|179:275,1,87.7499973220826,0|0,3:0|0:0,0:0:0:0:
188,279,13116,6,0,P|130:251|48:264,2,130,6|4|4,0:0|1:2|1:2,0:0:0:0:
237,354,13782,1,0,0:0:0:0:
315,306,13916,2,0,L|383:303,1,65,4|0,1:2|0:0,0:0:0:0:
379,212,14182,2,0,L|311:209,1,65,4|0,1:2|0:0,0:0:0:0:
242,151,14449,1,4,1:2:0:0:
242,151,14582,1,0,0:0:0:0:
312,93,14716,6,0,B|394:80|376:125|456:111,2,130,4|4|4,1:2|1:2|1:2,0:0:0:0:
242,151,15382,1,0,0:0:0:0:
170,93,15516,2,0,P|137:95|105:105,1,65,4|0,1:2|0:0,0:0:0:0:
59,181,15782,2,0,P|61:214|71:246,1,65,4|0,1:2|0:0,0:0:0:0:
131,320,16049,1,4,1:2:0:0:
131,320,16182,1,0,0:0:0:0:
211,277,16316,6,0,B|250:264|250:264|348:275,1,130,4|4,1:2|1:2,0:0:0:0:
427,292,16716,1,0,0:0:0:0:
495,232,16849,2,0,P|501:198|492:161,1,65,4|0,1:2|0:0,0:0:0:0:
429,105,17116,2,0,P|367:125|282:109,1,130,4|4,1:2|1:2,0:0:0:0:
230,63,17516,1,0,0:0:0:0:
157,117,17649,2,0,L|149:193,1,65,4|0,1:2|0:0,0:0:0:0:
95,255,17916,6,0,P|63:207|76:128,1,130,4|4,1:2|1:2,0:0:0:0:
150,181,18316,1,0,0:0:0:0:
232,219,18449,2,0,L|308:211,1,65,4|0,1:2|0:0,0:0:0:0:
372,160,18716,2,0,P|374:120|365:91,1,65,4|0,1:2|0:0,0:0:0:0:
303,31,18982,2,0,P|263:29|234:38,1,65,4|0,1:2|0:0,0:0:0:0:
159,79,19249,1,6,1:2:0:0:
159,79,19382,1,2,0:0:0:0:
239,154,19516,6,0,L|229:244,1,65,4|0,1:2|0:0,0:0:0:0:
144,244,19782,2,0,L|136:179,1,65,4|0,1:2|0:0,0:0:0:0:
70,115,20049,1,6,1:2:0:0:
70,115,20182,1,2,0:0:0:0:
17,189,20316,2,0,P|12:225|23:264,1,65,4|0,1:2|0:0,0:0:0:0:
66,329,20582,2,0,P|102:334|141:323,1,65,4|0,1:2|0:0,0:0:0:0:
215,297,20849,1,6,1:2:0:0:
215,297,20982,1,2,0:0:0:0:
232,207,21116,6,0,L|305:196,1,65,4|0,1:2|0:0,0:0:0:0:
341,118,21382,2,0,L|268:107,1,65,4|0,1:2|0:0,0:0:0:0:
199,58,21649,1,6,1:2:0:0:
199,58,21782,1,2,0:0:0:0:
280,16,21916,2,0,P|314:9|357:16,1,65,4|0,1:2|0:0,0:0:0:0:
426,49,22182,2,0,P|433:83|426:126,1,65,4|0,1:2|0:0,0:0:0:0:
394,197,22449,1,6,1:2:0:0:
394,197,22582,1,2,0:0:0:0:
286,168,22716,6,0,B|248:189|248:189|133:182,2,130,4|4|4,1:2|1:2|1:2,0:0:0:0:
346,100,23382,1,0,0:0:0:0:
285,31,23516,2,0,P|246:28|216:37,1,65,4|0,1:2|0:0,0:0:0:0:
149,90,23782,2,0,P|110:93|80:84,1,65,4|0,1:2|0:0,0:0:0:0:
30,159,24049,2,0,P|52:191|59:221,1,65,4|0,1:2|0:0,0:0:0:0:
134,297,24316,6,0,P|77:326|5:313,2,130,4|4|4,1:2|1:2|1:2,0:0:0:0:
194,229,24982,1,0,0:0:0:0:
218,140,25116,2,0,L|226:61,1,65,4|0,1:2|0:0,0:0:0:0:
293,16,25382,1,0,1:0:0:0:
293,16,25516,1,0,1:0:0:0:
386,26,25648,1,0,1:0:0:0:
386,26,25782,1,0,1:0:0:0:
463,79,25916,6,0,B|445:115|445:115|458:199,1,104,4|0,0:0|0:0,0:0:0:0:
468,260,26316,2,0,B|432:278|432:278|348:265,1,104,2|0,0:0|0:0,0:0:0:0:
296,225,26716,2,0,P|246:211|177:234,2,104,0|2|2,1:0|0:0|0:0,0:0:0:0:
179,344,27516,6,0,L|66:339,1,104,2|0,0:0|0:0,0:0:0:0:
21,275,27916,2,0,P|8:224|22:171,1,104,2|0,0:0|0:0,0:0:0:0:
73,110,28316,2,0,P|86:59|72:6,2,104,0|2|2,1:0|0:0|0:0,0:0:0:0:
192,228,29116,6,0,L|301:224,1,104,2|0,0:0|0:0,0:0:0:0:
341,153,29516,2,0,L|450:157,1,104,2|0,0:0|0:0,0:0:0:0:
495,223,29916,2,0,B|505:274|505:274|485:331,2,104,0|2|2,1:0|0:0|0:0,0:0:0:0:
460,59,30716,6,0,P|423:43|347:55,1,104,2|0,0:0|0:0,0:0:0:0:
286,86,31116,2,0,P|249:70|173:82,1,104,2|0,0:0|0:0,0:0:0:0:
116,119,31516,2,0,P|79:135|3:123,2,104,0|2|2,1:0|0:0|0:0,0:0:0:0:
254,212,32316,6,0,B|237:255|237:255|248:330,1,104,2|0,0:0|0:0,0:0:0:0:
327,325,32716,2,0,B|344:282|344:282|333:207,1,104,2|0,0:0|0:0,0:0:0:0:
254,212,33116,2,0,P|202:229|152:221,2,104,0|2|2,1:0|0:0|0:0,0:0:0:0:
346,73,33916,6,0,B|308:56|308:56|236:64,1,104,2|0,0:0|0:0,0:0:0:0:
182,117,34316,2,0,B|144:134|144:134|72:126,1,104,2|0,0:0|0:0,0:0:0:0:
7,90,34716,2,0,P|32:143|18:203,2,104,0|2|2,1:0|0:0|0:0,0:0:0:0:
162,29,35516,5,2,0:0:0:0:
162,29,35649,2,0,L|227:34,1,52,2|0,0:0|0:0,0:0:0:0:
266,97,35916,2,0,L|381:88,1,104,2|0,0:0|0:0,0:0:0:0:
440,133,36316,2,0,P|461:175|461:251,2,104,0|2|2,1:0|0:0|0:0,0:0:0:0:
300,223,37116,6,0,L|292:343,1,104,6|0,0:0|0:0,0:0:0:0:
209,326,37516,2,0,L|202:222,1,104,2|0,0:0|0:0,0:0:0:0:
142,163,37916,1,2,0:0:0:0:
142,163,38716,6,0,P|85:151|11:183,1,130,6|2,0:0|0:0,0:0:0:0:
26,266,39116,2,0,P|83:278|157:246,1,130,0|0,0:0|0:0,0:0:0:0:
221,198,39516,2,0,L|297:202,1,65,2|0,0:0|0:0,0:0:0:0:
336,277,39782,2,0,L|412:273,1,65,2|0,0:0|0:0,0:0:0:0:
477,223,40049,2,0,B|482:188|482:188|475:146,1,65,0|0,1:0|0:0,0:0:0:0:
404,103,40316,6,0,P|354:116|277:86,1,130,2|2,0:0|0:0,0:0:0:0:
208,36,40716,2,0,P|158:23|81:53,1,130,0|0,0:0|0:0,0:0:0:0:
35,124,41116,2,0,L|40:190,1,65,2|0,0:0|0:0,0:0:0:0:
118,233,41382,2,0,L|113:299,1,65,2|0,0:0|0:0,0:0:0:0:
177,363,41649,2,0,B|210:369|210:369|264:359,1,65,0|0,1:0|0:0,0:0:0:0:
325,328,41916,6,0,L|315:196,1,130,2|2,0:0|0:0,0:0:0:0:
232,158,42316,2,0,L|242:26,1,130,0|0,0:0|0:0,0:0:0:0:
333,24,42716,2,0,P|370:33|405:29,1,65,2|0,0:0|0:0,0:0:0:0:
470,84,42982,2,0,P|461:121|465:156,1,65,2|0,0:0|0:0,0:0:0:0:
461,239,43249,2,0,B|431:245|431:245|384:236,1,65,0|0,1:0|0:0,0:0:0:0:
315,198,43516,6,0,P|254:200|200:242,1,130,2|2,0:0|0:0,0:0:0:0:
156,320,43916,2,0,P|105:280|41:277,1,130,0|0,0:0|0:0,0:0:0:0:
2,194,44316,2,0,P|1:161|14:124,1,65,2|0,0:0|0:0,0:0:0:0:
68,61,44582,2,0,P|101:60|138:73,1,65,2|0,0:0|0:0,0:0:0:0:
207,131,44849,1,0,1:0:0:0:
207,131,44982,1,0,0:0:0:0:
286,53,45116,6,0,B|327:72|327:72|431:56,1,130,6|2,0:0|0:0,0:0:0:0:
491,102,45516,2,0,P|468:150|479:233,1,130,0|0,0:0|0:0,0:0:0:0:
494,314,45916,2,0,L|421:318,1,65,2|0,0:0|0:0,0:0:0:0:
355,370,46182,2,0,L|282:366,1,65,2|0,0:0|0:0,0:0:0:0:
218,310,46449,2,0,B|186:302|186:302|137:312,1,65,0|0,1:0|0:0,0:0:0:0:
78,359,46716,6,0,P|103:328|83:229,1,130,2|2,0:0|0:0,0:0:0:0:
43,166,47116,2,0,P|74:191|173:171,1,130,0|0,0:0|0:0,0:0:0:0:
203,102,47516,2,0,L|274:93,1,65,2|0,0:0|0:0,0:0:0:0:
339,38,47782,2,0,L|410:47,1,65,2|0,0:0|0:0,0:0:0:0:
468,110,48049,2,0,B|479:141|479:141|472:177,1,65,0|0,1:0|0:0,0:0:0:0:
394,220,48316,6,0,P|348:228|308:358,1,195,6|2,0:0|0:0,0:0:0:0:
385,310,48849,1,0,1:0:0:0:
261,176,49116,2,0,L|169:182,1,65,2|0,0:0|0:0,0:0:0:0:
154,260,49382,2,0,L|62:254,1,65,2|0,0:0|0:0,0:0:0:0:
19,196,49649,2,0,B|12:161|12:161|20:123,1,65,0|0,1:0|0:0,0:0:0:0:
64,53,49916,6,0,B|128:77|185:30|185:30|257:48,1,195,6|2,0:0|0:0,0:0:0:0:
336,71,50449,1,0,1:0:0:0:
409,237,50716,2,0,P|415:273|401:311,1,65,2|0,0:0|0:0,0:0:0:0:
327,342,50982,2,0,P|292:329|266:298,1,65,2|0,0:0|0:0,0:0:0:0:
229,228,51249,2,0,B|194:222|194:222|145:229,1,65,0|0,1:0|0:0,0:0:0:0:
113,301,51516,6,0,P|134:245|54:153,1,195,6|2,0:0|0:0,0:0:0:0:
44,243,52049,1,0,1:0:0:0:
182,361,52316,2,0,L|256:351,1,65,2|0,0:0|0:0,0:0:0:0:
336,338,52582,1,0,1:0:0:0:
336,338,52716,1,0,1:0:0:0:
399,272,52849,1,0,1:0:0:0:
399,272,52982,1,0,1:0:0:0:
358,189,53116,5,2,0:0:0:0:
181,231,53382,1,2,0:0:0:0:
235,57,53649,1,2,0:0:0:0:
358,189,53916,1,2,0:0:0:0:
358,189,54716,6,0,B|463:177|463:177|443:224,1,143.000004364014,6|0,0:0|0:0,0:0:0:0:
378,283,55116,2,0,P|310:272|265:212,1,143.000004364014,2|2,0:0|0:0,0:0:0:0:
191,149,55516,2,0,P|148:204|79:215,1,143.000004364014,0|2,1:0|0:0,0:0:0:0:
12,150,55916,1,0,1:0:0:0:
12,150,56049,2,0,L|17:74,1,71.5000021820069,2|0,0:0|0:0,0:0:0:0:
99,22,56316,6,0,B|133:47|133:47|188:51|240:29,1,143.000004364014,2|0,0:0|0:0,0:0:0:0:
331,10,56716,2,0,P|363:55|352:155,1,143.000004364014,2|2,0:0|0:0,0:0:0:0:
306,224,57116,2,0,P|351:192|451:203,1,143.000004364014,0|2,1:0|0:0,0:0:0:0:
497,283,57516,1,0,1:0:0:0:
497,283,57649,2,0,L|486:362,1,71.5000021820069,2|0,0:0|0:0,0:0:0:0:
387,366,57916,6,0,B|341:342|341:342|235:360|235:360|273:300,1,214.500006546021,6|0,0:0|0:0,0:0:0:0:
306,224,58449,2,0,P|312:191|300:138,1,71.5000021820069,2|0,0:0|0:0,0:0:0:0:
233,85,58716,6,0,B|196:65|157:81|157:81|125:97|65:85|65:85|94:107|110:137,1,214.500006546021,0|0,1:0|1:0,0:0:0:0:
155,193,59249,2,0,L|145:264,1,71.5000021820069,2|0,0:0|0:0,0:0:0:0:
127,362,59516,6,0,P|194:351|277:339,1,143.000004364014,6|0,0:0|0:0,0:0:0:0:
295,243,59916,2,0,P|362:254|445:266,1,143.000004364014,2|0,0:0|0:0,0:0:0:0:
501,188,60316,2,0,P|505:138|499:112,1,71.5000021820069,4|0,1:2|0:0,0:0:0:0:
443,44,60582,1,4,3:0:0:0:
443,44,60716,1,4,3:0:0:0:
358,97,60849,2,0,P|308:101|282:95,1,71.5000021820069,4|4,3:0|3:0,0:0:0:0:
180,38,61116,5,6,0:0:0:0:
180,38,61249,2,0,L|95:46,1,71.5000021820069,2|0,0:0|0:0,0:0:0:0:
60,133,61516,2,0,L|145:141,1,71.5000021820069,2|0,0:0|0:0,0:0:0:0:
195,216,61782,1,2,0:0:0:0:
257,294,61916,2,0,B|296:275|296:275|346:320|417:289,1,143.000004364014,0|2,1:0|0:0,0:0:0:0:
364,200,62316,1,0,1:0:0:0:
364,200,62449,2,0,L|358:115,1,71.5000021820069,2|0,0:0|0:0,0:0:0:0:
293,52,62716,6,0,P|343:29|434:61,1,143.000004364014,6|0,0:0|0:0,0:0:0:0:
490,129,63116,2,0,P|440:106|349:138,1,143.000004364014,2|2,0:0|0:0,0:0:0:0:
278,189,63516,2,0,L|200:182,1,71.5000021820069,0|0,1:0|0:0,0:0:0:0:
107,172,63782,1,2,0:0:0:0:
107,172,63916,1,0,1:0:0:0:
47,252,64049,2,0,P|40:287|47:325,1,71.5000021820069,0|0,1:0|0:0,0:0:0:0:
136,366,64316,6,0,P|183:339|279:360,2,143.000004364014,6|2|2,0:0|0:0|0:0,0:0:0:0:
45,321,64982,1,0,0:0:0:0:
99,236,65116,2,0,P|93:169|87:88,1,143.000004364014,0|2,1:0|0:0,0:0:0:0:
169,35,65516,1,0,3:0:0:0:
169,35,65649,2,0,P|216:42|257:33,1,71.5000021820069,0|0,1:0|0:0,0:0:0:0:
343,32,65916,5,6,0:0:0:0:
343,32,66049,2,0,P|340:65|337:105,1,71.5000021820069,2|0,0:0|0:0,0:0:0:0:
244,142,66316,2,0,P|246:175|250:215,1,71.5000021820069,2|0,0:0|0:0,0:0:0:0:
305,295,66582,1,2,0:0:0:0:
404,308,66716,2,0,P|452:302|479:289,1,71.5000021820069,0|0,1:0|0:0,0:0:0:0:
497,203,66982,1,0,1:0:0:0:
497,203,67116,1,0,1:0:0:0:
497,203,67249,2,0,L|486:124,1,71.5000021820069,0|0,1:0|1:0,0:0:0:0:
388,60,67516,6,0,L|377:139,1,71.5000021820069,4|0,1:2|0:0,0:0:0:0:
368,237,67782,1,0,1:0:0:0:
368,237,67916,1,0,1:0:0:0:
368,237,68049,2,0,P|326:226|288:230,1,71.5000021820069,0|0,1:0|1:0,0:0:0:0:
196,295,68316,6,0,P|154:306|116:302,1,71.5000021820069,6|0,1:2|0:0,0:0:0:0:
46,244,68582,1,0,1:0:0:0:
46,244,68716,1,0,1:0:0:0:
46,244,68849,2,0,L|53:171,1,71.5000021820069,0|0,1:0|1:0,0:0:0:0:
162,119,69116,6,0,L|169:192,1,71.5000021820069,6|0,1:2|0:0,0:0:0:0:
192,85,69382,2,0,L|199:158,1,71.5000021820069,8|4,3:0|3:0,0:0:0:0:
222,51,69649,2,0,L|229:124,1,71.5000021820069,8|4,3:0|3:0,0:0:0:0:
252,17,69916,5,6,0:0:0:0:
252,17,70716,6,0,B|239:48|239:48|257:146,2,130,4|4|4,1:2|1:2|1:2,0:0:0:0:
333,57,71382,1,0,0:0:0:0:
362,143,71516,2,0,L|349:215,1,65,12|8,3:0|3:0,0:0:0:0:
328,295,71782,1,4,3:0:0:0:
328,295,71916,1,4,3:0:0:0:
239,276,72049,2,0,P|193:274|166:287,1,65,4|0,3:0|0:0,0:0:0:0:
121,353,72316,6,0,P|132:302|79:223,2,130,4|4|4,1:2|1:2|1:2,0:0:0:0:
41,308,72982,1,0,0:0:0:0:
3,224,73116,2,0,L|11:134,1,65,12|8,3:0|3:0,0:0:0:0:
77,99,73382,1,4,3:0:0:0:
77,99,73516,1,4,3:0:0:0:
157,140,73649,2,0,P|194:146|240:132,1,65,4|0,3:0|0:0,0:0:0:0:
306,109,73916,6,0,P|332:171|311:240,1,130,4|4,1:2|1:2,0:0:0:0:
255,297,74316,1,0,0:0:0:0:
320,359,74449,2,0,L|394:354,1,65,4|0,1:2|0:0,0:0:0:0:
475,344,74716,2,0,P|489:311|488:269,1,65,12|8,3:0|3:0,0:0:0:0:
472,193,74982,1,4,3:0:0:0:
472,193,75116,1,4,3:0:0:0:
409,127,75249,2,0,P|395:94|396:52,1,65,4|0,3:0|0:0,0:0:0:0:
310,27,75516,6,0,B|273:49|273:49|166:37,1,130,4|4,1:2|1:2,0:0:0:0:
98,62,75916,1,0,0:0:0:0:
37,129,76049,2,0,P|31:167|40:202,1,65,4|0,1:2|0:0,0:0:0:0:
142,161,76316,5,0,1:0:0:0:
142,161,77116,6,0,B|123:200|123:200|143:294,1,130,6|2,0:0|0:0,0:0:0:0:
205,349,77516,2,0,P|140:330|77:369,1,130,0|2,1:0|0:0,0:0:0:0:
0,327,77916,2,0,L|6:257,1,65,2|0,0:0|0:0,0:0:0:0:
38,177,78182,2,0,L|32:107,1,65,2|0,0:0|0:0,0:0:0:0:
80,34,78449,1,0,1:0:0:0:
80,34,78582,1,2,0:0:0:0:
158,81,78716,6,0,P|221:94|285:64,1,130,2|0,0:0|0:0,0:0:0:0:
342,3,79116,2,0,P|329:66|359:130,1,130,0|2,1:0|0:0,0:0:0:0:
434,169,79516,2,0,L|424:239,1,65,2|0,0:0|0:0,0:0:0:0:
338,261,79782,2,0,L|348:331,1,65,2|0,0:0|0:0,0:0:0:0:
430,377,80049,1,0,1:0:0:0:
430,377,80182,1,2,0:0:0:0:
504,322,80316,6,0,P|488:272|419:232,1,130,6|0,0:0|0:0,0:0:0:0:
338,261,80716,2,0,B|294:275|294:275|187:254,1,130,0|0,1:0|1:0,0:0:0:0:
124,231,81116,2,0,P|118:194|123:163,1,65,2|0,0:0|0:0,0:0:0:0:
170,90,81382,2,0,P|176:53|171:22,1,65,2|0,0:0|0:0,0:0:0:0:
80,22,81649,2,0,P|74:59|79:90,1,65,0|0,1:0|0:0,0:0:0:0:
122,167,81916,6,0,B|159:190|159:190|256:176,1,130,2|2,0:0|0:0,0:0:0:0:
338,163,82316,1,0,1:0:0:0:
338,163,82449,2,0,P|346:203|342:237,1,65,0|2,0:0|0:0,0:0:0:0:
308,310,82716,1,6,1:2:0:0:
308,310,83516,6,0,B|222:287|192:359|107:321|107:321|138:316|169:295,1,260,6|0,0:0|0:0,0:0:0:0:
195,228,84316,2,0,L|187:159,1,52,0|0,1:0|0:0,0:0:0:0:
118,132,84582,2,0,L|126:63,1,52,0|8,0:0|3:0,0:0:0:0:
192,30,84849,1,8,3:0:0:0:
192,30,84982,1,8,3:0:0:0:
192,30,85116,6,0,P|240:52|310:40,1,104,8|0,3:0|0:0,0:0:0:0:
364,10,85516,2,0,P|342:58|354:128,1,104,2|0,0:0|0:0,0:0:0:0:
407,163,85916,2,0,L|397:231,1,52,0|0,1:0|0:0,0:0:0:0:
341,273,86182,1,8,3:0:0:0:
341,273,86316,1,8,3:0:0:0:
341,273,86449,2,0,L|351:341,1,52,8|0,3:0|0:0,0:0:0:0:
417,371,86716,6,0,P|448:332|446:265,1,104,8|0,3:0|0:0,0:0:0:0:
399,214,87116,2,0,L|415:105,1,104,2|0,0:0|0:0,0:0:0:0:
377,36,87516,2,0,P|342:31|312:36,1,52,0|0,1:0|0:0,0:0:0:0:
270,94,87782,1,8,3:0:0:0:
270,94,87916,1,8,3:0:0:0:
270,94,88049,2,0,P|235:99|205:94,1,52,8|8,3:0|3:0,0:0:0:0:
140,66,88316,6,0,P|171:121|156:174,1,104,8|0,3:0|0:0,0:0:0:0:
99,211,88716,2,0,L|114:328,1,104,2|0,0:0|0:0,0:0:0:0:
187,350,89116,2,0,P|215:339|252:339,1,52,0|0,1:0|0:0,0:0:0:0:
326,361,89382,1,8,3:0:0:0:
326,361,89516,1,8,3:0:0:0:
326,361,89649,2,0,P|354:372|391:372,1,52,8|8,3:0|3:0,0:0:0:0:
454,346,89916,6,0,L|461:233,1,104,6|0,0:0|0:0,0:0:0:0:
506,172,90316,2,0,L|499:59,1,104,2|0,0:0|0:0,0:0:0:0:
418,47,90716,2,0,P|378:55|354:53,1,52,0|0,1:0|0:0,0:0:0:0:
291,37,90982,1,0,0:0:0:0:
291,37,91116,1,8,3:0:0:0:
291,37,91249,2,0,P|251:29|227:31,1,52,8|8,3:0|3:0,0:0:0:0:
167,71,91516,5,8,3:0:0:0:
167,71,91649,2,0,L|175:137,1,52,0|0,0:0|0:0,0:0:0:0:
207,198,91916,2,0,P|155:169|91:178,1,104,2|0,0:0|0:0,0:0:0:0:
37,209,92316,2,0,P|25:238|25:278,1,52,0|0,1:0|0:0,0:0:0:0:
50,347,92582,1,8,3:0:0:0:
50,347,92716,1,8,3:0:0:0:
50,347,92849,2,0,P|79:359|119:359,1,52,8|0,3:0|0:0,0:0:0:0:
178,333,93116,6,0,B|216:323|216:323|280:332,1,104,8|0,3:0|0:0,0:0:0:0:
359,357,93516,2,0,B|397:367|397:367|461:358,1,104,2|0,0:0|0:0,0:0:0:0:
503,285,93916,2,0,P|505:248|498:214,1,52,0|0,1:0|0:0,0:0:0:0:
436,183,94182,1,8,3:0:0:0:
436,183,94316,1,8,3:0:0:0:
436,183,94449,2,0,L|442:113,1,52,8|0,3:0|0:0,0:0:0:0:
454,48,94716,6,0,P|407:32|346:38,1,104,8|0,3:0|0:0,0:0:0:0:
296,96,95116,2,0,P|249:80|188:86,1,104,2|0,0:0|0:0,0:0:0:0:
135,142,95516,2,0,L|141:209,1,52,0|0,1:0|0:0,0:0:0:0:
204,262,95782,1,8,3:0:0:0:
204,262,95916,1,8,3:0:0:0:
204,262,96049,2,0,L|198:329,1,52,8|0,3:0|0:0,0:0:0:0:
126,355,96316,6,0,P|84:362|21:341,2,104,2|0|0,0:0|0:0|3:0,0:0:0:0:
286,309,97116,2,0,P|328:302|391:323,1,104,0|0,1:0|0:0,0:0:0:0:
467,354,97516,1,8,3:0:0:0:
467,354,97649,2,0,L|473:281,1,52,8|0,3:0|0:0,0:0:0:0:
503,224,97916,6,0,P|497:172|485:112,2,104,4|0|0,3:0|0:0|3:0,0:0:0:0:
336,224,98716,2,0,P|342:172|354:112,1,104,0|0,1:0|0:0,0:0:0:0:
367,39,99116,1,8,3:0:0:0:
367,39,99249,2,0,P|338:33|301:33,1,52,8|0,3:0|0:0,0:0:0:0:
226,53,99516,6,0,B|204:135|204:135|229:189,1,130,6|0,0:2|0:0,0:0:0:0:
258,260,99916,2,0,P|204:286|127:278,1,130,0|0,0:0|0:0,0:0:0:0:
52,243,100316,2,0,L|42:168,1,65,0|0,1:0|0:0,0:0:0:0:
5,95,100582,1,0,0:0:0:0:
12,100,100716,1,8,3:0:0:0:
12,100,100849,2,0,L|22:25,1,65,8|0,3:0|0:0,0:0:0:0:
110,19,101116,6,0,B|148:43|148:43|254:33,1,130,4|0,3:0|0:0,0:0:0:0:
323,24,101516,2,0,P|344:65|332:151,1,130,0|0,0:0|0:0,0:0:0:0:
258,196,101916,2,0,L|269:276,1,65,0|0,1:0|0:0,0:0:0:0:
353,314,102182,1,8,3:0:0:0:
353,314,102316,1,8,3:0:0:0:
353,314,102449,2,0,L|342:394,1,65,8|0,3:0|0:0,0:0:0:0:
252,381,102716,6,0,P|225:357|126:347,1,130,4|0,3:0|0:0,0:0:0:0:
45,363,103116,2,0,P|40:305|35:226,1,130,0|0,0:0|0:0,0:0:0:0:
0,148,103516,2,0,P|2:119|5:79,1,65,0|0,1:0|0:0,0:0:0:0:
82,34,103782,1,8,3:0:0:0:
82,34,103916,1,8,3:0:0:0:
82,34,104049,2,0,P|109:48|163:49,1,65,8|0,3:0|0:0,0:0:0:0:
218,0,104316,6,0,P|197:34|205:126,1,130,4|0,3:0|0:0,0:0:0:0:
260,191,104716,2,0,P|226:170|134:178,1,130,0|0,0:0|0:0,0:0:0:0:
69,234,105116,2,0,L|75:306,1,65,0|0,1:0|0:0,0:0:0:0:
152,364,105382,1,8,3:0:0:0:
152,364,105516,1,8,3:0:0:0:
152,364,105649,2,0,P|186:370|226:361,1,65,8|8,3:0|3:0,0:0:0:0:
279,298,105916,6,0,B|346:285|339:329|410:312,1,130,4|0,3:0|0:0,0:0:0:0:
477,257,106316,2,0,P|466:219|486:122,1,130,0|0,0:0|0:0,0:0:0:0:
432,53,106716,2,0,B|399:62|399:62|359:57,1,65,0|0,1:0|0:0,0:0:0:0:
292,17,106982,1,8,3:0:0:0:
292,17,107116,1,8,3:0:0:0:
292,17,107249,2,0,L|224:25,1,65,8|8,3:0|3:0,0:0:0:0:
138,45,107516,6,0,B|125:86|125:86|134:126|134:126|115:184,1,130,4|0,3:0|0:0,0:0:0:0:
91,256,107916,2,0,P|145:277|233:258,1,130,0|0,0:0|0:0,0:0:0:0:
292,218,108316,2,0,P|305:251|305:283,1,65,0|0,1:0|0:0,0:0:0:0:
274,370,108582,1,8,3:0:0:0:
274,370,108716,1,8,3:0:0:0:
274,370,108849,2,0,L|197:374,1,65,8|0,3:0|0:0,0:0:0:0:
118,379,109116,6,0,P|93:331|96:242,1,130,2|0,0:0|0:0,0:0:0:0:
160,195,109516,2,0,P|185:147|182:58,1,130,0|0,0:0|0:0,0:0:0:0:
259,17,109916,2,0,L|328:26,1,65,0|0,1:0|0:0,0:0:0:0:
391,102,110182,1,8,3:0:0:0:
391,102,110316,1,8,3:0:0:0:
391,102,110449,2,0,L|460:93,1,65,8|0,3:0|0:0,0:0:0:0:
501,172,110716,6,0,B|512:211|512:211|497:312,1,130,2|0,0:0|0:0,0:0:0:0:
421,348,111116,2,0,P|368:315|281:319,1,130,0|0,0:0|0:0,0:0:0:0:
217,347,111516,2,0,L|141:343,1,65,0|0,1:0|0:0,0:0:0:0:
78,301,111782,1,8,3:0:0:0:
78,301,111916,1,8,3:0:0:0:
78,301,112049,2,0,P|72:259|79:224,1,65,8|0,3:0|0:0,0:0:0:0:
123,159,112316,5,2,0:0:0:0:
256,192,112449,12,0,113649,0:0:0:0:
256,192,113916,5,2,0:0:0:0:
95,276,114182,1,2,0:0:0:0:
101,93,114449,1,2,0:0:0:0:
256,192,114716,2,0,B|426:169|426:169|344:224,1,260,2|0,0:0|0:0,0:0:0:0:
212,310,115516,5,6,0:0:0:0:
268,197,128316,5,0,1:0:0:0:
268,197,128449,1,4,3:0:0:0:
338,139,128583,1,0,1:0:0:0:
338,139,128716,1,4,3:0:0:0:
322,49,128849,1,0,1:0:0:0:
134,120,129116,6,0,B|101:157|101:157|120:276,1,143.000004364014,6|0,0:2|1:2,0:0:0:0:
190,316,129516,2,0,P|227:298|279:299,1,71.5000021820069,0|0,0:0|1:0,0:0:0:0:
355,313,129782,1,0,0:0:0:0:
448,274,129916,6,0,B|472:200|421:208|443:131,1,143.000004364014,6|0,0:0|1:0,0:0:0:0:
481,42,130316,1,0,0:0:0:0:
382,55,130449,2,0,L|298:44,1,71.5000021820069,0|0,1:0|0:0,0:0:0:0:
212,27,130716,6,0,B|175:61|175:61|194:168,1,143.000004364014,6|0,0:0|1:0,0:0:0:0:
240,239,131116,2,0,P|268:250|321:244,1,71.5000021820069,0|0,0:0|1:0,0:0:0:0:
404,219,131382,1,0,0:0:0:0:
453,131,131516,6,0,L|443:46,1,71.5000021820069,6|0,0:0|0:0,0:0:0:0:
354,103,131782,2,0,L|302:34,1,71.5000021820069,0|0,1:0|0:0,0:0:0:0:
262,133,132049,2,0,L|183:99,1,71.5000021820069,0|0,1:0|0:0,0:0:0:0:
196,205,132316,6,0,L|110:215,1,71.5000021820069,6|0,0:0|0:0,0:0:0:0:
38,164,132582,2,0,L|71:85,1,71.5000021820069,0|0,1:0|0:0,0:0:0:0:
154,47,132849,2,0,L|205:115,1,71.5000021820069,0|0,1:0|0:0,0:0:0:0:
280,160,133116,6,0,P|333:135|424:147,1,143.000004364014,6|0,0:0|1:0,0:0:0:0:
500,196,133516,1,0,0:0:0:0:
434,271,133649,2,0,L|362:263,1,71.5000021820069,0|0,1:0|0:0,0:0:0:0:
262,253,133916,6,0,B|219:277|219:277|106:263,1,143.000004364014,6|0,0:0|1:0,0:0:0:0:
43,207,134316,2,0,P|35:171|42:131,1,71.5000021820069,0|0,0:0|1:0,0:0:0:0:
83,47,134582,1,0,0:0:0:0:
176,84,134716,6,0,L|267:68,1,71.5000021820069,6|0,0:0|0:0,0:0:0:0:
348,72,134982,2,0,L|323:139,1,71.5000021820069,4|0,1:2|0:0,0:0:0:0:
271,226,135249,2,0,L|224:171,1,71.5000021820069,4|0,1:2|0:0,0:0:0:0:
210,300,135516,6,0,P|272:322|344:289,1,143.000004364014,6|0,0:0|1:0,0:0:0:0:
413,224,135916,2,0,L|490:220,1,71.5000021820069,0|0,0:0|1:0,0:0:0:0:
505,122,136182,1,0,0:0:0:0:
423,65,136316,6,0,B|352:41|352:87|274:65,1,143.000004364014,6|0,0:0|1:0,0:0:0:0:
183,48,136716,1,0,0:0:0:0:
117,123,136849,2,0,L|127:211,1,71.5000021820069,0|0,1:0|0:0,0:0:0:0:
170,285,137116,6,0,P|203:271|243:269,1,71.5000021820069,6|0,0:0|0:0,0:0:0:0:
328,310,137382,1,0,1:0:0:0:
407,248,137516,2,0,L|492:258,2,71.5000021820069,0|0|0,0:0|1:0|0:0,0:0:0:0:
343,170,137916,6,0,P|332:120|335:94,1,71.5000021820069,6|0,0:0|0:0,0:0:0:0:
245,52,138182,2,0,P|234:102|237:128,1,71.5000021820069,0|0,1:0|0:0,0:0:0:0:
259,224,138449,1,0,1:0:0:0:
259,224,138582,1,0,0:0:0:0:
166,264,138716,6,0,P|119:240|27:259,2,143.000004364014,6|0|0,0:0|1:0|1:0,0:0:0:0:
223,345,139382,1,0,0:0:0:0:
312,300,139516,6,0,B|337:310|359:319|359:319|404:312|470:304,1,143.000004364014,6|0,0:0|1:0,0:0:0:0:
504,221,139916,1,0,0:0:0:0:
458,131,140049,2,0,P|414:126|371:140,1,71.5000021820069,0|0,1:0|0:0,0:0:0:0:
291,161,140316,6,0,L|277:71,1,71.5000021820069,6|0,0:0|0:0,0:0:0:0:
195,143,140582,2,0,L|137:72,1,71.5000021820069,0|0,1:0|0:0,0:0:0:0:
104,176,140849,2,0,L|19:143,1,71.5000021820069,0|0,1:0|0:0,0:0:0:0:
0,243,141116,6,0,L|8:322,1,71.5000021820069,6|0,0:0|0:0,0:0:0:0:
102,370,141382,1,0,1:0:0:0:
102,370,141516,1,0,1:0:0:0:
102,370,141649,2,0,P|140:366|181:343,1,71.5000021820069,0|0,1:0|1:0,0:0:0:0:
230,246,141916,6,0,L|326:253,1,71.5000021820069,6|0,0:0|0:0,0:0:0:0:
408,256,142182,1,0,1:0:0:0:
408,256,142316,1,0,1:0:0:0:
408,256,142449,2,0,P|418:215|413:172,1,71.5000021820069,0|0,1:0|1:0,0:0:0:0:
292,181,142716,6,0,P|290:216|300:250,1,71.5000021820069,6|0,0:0|0:0,0:0:0:0:
335,355,142982,1,0,1:0:0:0:
335,355,143116,1,0,1:0:0:0:
335,355,143249,2,0,L|237:363,1,71.5000021820069,0|0,1:0|1:0,0:0:0:0:
147,322,143516,6,0,L|72:314,1,71.5000021820069,6|0,0:0|0:0,0:0:0:0:
180,292,143782,2,0,L|105:284,1,71.5000021820069,8|4,3:0|3:0,0:0:0:0:
214,263,144049,2,0,L|139:255,1,71.5000021820069,8|4,3:0|3:0,0:0:0:0:
257,227,144316,5,6,0:0:0:0:
257,227,145116,6,0,P|236:177|259:103,1,130,6|0,0:0|0:0,0:0:0:0:
347,106,145516,2,0,P|368:156|345:230,1,130,0|0,1:0|0:0,0:0:0:0:
257,227,145916,2,0,P|207:206|133:229,2,130,2|2|0,0:0|0:0|1:0,0:0:0:0:
89,298,146716,6,0,L|78:158,1,130,2|0,0:0|0:0,0:0:0:0:
71,77,147116,2,0,P|123:45|200:51,1,130,0|0,1:0|1:0,0:0:0:0:
270,91,147516,2,0,P|322:59|399:65,2,130,2|2|0,0:0|0:0|1:0,0:0:0:0:
149,227,148316,6,0,B|139:311|139:311|166:360,1,130,2|0,0:0|0:0,0:0:0:0:
252,350,148716,2,0,B|262:266|262:266|235:217,1,130,0|0,1:0|1:0,0:0:0:0:
188,151,149116,2,0,P|130:188|60:178,2,130,2|2|0,0:0|0:0|1:0,0:0:0:0:
308,14,149916,6,0,L|449:26,1,130,2|0,0:0|0:0,0:0:0:0:
437,116,150316,2,0,L|296:128,1,130,0|0,1:0|0:0,0:0:0:0:
218,147,150716,2,0,P|213:189|222:223,1,65,4|0,1:2|0:0,0:0:0:0:
257,298,150982,1,8,3:0:0:0:
257,298,151116,1,8,3:0:0:0:
202,370,151249,1,8,3:0:0:0:
202,370,151382,1,8,3:0:0:0:
114,343,151516,6,0,L|94:201,1,130,6|0,0:0|0:0,0:0:0:0:
18,165,151916,2,0,L|38:23,1,130,0|0,1:0|0:0,0:0:0:0:
125,17,152316,2,0,P|177:35|254:2,2,130,2|2|0,0:0|0:0|1:0,0:0:0:0:
18,165,153116,6,0,P|77:140|138:158,1,130,2|0,0:0|0:0,0:0:0:0:
211,213,153516,2,0,P|270:237|331:219,1,130,0|0,1:0|1:0,0:0:0:0:
413,179,153916,2,0,L|429:333,2,130,2|2|0,0:0|0:0|1:0,0:0:0:0:
290,43,154716,6,0,B|252:59|252:59|155:52,1,130,2|0,0:0|0:0,0:0:0:0:
72,40,155116,2,0,B|56:78|56:78|63:175,1,130,0|0,1:0|1:0,0:0:0:0:
125,232,155516,2,0,P|85:211|-3:233,2,130,2|2|0,0:0|0:0|1:0,0:0:0:0:
268,344,156316,6,0,L|403:332,1,130,6|2,0:0|0:0,0:0:0:0:
467,273,156716,1,0,1:0:0:0:
467,273,156849,2,0,P|468:233|459:203,1,65,2|0,0:0|0:0,0:0:0:0:
378,169,157116,2,0,L|362:18,1,130,6|2,0:0|0:0,0:0:0:0:
281,18,157516,1,0,1:0:0:0:
281,18,157649,2,0,P|240:24|203:19,1,65,2|0,0:0|0:0,0:0:0:0:
91,18,157916,6,0,L|77:105,1,71.5000021820069,6|0,0:0|0:0,0:0:0:0:
165,139,158182,2,0,L|196:221,1,71.5000021820069,4|0,1:2|0:0,0:0:0:0:
290,194,158449,2,0,L|358:249,1,71.5000021820069,4|0,1:2|0:0,0:0:0:0:
430,304,158716,1,4,1:2:0:0:
430,304,158849,1,8,3:0:0:0:
502,235,158982,1,4,3:0:0:0:
502,235,159116,1,4,3:0:0:0:
422,175,159249,1,4,3:0:0:0:
300,334,159516,6,0,L|205:338,1,71.5000021820069,6|0,0:0|0:0,0:0:0:0:
254,240,159782,2,0,L|169:195,1,71.5000021820069,4|0,1:2|0:0,0:0:0:0:
250,125,160049,2,0,L|199:44,1,71.5000021820069,4|0,1:2|0:0,0:0:0:0:
124,25,160316,1,4,1:2:0:0:
124,25,160449,1,8,3:0:0:0:
50,92,160582,1,4,3:0:0:0:
50,92,160716,1,4,3:0:0:0:
140,134,160849,1,4,3:0:0:0:
336,95,161116,6,0,L|349:177,1,71.5000021820069,6|0,0:0|0:0,0:0:0:0:
446,152,161382,2,0,L|416:229,1,71.5000021820069,4|0,1:2|0:0,0:0:0:0:
510,263,161649,2,0,L|445:315,1,71.5000021820069,4|0,1:2|0:0,0:0:0:0:
378,373,161916,1,4,1:2:0:0:
378,373,162049,2,0,L|288:366,1,71.5000021820069,4|4,3:0|3:0,0:0:0:0:
213,330,162316,1,4,3:0:0:0:
213,330,162449,2,0,P|212:294|226:249,1,71.5000021820069,4|4,3:0|3:0,0:0:0:0:
302,177,162716,5,4,1:2:0:0:
302,177,162849,2,0,P|307:138|296:87,1,71.5000021820069,4|4,3:0|3:0,0:0:0:0:
204,83,163116,1,4,3:0:0:0:
204,83,163249,2,0,L|118:90,1,71.5000021820069,4|4,3:0|3:0,0:0:0:0:
56,154,163516,2,0,L|13:150,2,35.7500010910034,4|4|4,1:2|3:0|3:0,0:0:0:0:
127,224,163782,2,0,L|170:220,2,35.7500010910034,8|8|8,3:0|3:0|3:0,0:0:0:0:
68,305,164049,2,0,B|101:323|101:323|154:323,1,71.5000021820069,4|0,1:2|0:0,0:0:0:0:
259,314,164316,6,0,P|319:280|370:284,1,107.25000327301,6|0,0:0|0:0,0:0:0:0:
379,288,164582,2,0,L|385:159,1,107.25000327301,4|0,1:2|0:0,0:0:0:0:
406,167,164849,2,0,L|399:38,1,107.25000327301,4|0,1:2|0:0,0:0:0:0:
401,34,165116,6,0,P|348:55|297:48,1,107.25000327301,4|0,1:2|0:0,0:0:0:0:
276,37,165382,2,0,P|223:16|172:23,1,107.25000327301,4|0,1:2|0:0,0:0:0:0:
152,34,165649,2,0,L|145:162,1,107.25000327301,4|0,1:2|0:0,0:0:0:0:
144,166,165916,6,0,B|101:153|101:153|20:172,1,107.25000327301,6|0,0:0|0:0,0:0:0:0:
19,180,166182,2,0,B|32:223|32:223|13:304,1,107.25000327301,6|0,0:0|0:0,0:0:0:0:
12,308,166449,2,0,P|68:326|121:313,1,107.25000327301,6|0,0:0|0:0,0:0:0:0:
138,307,166716,6,0,L|157:380,1,71.5000021820069,4|0,1:2|0:0,0:0:0:0:
230,309,166982,2,0,L|282:362,1,71.5000021820069,4|0,1:2|0:0,0:0:0:0:
309,263,167249,2,0,L|381:283,1,71.5000021820069,4|0,1:2|0:0,0:0:0:0:
471,204,167516,6,0,P|479:168|466:108,1,71.5000021820069,6|0,0:0|0:0,0:0:0:0:
466,34,167782,2,0,P|430:45|385:86,1,71.5000021820069,4|0,1:2|0:0,0:0:0:0:
321,124,168049,2,0,P|348:148|406:167,1,71.5000021820069,4|0,1:2|0:0,0:0:0:0:
318,33,168316,6,0,L|234:37,1,71.5000021820069,6|0,0:0|0:0,0:0:0:0:
151,48,168582,1,0,1:0:0:0:
151,48,168716,1,0,1:0:0:0:
90,127,168849,1,0,1:0:0:0:
90,127,168983,1,0,1:0:0:0:
138,205,169116,6,0,L|226:210,1,77.999997619629,2|0,0:0|0:0,0:0:0:0:
334,213,169669,1,0,0:0:0:0:
427,142,169939,2,0,P|434:103|425:57,1,77.999997619629
