osu file format v14

[General]
AudioFilename: audio.mp3
AudioLeadIn: 0
PreviewTime: 54382
Countdown: 0
SampleSet: Soft
StackLeniency: 0.5
Mode: 0
LetterboxInBreaks: 0
WidescreenStoryboard: 1

[Editor]
DistanceSpacing: 1
BeatDivisor: 4
GridSize: 16
TimelineZoom: 1

[Metadata]
Title:Noise (English ver.)
TitleUnicode:ノイズ(English ver.)
Artist:Mio Yamazaki
ArtistUnicode:ミオヤマザキ
Creator:Akitoshi
Version:Easy
Source:地獄少女 宵伽
Tags:Corinn English Jigoku Shoujo Yoi no Togi Opening Hey lululu Asagi
BeatmapID:1488582
BeatmapSetID:702892

[Difficulty]
HPDrainRate:3
CircleSize:3
OverallDifficulty:3
ApproachRate:4.5
SliderMultiplier:0.699999999999999
SliderTickRate:1

[Events]
//Background and Video events
0,0,"bg on bottom d.jpg",0,0
//Break Periods
2,115716,126996
//Storyboard Layer 0 (Background)
//Storyboard Layer 1 (Fail)
//Storyboard Layer 2 (Pass)
//Storyboard Layer 3 (Foreground)
//Storyboard Sound Samples

[TimingPoints]
316,266.666666666667,3,2,0,50,1,0
316,-100,3,2,0,50,0,0
12849,-100,3,2,0,50,0,0
13116,-83.3333333333333,3,2,0,80,0,0
25916,-100,3,2,0,60,0,0
38649,-100,3,2,0,5,0,0
38716,-83.3333333333333,3,2,0,70,0,0
48316,-83.3333333333333,3,2,0,75,0,0
53116,-83.3333333333333,3,2,0,70,0,0
53382,-83.3333333333333,3,2,0,70,0,0
53649,-83.3333333333333,3,2,0,70,0,0
53916,-83.3333333333333,3,2,0,70,0,0
54449,-83.3333333333333,3,2,0,50,0,0
54716,-83.3333333333333,3,2,0,100,0,1
69916,-83.3333333333333,3,2,0,100,0,0
70716,-83.3333333333333,3,2,0,80,0,0
76316,-83.3333333333333,3,2,0,80,0,0
76449,-83.3333333333333,3,2,0,20,0,0
76982,-83.3333333333333,3,2,0,60,0,0
77116,-83.3333333333333,3,2,0,80,0,0
83516,-100,3,2,0,60,0,0
96316,-100,3,2,0,60,0,0
99516,-83.3333333333333,3,2,0,70,0,0
109116,-83.3333333333333,3,2,0,75,0,0
113916,-83.3333333333333,3,2,0,75,0,0
114182,-83.3333333333333,3,2,0,75,0,0
114449,-83.3333333333333,3,2,0,75,0,0
114716,-83.3333333333333,3,2,0,75,0,0
115249,-83.3333333333333,3,2,0,5,0,0
115516,-100,3,2,0,60,0,0
128316,-83.3333333333333,3,2,0,80,0,0
129116,-83.3333333333333,4,2,0,100,0,1
144316,-83.3333333333333,4,2,0,100,0,0
145116,-83.3333333333333,4,2,0,80,0,0
157916,-83.3333333333333,4,2,0,100,0,1
164182,-83.3333333333333,4,2,0,100,0,0
164316,-83.3333333333333,4,2,0,100,0,1
169116,303.030303030303,4,2,0,50,1,0
169669,270.27027027027,4,2,0,20,1,0
170209,-100,4,2,0,5,0,0

[Colours]
Combo1 : 255,192,0
Combo2 : 255,128,64
Combo3 : 255,128,128
Combo4 : 242,24,57

[HitObjects]
25,114,316,6,0,B|93:98|93:98|160:122|160:122|241:99,1,210,4|0,3:0|0:0,0:0:0:0:
318,292,1916,2,0,B|250:276|250:276|183:300|183:300|102:277,1,210,2|0,0:0|0:0,0:0:0:0:
226,103,3516,6,0,P|286:73|419:109,1,210,2|0,0:0|0:0,0:0:0:0:
318,292,5116,2,0,L|200:281,2,105,2|0|2,0:0|0:0|0:0,0:0:0:0:
496,182,6716,6,0,B|437:149|437:149|285:167,1,210,2|0,0:0|0:0,0:0:0:0:
139,25,8316,2,0,B|198:58|198:58|350:40,1,210,2|0,0:0|0:0,0:0:0:0:
496,182,9916,6,0,P|448:240|314:248,1,210,2|0,0:0|0:0,0:0:0:0:
120,187,11516,2,0,L|127:80,2,105,2|0|0,0:0|0:0|0:0,0:0:0:0:
292,371,13116,6,0,P|352:368|423:288,1,167.999994873047,6|4,0:0|1:2,0:0:0:0:
421,208,13916,2,0,L|504:211,2,83.9999974365234,4|4|4,1:2|1:2|1:2,0:0:0:0:
362,147,14716,2,0,L|180:154,1,167.999994873047,4|4,1:2|1:2,0:0:0:0:
130,208,15516,2,0,L|46:204,2,83.9999974365234,4|4|4,1:2|1:2|1:2,0:0:0:0:
173,280,16316,6,0,P|105:312|15:280,1,167.999994873047,4|4,1:2|1:2,0:0:0:0:
46,204,17116,2,0,B|66:155|66:155|54:34,1,167.999994873047,4|4,1:2|1:2,0:0:0:0:
138,35,17916,2,0,P|210:67|299:34,1,167.999994873047,4|4,1:2|1:2,0:0:0:0:
370,70,18716,2,0,P|418:53|461:55,2,83.9999974365234,4|4|6,1:2|1:2|1:2,0:0:0:0:
313,132,19516,6,0,L|331:308,1,167.999994873047,4|6,1:2|1:2,0:0:0:0:
399,346,20316,2,0,P|323:330|243:369,1,167.999994873047,4|6,1:2|1:2,0:0:0:0:
160,374,21116,2,0,P|122:300|137:219,1,167.999994873047,4|6,1:2|1:2,0:0:0:0:
173,143,21916,2,0,P|140:115|88:100,1,83.9999974365234,4|4,1:2|1:2,0:0:0:0:
20,121,22449,1,6,1:2:0:0:
0,202,22716,6,0,B|6:322|6:322|56:352,1,167.999994873047,4|4,1:2|1:2,0:0:0:0:
128,367,23516,2,0,P|181:326|286:330,1,167.999994873047,4|4,1:2|1:2,0:0:0:0:
348,372,24316,2,0,P|307:319|311:214,1,167.999994873047,4|4,1:2|1:2,0:0:0:0:
354,151,25116,2,0,L|346:62,1,83.9999974365234,4|0,1:2|1:0,0:0:0:0:
276,20,25649,1,0,1:0:0:0:
208,69,25916,6,0,P|113:84|14:23,2,210,4|0|2,0:0|1:0|0:0,0:0:0:0:
386,6,28316,2,0,L|379:157,1,140,0|2,1:0|0:0,0:0:0:0:
376,194,29116,6,0,P|281:179|182:240,2,210,2|0|2,0:0|1:0|0:0,0:0:0:0:
239,353,31516,2,0,L|91:338,1,140,0|2,1:0|0:0,0:0:0:0:
51,329,32316,6,0,B|12:269|23:196|23:196|54:185|81:148,2,210,2|0|2,0:0|1:0|0:0,0:0:0:0:
243,244,34716,2,0,P|282:244|366:307,1,140,0|2,1:0|0:0,0:0:0:0:
396,336,35516,6,0,P|428:278|414:133,1,210,2|0,0:0|1:0,0:0:0:0:
219,65,37116,2,0,P|187:123|201:268,1,210,6|2,0:0|0:0,0:0:0:0:
396,336,38716,6,0,L|220:348,1,167.999994873047,6|2,0:0|0:0,0:0:0:0:
145,331,39516,2,0,L|57:325,1,83.9999974365234,2|2,0:0|0:0,0:0:0:0:
3,263,40049,1,0,1:0:0:0:
24,181,40316,2,0,P|69:143|184:152,1,167.999994873047,2|2,0:0|0:0,0:0:0:0:
242,193,41116,2,0,L|329:184,1,83.9999974365234,2|2,0:0|0:0,0:0:0:0:
408,170,41649,1,0,1:0:0:0:
477,123,41916,6,0,P|454:66|351:27,1,167.999994873047,2|2,0:0|0:0,0:0:0:0:
287,66,42716,2,0,L|188:63,1,83.9999974365234,2|2,0:0|0:0,0:0:0:0:
118,60,43249,1,0,1:0:0:0:
52,113,43516,2,0,B|39:164|39:164|54:224|54:224|39:282,1,167.999994873047,2|2,0:0|0:0,0:0:0:0:
70,354,44316,2,0,P|115:361|165:350,1,83.9999974365234,2|2,0:0|0:0,0:0:0:0:
217,301,44849,1,0,1:0:0:0:
255,225,45116,6,0,B|347:208|326:274|426:255,1,167.999994873047,6|2,0:0|0:0,0:0:0:0:
487,214,45916,2,0,L|482:124,1,83.9999974365234,2|2,0:0|0:0,0:0:0:0:
434,60,46449,1,0,1:0:0:0:
359,99,46716,2,0,P|279:123|200:86,1,167.999994873047,2|2,0:0|0:0,0:0:0:0:
142,33,47516,2,0,L|55:37,1,83.9999974365234,2|2,0:0|0:0,0:0:0:0:
16,109,48049,1,0,1:0:0:0:
44,188,48316,6,0,P|97:227|280:188,1,251.99999230957,6|2,0:0|0:0,0:0:0:0:
500,95,49916,2,0,P|447:56|264:95,1,251.99999230957,6|2,0:0|0:0,0:0:0:0:
256,192,51516,12,2,53116,0:0:0:0:
283,275,54716,6,0,P|226:304|149:299,2,125.999996154785,6|2|0,0:0|0:0|1:0,0:0:0:0:
342,215,55782,1,2,0:0:0:0:
342,130,56049,1,2,0:0:0:0:
282,70,56316,2,0,P|225:41|148:46,2,125.999996154785,2|2|0,0:0|0:0|1:0,0:0:0:0:
342,130,57382,1,2,0:0:0:0:
342,215,57649,1,2,0:0:0:0:
282,275,57916,6,0,B|248:302|248:302|184:324|130:286,1,167.999994873047,6|2,0:0|0:0,0:0:0:0:
77,220,58716,2,0,B|68:161|68:161|89:113|89:113|81:48,1,167.999994873047,0|2,1:0|0:0,0:0:0:0:
157,20,59516,2,0,P|213:41|251:113,2,125.999996154785,6|2|4,0:0|0:0|1:2,0:0:0:0:
82,57,60582,1,4,3:0:0:0:
54,136,60849,1,4,3:0:0:0:
103,204,61116,6,0,L|87:340,2,125.999996154785,6|2|0,0:0|0:0|1:0,0:0:0:0:
177,165,62182,1,2,0:0:0:0:
255,194,62449,1,2,0:0:0:0:
277,275,62716,2,0,L|409:261,2,125.999996154785,6|2|0,0:0|0:0|1:0,0:0:0:0:
236,348,63782,1,2,0:0:0:0:
157,377,64049,1,0,1:0:0:0:
88,329,64316,6,0,P|46:342|2:339,2,83.9999974365234,6|2|2,0:0|0:0|0:0,0:0:0:0:
144,266,65116,2,0,B|173:189|106:179|151:93,1,167.999994873047,0|0,1:0|1:0,0:0:0:0:
212,51,65916,2,0,P|138:61|90:34,2,125.999996154785,6|2|0,0:0|0:0|1:0,0:0:0:0:
291,23,66982,1,0,1:0:0:0:
357,73,67249,1,0,1:0:0:0:
359,157,67516,6,0,B|312:187|312:187|199:171,1,167.999994873047,4|0,1:2|1:0,0:0:0:0:
117,162,68316,2,0,P|83:240|99:327,1,167.999994873047,6|0,1:2|1:0,0:0:0:0:
163,368,69116,2,0,L|265:361,1,83.9999974365234,6|8,1:2|3:0,0:0:0:0:
330,357,69649,1,8,3:0:0:0:
393,302,69916,1,6,0:0:0:0:
283,74,70716,6,0,P|206:74|143:140,1,167.999994873047,4|4,1:2|1:2,0:0:0:0:
120,216,71516,2,0,L|30:207,2,83.9999974365234,12|4|4,3:0|3:0|3:0,0:0:0:0:
178,276,72316,2,0,L|360:257,1,167.999994873047,4|4,1:2|1:2,0:0:0:0:
417,216,73116,2,0,L|507:225,2,83.9999974365234,12|4|4,3:0|3:0|3:0,0:0:0:0:
388,137,73916,6,0,P|345:93|233:95,1,167.999994873047,4|4,1:2|1:2,0:0:0:0:
178,143,74716,2,0,L|85:133,1,83.9999974365234,12|4,3:0|3:0,0:0:0:0:
17,168,75249,1,4,3:0:0:0:
40,248,75516,2,0,P|113:284|201:263,1,167.999994873047,4|4,1:2|1:2,0:0:0:0:
260,214,76316,1,0,1:0:0:0:
458,58,77116,6,0,L|446:232,1,167.999994873047,6|0,0:0|0:0,0:0:0:0:
373,266,77916,2,0,L|378:353,2,83.9999974365234,2|2|0,0:0|0:0|1:0,0:0:0:0:
322,198,78716,2,0,B|242:186|240:244|157:228,1,167.999994873047,2|0,0:0|0:0,0:0:0:0:
83,195,79516,2,0,L|89:107,2,83.9999974365234,2|2|0,0:0|0:0|1:0,0:0:0:0:
41,268,80316,6,0,P|84:335|172:360,1,167.999994873047,6|0,0:0|0:0,0:0:0:0:
241,326,81116,2,0,L|331:331,1,83.9999974365234,2|2,0:0|0:0,0:0:0:0:
408,335,81649,1,0,1:0:0:0:
479,289,81916,2,0,P|504:213|470:116,1,167.999994873047,2|0,0:0|0:0,0:0:0:0:
417,75,82716,1,6,1:2:0:0:
221,151,83516,6,0,P|163:170|35:97,2,210,6|0|8,0:0|1:0|3:0,0:0:0:0:
417,75,85916,2,0,L|498:83,2,69.9999999999999,0|8|8,1:0|3:0|3:0,0:0:0:0:
368,71,86716,6,0,P|402:175|360:274,2,210,8|0|8,3:0|1:0|3:0,0:0:0:0:
159,43,89116,2,0,L|75:53,2,69.9999999999999,0|8|8,1:0|3:0|3:0,0:0:0:0:
207,35,89916,6,0,B|238:84|238:84|215:244,2,210,6|0|8,0:0|1:0|3:0,0:0:0:0:
79,202,92316,2,0,L|-2:203,2,69.9999999999999,0|8|8,1:0|3:0|3:0,0:0:0:0:
127,194,93116,6,0,P|219:136|322:151,2,210,8|0|4,3:0|1:0|3:3,0:0:0:0:
272,345,95516,2,0,L|353:341,2,69.9999999999999,0|8|8,1:0|3:0|3:0,0:0:0:0:
223,352,96316,6,0,B|183:295|183:295|212:149,2,210,2|0|4,0:0|1:0|3:0,0:0:0:0:
429,313,98716,2,0,L|505:318,2,69.9999999999999,0|0|8,1:0|0:0|3:0,0:0:0:0:
367,255,99516,6,0,B|347:177|405:168|372:82,1,167.999994873047,6|2,0:2|0:0,0:0:0:0:
305,44,100316,2,0,P|266:51|217:39,1,83.9999974365234,0|0,1:0|0:0,0:0:0:0:
143,15,100849,1,8,3:0:0:0:
63,43,101116,2,0,P|32:103|46:207,1,167.999994873047,4|2,3:0|0:0,0:0:0:0:
102,259,101916,2,0,L|191:254,1,83.9999974365234,0|8,1:0|3:0,0:0:0:0:
269,245,102449,1,8,3:0:0:0:
313,173,102716,6,0,P|384:159|470:213,1,167.999994873047,4|2,3:0|0:0,0:0:0:0:
463,288,103516,2,0,P|428:316|372:327,1,83.9999974365234,0|8,1:0|3:0,0:0:0:0:
306,324,104049,1,8,3:0:0:0:
237,274,104316,2,0,B|174:271|133:311|133:311|63:295,1,167.999994873047,4|2,3:0|0:0,0:0:0:0:
30,231,105116,2,0,P|24:189|35:142,1,83.9999974365234,0|8,1:0|3:0,0:0:0:0:
86,84,105649,1,8,3:0:0:0:
165,111,105916,6,0,B|219:133|219:133|329:107,1,167.999994873047,4|2,3:0|0:0,0:0:0:0:
407,86,106716,2,0,P|427:124|433:184,1,83.9999974365234,0|8,1:0|3:0,0:0:0:0:
403,242,107249,1,8,3:0:0:0:
335,292,107516,2,0,P|268:255|169:255,1,167.999994873047,4|2,3:0|0:0,0:0:0:0:
94,263,108316,2,0,L|88:168,1,83.9999974365234,0|8,1:0|3:0,0:0:0:0:
84,95,108849,1,8,3:0:0:0:
153,47,109116,6,0,B|236:31|236:31|314:61|314:61|411:41,1,251.99999230957,2|0,0:0|1:0,0:0:0:0:
509,269,110716,2,0,B|426:253|426:253|348:283|348:283|251:263,1,251.99999230957,2|0,0:0|1:0,0:0:0:0:
256,192,112316,12,6,115516,0:0:0:0:
109,191,128316,6,0,L|14:202,2,83.9999974365234,0|0|0,1:0|1:0|1:0,0:0:0:0:
175,138,129116,6,0,P|226:106|334:124,1,167.999994873047,6|0,0:2|1:0,0:0:0:0:
399,166,129916,2,0,L|386:338,1,167.999994873047,6|0,0:0|1:0,0:0:0:0:
307,362,130716,2,0,B|226:373|226:373|176:356,2,125.999996154785,6|0|6,0:0|0:0|0:0,0:0:0:0:
386,333,131782,1,0,1:0:0:0:
431,262,132049,1,0,1:0:0:0:
397,184,132316,6,0,P|355:177|307:188,1,83.9999974365234,6|0,0:0|1:0,0:0:0:0:
237,218,132849,1,0,1:0:0:0:
187,285,133116,2,0,L|11:270,1,167.999994873047,6|0,0:0|1:0,0:0:0:0:
10,187,133916,2,0,P|13:95|72:38,1,167.999994873047,6|0,0:0|1:0,0:0:0:0:
144,61,134716,2,0,P|186:70|234:61,1,83.9999974365234,6|4,0:0|1:2,0:0:0:0:
300,23,135249,1,4,1:2:0:0:
361,80,135516,6,0,B|370:137|370:137|353:190|353:190|365:248,1,167.999994873047,6|0,0:0|1:0,0:0:0:0:
439,280,136316,2,0,P|375:265|287:320,1,167.999994873047,6|0,0:0|1:0,0:0:0:0:
218,358,137116,2,0,P|161:371|90:350,2,125.999996154785,6|0|6,0:0|0:0|0:0,0:0:0:0:
290,314,138182,1,0,1:0:0:0:
327,238,138449,1,0,1:0:0:0:
298,158,138716,6,0,L|204:151,1,83.9999974365234,6|0,0:0|1:0,0:0:0:0:
130,143,139249,1,0,1:0:0:0:
45,144,139516,2,0,P|15:218|46:307,1,167.999994873047,6|0,0:0|1:0,0:0:0:0:
112,341,140316,2,0,L|213:334,1,83.9999974365234,6|0,0:0|1:0,0:0:0:0:
279,323,140849,1,0,1:0:0:0:
341,266,141116,1,6,0:0:0:0:
331,182,141382,2,0,L|340:89,1,83.9999974365234,0|0,1:0|1:0,0:0:0:0:
374,21,141916,6,0,P|417:16|469:35,1,83.9999974365234,6|0,0:0|1:0,0:0:0:0:
512,88,142449,1,0,1:0:0:0:
490,168,142716,2,0,P|419:197|324:177,1,167.999994873047,6|0,0:0|1:0,0:0:0:0:
266,127,143516,2,0,L|266:27,2,83.9999974365234,6|8|8,0:0|3:0|3:0,0:0:0:0:
213,192,144316,1,6,0:0:0:0:
8,339,145116,6,0,L|-1:211,2,125.999996154785,6|0|2,0:0|1:0|0:0,0:0:0:0:
84,372,146182,1,2,0:0:0:0:
168,369,146449,1,0,1:0:0:0:
237,321,146716,2,0,P|302:335|359:320,2,125.999996154785,2|0|2,0:0|1:0|0:0,0:0:0:0:
163,281,147782,1,2,0:0:0:0:
131,203,148049,1,0,1:0:0:0:
177,132,148316,6,0,L|173:5,2,125.999996154785,2|0|2,0:0|1:0|0:0,0:0:0:0:
238,188,149382,1,2,0:0:0:0:
321,198,149649,1,0,1:0:0:0:
385,142,149916,2,0,P|459:154|511:235,1,167.999994873047,2|0,0:0|0:0,0:0:0:0:
486,307,150716,2,0,L|403:304,1,83.9999974365234,4|8,1:2|3:0,0:0:0:0:
317,303,151249,1,8,3:0:0:0:
253,248,151516,6,0,P|194:260|125:239,2,125.999996154785,6|0|2,0:0|1:0|0:0,0:0:0:0:
321,198,152582,1,2,0:0:0:0:
321,113,152849,1,0,1:0:0:0:
253,62,153116,2,0,P|194:50|125:71,2,125.999996154785,2|0|2,0:0|1:0|0:0,0:0:0:0:
321,113,154182,1,2,0:0:0:0:
321,198,154449,1,0,1:0:0:0:
253,248,154716,6,0,P|278:315|275:377,2,125.999996154785,2|0|2,0:0|1:0|0:0,0:0:0:0:
195,187,155782,1,2,0:0:0:0:
111,178,156049,1,0,1:0:0:0:
40,224,156316,2,0,L|48:308,2,83.9999974365234,6|2|2,0:0|0:0|0:0,0:0:0:0:
4,147,157116,2,0,P|33:98|150:73,1,167.999994873047,6|2,0:0|0:0,0:0:0:0:
213,98,157916,6,0,L|304:92,1,83.9999974365234,6|4,0:0|1:2,0:0:0:0:
356,151,158449,1,4,1:2:0:0:
415,210,158716,2,0,L|506:216,2,83.9999974365234,4|4|4,1:2|3:0|3:0,0:0:0:0:
363,276,159516,2,0,L|272:282,1,83.9999974365234,6|4,0:0|1:2,0:0:0:0:
220,223,160049,1,4,1:2:0:0:
161,164,160316,2,0,L|70:158,2,83.9999974365234,4|4|4,1:2|3:0|3:0,0:0:0:0:
221,105,161116,6,0,P|260:89|311:91,1,83.9999974365234,6|4,0:0|1:2,0:0:0:0:
377,125,161649,1,4,1:2:0:0:
422,195,161916,2,0,L|513:189,2,83.9999974365234,4|4|4,1:2|3:0|3:0,0:0:0:0:
362,254,162716,2,0,L|271:248,2,83.9999974365234,4|4|4,1:2|3:0|3:0,0:0:0:0:
422,312,163516,2,0,B|464:302|464:302|513:306,2,83.9999974365234,4|8|4,1:2|3:0|1:2,0:0:0:0:
353,360,164316,6,0,L|262:354,1,83.9999974365234,6|4,0:0|1:2,0:0:0:0:
198,309,164849,1,4,1:2:0:0:
128,262,165116,2,0,L|37:268,2,83.9999974365234,4|4|4,1:2|1:2|1:2,0:0:0:0:
178,194,165916,2,0,P|218:173|267:173,1,83.9999974365234,6|4,0:0|1:2,0:0:0:0:
337,190,166449,1,4,1:2:0:0:
399,246,166716,2,0,L|395:334,2,83.9999974365234,4|4|4,1:2|1:2|1:2,0:0:0:0:
463,191,167516,6,0,P|475:141|469:105,1,83.9999974365234,6|4,0:0|1:2,0:0:0:0:
427,36,168049,1,4,1:2:0:0:
353,76,168316,2,0,L|258:71,1,83.9999974365234,6|0,0:0|1:0,0:0:0:0:
185,67,168849,1,0,1:0:0:0:
123,124,169116,6,0,L|128:198,1,69.9999999999999,2|0,0:0|0:0,0:0:0:0:
177,262,169669,1,0,0:0:0:0:
240,316,169939,1,0,0:0:0:0:
