osu file format v14

[General]
AudioFilename: audio.mp3
AudioLeadIn: 0
PreviewTime: 54382
Countdown: 0
SampleSet: Soft
StackLeniency: 0.4
Mode: 0
LetterboxInBreaks: 0
WidescreenStoryboard: 0

[Editor]
Bookmarks: 1916,13116,25916,38716
DistanceSpacing: 1.1
BeatDivisor: 4
GridSize: 32
TimelineZoom: 1.9

[Metadata]
Title:Noise (English ver.)
TitleUnicode:ノイズ(English ver.)
Artist:Mio Yamazaki
ArtistUnicode:ミオヤマザキ
Creator:Akitoshi
Version:Asagi's Insane
Source:地獄少女 宵伽
Tags:Corinn English Jigoku Shoujo Yoi no Togi Opening Hey lululu Asagi
BeatmapID:1500459
BeatmapSetID:702892

[Difficulty]
HPDrainRate:6
CircleSize:3.8
OverallDifficulty:7.8
ApproachRate:9
SliderMultiplier:1.4
SliderTickRate:1

[Events]
//Background and Video events
0,0,"bg on bottom d.jpg",0,0
//Break Periods
2,115516,127716
//Storyboard Layer 0 (Background)
//Storyboard Layer 1 (Fail)
//Storyboard Layer 2 (Pass)
//Storyboard Layer 3 (Foreground)
//Storyboard Sound Samples

[TimingPoints]
316,266.666666666667,3,2,0,50,1,0
316,-200,3,2,0,50,0,0
13116,-83.3333333333333,3,2,0,70,0,0
18716,-80,3,2,0,70,0,0
18982,-76.9230769230769,3,2,0,80,0,0
19249,-74.0740740740741,3,2,0,90,0,0
19516,-83.3333333333333,3,2,0,70,0,0
25916,-100,3,2,0,60,0,0
37916,-125,3,2,0,60,0,0
38649,-125,3,2,0,5,0,0
38716,-100,3,2,0,70,0,0
39782,-90.9090909090909,3,2,0,70,0,0
40049,-83.3333333333333,3,2,0,70,0,0
40316,-100,3,2,0,70,0,0
41382,-90.9090909090909,3,2,0,70,0,0
41649,-83.3333333333333,3,2,0,70,0,0
41916,-100,3,2,0,70,0,0
46182,-90.9090909090909,3,2,0,70,0,0
46449,-83.3333333333333,3,2,0,70,0,0
46716,-100,3,2,0,70,0,0
47782,-90.9090909090909,3,2,0,70,0,0
48049,-83.3333333333333,3,2,0,70,0,0
48316,-100,3,2,0,75,0,0
53116,-100,3,2,0,70,0,0
54449,-125,3,2,0,50,0,0
54716,-76.9230769230769,3,2,0,85,0,0
70716,-83.3333333333333,3,2,0,80,0,0
71516,-100,3,2,0,80,0,0
72049,-125,3,2,0,80,0,0
72316,-83.3333333333333,3,2,0,80,0,0
73116,-100,3,2,0,80,0,0
73649,-125,3,2,0,80,0,0
73916,-83.3333333333333,3,2,0,80,0,0
76316,-125,3,2,0,80,0,0
76449,-125,3,2,0,20,0,0
76982,-125,3,2,0,60,0,0
77116,-90.9090909090909,3,2,0,80,0,0
83516,-100,3,2,0,60,0,0
99516,-100,3,2,0,70,0,0
109116,-100,3,2,0,75,0,0
112316,-142.857142857143,3,2,0,75,0,0
115249,-142.857142857143,3,2,0,5,0,0
115516,-142.857142857143,3,2,0,60,0,0
128316,-142.857142857143,3,2,0,80,0,0
129116,-76.9230769230769,3,2,0,85,0,0
145116,-100,3,2,0,80,0,0
157916,-76.9230769230769,3,2,0,90,0,0
164316,-71.4285714285714,3,2,0,90,0,0
169116,303.030303030303,4,2,0,50,1,0
169116,-166.666666666667,4,2,0,50,0,0
169419,-166.666666666667,4,2,0,20,0,0
169669,270.27027027027,4,2,0,20,1,0
169669,-166.666666666667,4,2,0,20,0,0

[Colours]
Combo1 : 255,192,0
Combo2 : 255,128,64
Combo3 : 255,128,128
Combo4 : 242,24,57

[HitObjects]
66,211,316,6,0,B|113:224|155:198|155:198|212:159|284:187|327:250|278:342|223:345,1,385,4|0,3:0|0:0,0:0:0:0:
205,266,1916,2,0,B|311:251|308:329|403:317,1,210,2|0,0:0|0:0,0:0:0:0:
501,190,3516,6,0,P|404:73|383:224,1,385,2|0,0:0|0:0,0:0:0:0:
427,154,5116,2,0,P|343:148|296:221,1,175,2|0,0:0|0:0,0:0:0:0:
208,88,5916,2,0,P|291:82|339:150,1,175,2|0,0:0|0:0,0:0:0:0:
328,238,6716,6,0,B|271:334|170:325|170:325|160:219|255:163,1,385,2|0,0:0|0:0,0:0:0:0:
338,151,8316,2,0,P|370:13|243:74,1,350,2|0,0:0|0:0,0:0:0:0:
379,94,9916,6,0,B|406:8|293:-49|210:23|211:140|306:132|330:177|313:243,1,385,2|0,0:0|0:0,0:0:0:0:
275,321,11516,2,0,P|148:318|229:220,1,315,2|0,0:0|0:0,0:0:0:0:
364,301,12849,6,0,P|367:329|363:356,1,52.5,0|0,3:0|0:0,0:0:0:0:
363,352,13116,6,0,P|403:336|444:329,1,83.9999974365235,6|0,0:0|0:0,0:0:0:0:
213,289,13382,2,0,P|173:273|132:266,1,83.9999974365235,4|0,1:2|0:0,0:0:0:0:
281,105,13649,2,0,L|289:191,1,83.9999974365235,4|0,1:2|0:0,0:0:0:0:
390,241,13916,5,4,1:2:0:0:
390,241,14049,1,0,0:0:0:0:
451,123,14182,1,4,1:2:0:0:
451,123,14316,1,0,0:0:0:0:
359,42,14449,2,0,P|319:32|281:8,1,83.9999974365235,4|0,1:2|0:0,0:0:0:0:
301,197,14716,6,0,P|329:167|369:146,1,83.9999974365235,4|0,1:2|0:0,0:0:0:0:
191,77,14982,2,0,P|202:116|200:161,1,83.9999974365235,4|0,1:2|0:0,0:0:0:0:
85,318,15249,2,0,P|83:276|95:235,1,83.9999974365235,4|0,1:2|0:0,0:0:0:0:
265,305,15516,6,0,P|224:293|183:287,1,83.9999974365235,4|0,1:2|0:0,0:0:0:0:
25,152,15782,2,0,P|66:145|106:134,1,83.9999974365235,4|0,1:2|0:0,0:0:0:0:
274,11,16049,2,0,L|280:94,1,83.9999974365235,4|0,1:2|0:0,0:0:0:0:
390,208,16316,5,4,1:2:0:0:
402,193,16582,2,0,P|442:179|484:175,1,83.9999974365235,4|0,1:2|0:0,0:0:0:0:
397,312,16849,2,0,P|355:307|314:290,1,83.9999974365235,4|0,1:2|0:0,0:0:0:0:
201,197,17116,5,4,1:2:0:0:
234,343,17249,2,0,P|192:347|154:364,2,83.9999974365235,0|4|0,0:0|1:2|0:0,0:0:0:0:
120,256,17649,2,0,P|103:218|104:176,1,83.9999974365235,4|0,1:2|0:0,0:0:0:0:
222,29,17916,6,0,P|222:70|205:108,1,83.9999974365235,4|0,1:2|0:0,0:0:0:0:
37,62,18182,2,0,P|78:54|119:40,1,83.9999974365235,4|0,1:2|0:0,0:0:0:0:
293,153,18449,2,0,P|254:139|213:132,1,83.9999974365235,4|0,1:2|0:0,0:0:0:0:
472,135,18716,6,0,P|484:94|474:52,1,87.5,4|0,1:2|0:0,0:0:0:0:
422,237,18982,2,0,P|466:245|510:262,1,90.9999958343508,4|0,1:2|0:0,0:0:0:0:
300,117,19249,2,0,P|346:107|391:93,1,94.5000003604889,6|2,1:2|0:0,0:0:0:0:
273,312,19516,6,0,P|202:268|118:256,1,167.999994873047,4|4,1:2|1:2,0:0:0:0:
43,176,19916,1,0,0:0:0:0:
128,116,20049,1,6,1:2:0:0:
128,116,20182,1,2,0:0:0:0:
110,14,20316,6,0,P|70:27|41:57,1,83.9999974365235,4|0,1:2|0:0,0:0:0:0:
214,169,20582,2,0,P|227:129|224:88,1,83.9999974365235,4|0,1:2|0:0,0:0:0:0:
131,231,20849,1,6,1:2:0:0:
131,231,20982,1,2,0:0:0:0:
214,169,21116,6,0,P|259:155|306:159,1,83.9999974365235,4|0,1:2|0:0,0:0:0:0:
151,325,21382,2,0,P|109:325|69:312,1,83.9999974365235,4|0,1:2|0:0,0:0:0:0:
272,257,21649,1,6,1:2:0:0:
272,257,21782,1,2,0:0:0:0:
375,337,21916,6,0,P|420:323|467:327,1,83.9999974365235,4|0,1:2|0:0,0:0:0:0:
272,257,22182,2,0,P|297:223|336:199,1,83.9999974365235,4|0,1:2|0:0,0:0:0:0:
194,351,22449,1,6,1:2:0:0:
194,351,22582,1,2,0:0:0:0:
41,260,22716,6,0,P|52:219|57:177,1,83.9999974365235,4|0,1:2|0:0,0:0:0:0:
54,62,22982,2,0,P|83:91|116:117,1,83.9999974365235,4|0,1:2|0:0,0:0:0:0:
221,170,23249,2,0,P|180:180|141:196,1,83.9999974365235,4|0,1:2|0:0,0:0:0:0:
292,64,23516,6,0,P|330:80|371:90,1,83.9999974365235,4|0,1:2|0:0,0:0:0:0:
352,283,23782,2,0,P|346:241|335:200,1,83.9999974365235,4|0,1:2|0:0,0:0:0:0:
507,122,24049,2,0,P|473:147|444:177,1,83.9999974365235,4|0,1:2|0:0,0:0:0:0:
225,284,24316,6,0,P|184:279|141:249,1,83.9999974365235,4|0,1:2|0:0,0:0:0:0:
321,120,24582,2,0,P|337:158|332:210,1,83.9999974365235,4|0,1:2|0:0,0:0:0:0:
116,117,24849,2,0,P|141:83|177:64,1,83.9999974365235,4|0,1:2|0:0,0:0:0:0:
414,219,25116,6,0,P|372:216|334:199,1,83.9999974365235,4|0,1:2|0:0,0:0:0:0:
392,25,25382,1,0,1:0:0:0:
392,25,25516,1,0,1:0:0:0:
391,24,25649,2,0,P|400:64|397:106,1,83.9999974365235,0|0,1:0|1:0,0:0:0:0:
256,265,25916,6,0,P|237:199|262:135,1,140,4|0,0:0|0:0,0:0:0:0:
470,181,26316,2,0,B|403:174|403:210|334:199,1,140,2|0,0:0|0:0,0:0:0:0:
320,55,26716,2,0,P|344:80|357:113,1,70,0|0,1:0|0:0,0:0:0:0:
161,135,26982,2,0,P|164:101|180:70,1,70,2|0,0:0|0:0,0:0:0:0:
262,134,27249,1,2,0:0:0:0:
262,134,27382,1,0,0:0:0:0:
80,234,27516,6,0,P|56:168|56:98,1,140,2|0,0:0|0:0,0:0:0:0:
197,228,27916,2,0,P|196:297|172:363,1,140,2|0,0:0|0:0,0:0:0:0:
359,354,28316,2,0,P|326:336|306:308,1,70,0|0,1:0|0:0,0:0:0:0:
332,110,28582,1,2,0:0:0:0:
332,110,28849,2,0,L|320:186,1,70,2|0,0:0|0:0,0:0:0:0:
391,262,29116,6,0,P|459:266|511:222,1,140,2|0,0:0|0:0,0:0:0:0:
412,37,29516,2,0,L|428:176,1,140,2|0,0:0|0:0,0:0:0:0:
351,316,29916,2,0,L|361:246,1,70,0|0,1:0|0:0,0:0:0:0:
510,360,30182,1,2,0:0:0:0:
499,351,30449,1,2,0:0:0:0:
486,345,30716,6,0,P|428:323|341:316,1,140,2|0,0:0|0:0,0:0:0:0:
190,237,31116,2,0,P|241:191|309:192,1,140,2|0,0:0|0:0,0:0:0:0:
116,302,31516,2,0,P|81:296|50:278,1,70,0|0,1:0|0:0,0:0:0:0:
200,186,31782,2,0,P|231:172|268:164,1,70,2|0,0:0|0:0,0:0:0:0:
344,329,32049,2,0,P|309:323|279:305,1,70,2|0,0:0|0:0,0:0:0:0:
342,99,32316,6,0,P|362:164|343:230,1,140,2|0,0:0|0:0,0:0:0:0:
174,50,32716,2,0,P|241:38|309:6,1,140,2|0,0:0|0:0,0:0:0:0:
266,164,33116,2,0,P|233:150|199:142,1,70,0|0,1:0|0:0,0:0:0:0:
429,52,33382,1,2,0:0:0:0:
441,45,33649,1,2,0:0:0:0:
453,41,33916,6,0,P|438:109|452:180,1,140,2|0,0:0|0:0,0:0:0:0:
499,341,34316,2,0,P|460:285|392:277,1,140,2|0,0:0|0:0,0:0:0:0:
259,371,34716,6,0,P|277:341|286:304,1,70,0|0,1:0|0:0,0:0:0:0:
129,257,34982,2,0,P|145:287|173:313,1,70,2|0,0:0|0:0,0:0:0:0:
296,192,35249,2,0,P|261:191|224:202,1,70,2|0,0:0|0:0,0:0:0:0:
376,240,35516,5,2,0:0:0:0:
354,106,35649,2,0,P|322:90|288:85,1,70,2|0,0:0|0:0,0:0:0:0:
456,182,35916,2,0,P|462:112|480:44,1,140,2|0,0:0|0:0,0:0:0:0:
501,277,36316,2,0,P|438:282|368:226,1,140,0|2,1:0|0:0,0:0:0:0:
271,25,36849,1,2,0:0:0:0:
34,133,37116,6,0,P|102:123|151:180,1,140,6|0,0:0|0:0,0:0:0:0:
76,203,37516,2,0,P|143:193|192:249,1,140,2|0,0:0|0:0,0:0:0:0:
117,272,37916,6,0,B|265:220|265:370|405:324,1,308,2|0,0:0|0:0,0:0:0:0:
432,347,38716,6,0,L|419:202,1,140,6|2,0:0|0:0,0:0:0:0:
332,64,39116,2,0,L|325:143,1,70,0|2,0:0|0:0,0:0:0:0:
261,215,39382,1,0,0:0:0:0:
426,115,39516,6,0,P|459:124|487:144,1,70,2|0,0:0|0:0,0:0:0:0:
368,218,39782,2,0,P|334:227|298:252,1,77.0000023498536,2|0,0:0|0:0,0:0:0:0:
439,314,40049,2,0,P|478:326|511:353,1,83.9999974365235,2|0,0:3|0:0,0:0:0:0:
285,346,40316,6,0,P|216:344|160:303,1,140,2|2,0:0|0:0,0:0:0:0:
63,235,40716,2,0,L|56:304,1,70,0|2,0:0|0:0,0:0:0:0:
165,198,40982,1,0,0:0:0:0:
65,130,41116,6,0,P|31:134|-1:154,1,70,2|0,0:0|0:0,0:0:0:0:
185,80,41382,2,0,P|156:54|120:43,1,77.0000023498536,2|0,0:3|0:0,0:0:0:0:
297,166,41649,2,0,P|297:125|283:85,1,83.9999974365235,0|0,1:0|0:0,0:0:0:0:
265,292,41916,6,0,P|324:256|393:251,1,140,2|2,0:0|0:0,0:0:0:0:
497,181,42316,2,0,P|463:171|433:154,1,70,0|2,0:0|0:0,0:0:0:0:
344,50,42582,1,0,0:0:0:0:
413,132,42716,2,0,P|429:200|409:267,2,140,2|2|2,0:0|0:0|0:3,0:0:0:0:
207,351,43516,6,0,P|139:353|83:313,1,140,2|2,0:0|0:0,0:0:0:0:
185,192,43916,2,0,L|174:261,1,70,0|2,0:0|0:0,0:0:0:0:
145,103,44182,1,0,0:0:0:0:
264,63,44316,2,0,L|278:203,1,140,2|2,0:0|0:3,0:0:0:0:
277,201,44849,2,0,P|307:185|341:176,1,70,0|0,1:0|0:0,0:0:0:0:
171,332,45116,6,0,L|185:192,1,140,6|2,0:0|0:0,0:0:0:0:
57,132,45516,2,0,L|68:201,1,70,0|2,0:0|0:0,0:0:0:0:
142,51,45782,1,0,0:0:0:0:
245,183,45916,6,0,L|176:170,1,70,2|0,0:0|0:0,0:0:0:0:
308,105,46182,2,0,P|345:97|378:76,1,77.0000023498536,2|0,0:0|0:0,0:0:0:0:
355,314,46449,2,0,P|322:287|283:272,1,83.9999974365235,2|0,0:3|0:0,0:0:0:0:
451,135,46716,6,0,P|460:203|437:268,1,140,2|2,0:0|0:0,0:0:0:0:
350,96,47116,2,0,P|367:65|397:42,1,70,0|2,0:0|0:0,0:0:0:0:
359,188,47382,1,0,0:0:0:0:
235,119,47516,6,0,P|222:86|224:48,1,70,2|0,0:0|0:0,0:0:0:0:
173,220,47782,2,0,P|137:206|108:180,1,77.0000023498536,6|0,0:0|0:0,0:0:0:0:
183,335,48049,2,0,P|146:354|105:360,1,83.9999974365235,0|0,1:0|0:0,0:0:0:0:
278,217,48316,6,0,P|346:219|399:264,1,140,6|0,0:0|0:0,0:0:0:0:
308,315,48716,1,2,0:0:0:0:
235,119,48849,1,0,1:0:0:0:
246,130,49116,6,0,L|233:269,1,140,2|2,0:0|0:0,0:0:0:0:
393,353,49649,1,0,1:0:0:0:
155,181,49916,6,0,P|86:183|33:228,1,140,6|0,0:0|0:0,0:0:0:0:
119,275,50316,1,2,0:0:0:0:
209,83,50449,1,0,1:0:0:0:
218,93,50716,6,0,P|286:90|339:45,1,140,2|2,0:0|0:0,0:0:0:0:
497,148,51249,1,0,1:0:0:0:
377,314,51516,6,0,P|367:244|375:175,1,140,6|0,0:0|0:0,0:0:0:0:
497,148,51916,1,2,0:0:0:0:
465,335,52049,1,0,1:0:0:0:
416,76,52316,1,2,0:0:0:0:
248,269,52582,5,0,1:0:0:0:
152,200,52716,1,0,1:0:0:0:
296,160,52849,1,0,1:0:0:0:
200,93,52982,1,0,1:0:0:0:
301,58,53116,5,2,0:0:0:0:
94,109,53382,5,2,0:0:0:0:
349,256,53649,5,2,0:0:0:0:
143,304,53916,5,2,0:0:0:0:
142,304,54449,6,0,P|115:303|89:293,1,56,0|0,0:0|0:0,0:0:0:0:
224,58,54716,6,0,L|243:240,1,181.999991668702,6|0,0:0|0:0,0:0:0:0:
476,234,55116,2,0,P|438:153|354:127,1,181.999991668702,2|2,0:0|0:0,0:0:0:0:
338,346,55516,2,0,P|342:300|349:255,1,90.9999958343508,0|0,1:0|0:0,0:0:0:0:
157,237,55782,1,2,0:0:0:0:
157,237,55916,1,0,1:0:0:0:
268,82,56049,2,0,P|274:126|279:172,1,90.9999958343508,2|0,0:0|0:0,0:0:0:0:
177,346,56316,6,0,P|89:336|41:262,1,181.999991668702,2|0,0:0|0:0,0:0:0:0:
181,59,56716,2,0,B|190:141|137:141|156:236,1,181.999991668702,2|2,0:0|0:0,0:0:0:0:
89,78,57116,2,0,P|48:61|2:57,1,90.9999958343508,0|0,1:0|0:0,0:0:0:0:
251,201,57382,1,2,0:0:0:0:
251,201,57516,1,0,1:0:0:0:
404,32,57649,2,0,P|400:78|399:123,1,90.9999958343508,2|0,0:0|0:0,0:0:0:0:
512,344,57916,6,0,P|449:280|360:270,1,181.999991668702,6|0,0:0|0:0,0:0:0:0:
173,372,58316,1,0,0:0:0:0:
251,201,58449,2,0,L|259:298,1,90.9999958343508,2|0,0:0|0:0,0:0:0:0:
6,188,58716,6,0,P|69:124|157:123,1,181.999991668702,0|0,1:0|0:0,0:0:0:0:
364,253,59116,1,0,1:0:0:0:
282,77,59249,2,0,L|274:174,1,90.9999958343508,2|0,0:0|0:0,0:0:0:0:
464,61,59516,6,0,P|419:64|380:86,1,90.9999958343508,6|0,0:0|0:0,0:0:0:0:
205,218,59782,1,0,0:0:0:0:
278,16,59916,2,0,L|293:202,1,181.999991668702,2|0,0:0|0:0,0:0:0:0:
158,314,60316,2,0,P|112:310|73:288,1,90.9999958343508,4|0,1:2|0:0,0:0:0:0:
205,218,60582,5,4,3:0:0:0:
238,378,60716,1,4,3:0:0:0:
308,233,60849,1,4,3:0:0:0:
329,328,60982,1,4,3:0:0:0:
381,149,61116,6,0,P|342:127|298:120,1,90.9999958343508,6|2,0:0|0:0,0:0:0:0:
454,286,61382,1,0,0:0:0:0:
308,233,61516,2,0,P|218:250|152:331,1,181.999991668702,2|2,0:0|0:0,2:0:0:0:
1,159,61916,2,0,P|40:181|85:187,1,90.9999958343508,0|0,1:0|0:0,0:0:0:0:
225,93,62182,1,2,0:0:0:0:
225,93,62316,1,0,1:0:0:0:
80,1,62449,2,0,P|69:45|71:90,1,90.9999958343508,2|0,0:0|0:0,0:0:0:0:
197,269,62716,6,0,P|227:183|225:92,1,181.999991668702,6|0,0:0|0:0,0:0:0:0:
383,298,63116,2,0,P|338:307|296:323,1,90.9999958343508,2|0,0:0|0:0,0:0:0:0:
348,178,63382,1,2,0:0:0:0:
473,228,63516,6,0,P|481:272|494:316,1,90.9999958343508,0|0,1:0|0:0,0:0:0:0:
348,178,63782,2,0,P|360:134|369:89,1,90.9999958343508,2|0,0:0|1:0,0:0:0:0:
233,279,64049,2,0,P|241:323|254:367,1,90.9999958343508,0|0,1:0|0:0,0:0:0:0:
131,169,64316,6,0,P|92:145|47:136,1,90.9999958343508,6|0,0:0|0:0,0:0:0:0:
233,279,64582,2,0,P|277:270|316:246,1,90.9999958343508,2|0,0:0|0:0,0:0:0:0:
242,13,64849,2,0,P|229:56|232:101,1,90.9999958343508,2|0,0:0|0:0,0:0:0:0:
396,340,65116,6,0,P|431:257|411:170,1,181.999991668702,0|2,1:0|0:0,0:0:0:0:
232,101,65516,1,0,3:0:0:0:
233,279,65649,2,0,P|273:258|317:246,1,90.9999958343508,0|0,1:0|0:0,0:0:0:0:
469,78,65916,6,0,P|379:73|309:128,1,181.999991668702,6|0,0:0|0:0,0:0:0:0:
37,196,66316,2,0,P|126:191|196:246,1,181.999991668702,2|2,0:0|0:0,0:0:0:0:
407,254,66716,2,0,P|363:269|324:305,1,90.9999958343508,0|0,1:0|0:0,0:0:0:0:
333,48,66982,5,0,1:0:0:0:
333,48,67116,1,0,1:0:0:0:
246,158,67249,1,0,1:0:0:0:
246,158,67382,1,0,1:0:0:0:
138,29,67516,6,0,P|126:73|135:124,1,90.9999958343508,4|0,1:2|0:0,0:0:0:0:
272,232,67782,1,0,1:0:0:0:
272,232,67916,1,0,1:0:0:0:
223,86,68049,1,0,1:0:0:0:
223,86,68182,1,0,1:0:0:0:
358,199,68316,6,0,P|363:243|351:287,1,90.9999958343508,6|0,1:2|0:0,0:0:0:0:
223,378,68582,1,0,1:0:0:0:
223,378,68716,1,0,1:0:0:0:
272,232,68849,1,0,1:0:0:0:
272,232,68982,1,0,1:0:0:0:
114,260,69116,6,0,P|159:265|201:286,1,90.9999958343508,6|0,1:2|0:0,0:0:0:0:
402,203,69382,2,0,P|358:215|320:243,1,90.9999958343508,8|8,3:0|3:0,0:0:0:0:
151,105,69649,2,0,P|191:125|224:159,1,90.9999958343508,8|8,3:0|3:0,0:0:0:0:
380,34,69916,5,6,0:0:0:0:
380,34,70716,6,0,P|407:65|420:104,1,83.9999974365235,4|0,1:2|0:0,0:0:0:0:
245,166,70982,2,0,P|257:126|286:95,1,83.9999974365235,4|0,1:2|0:0,0:0:0:0:
440,220,71249,2,0,P|398:222|359:206,1,83.9999974365235,4|0,1:2|0:0,0:0:0:0:
158,131,71516,6,0,P|123:129|90:142,2,70,12|8|4,3:0|3:0|3:0,0:0:0:0:
250,222,71916,1,4,3:0:0:0:
233,83,72049,6,0,P|244:110|245:140,1,56,4|0,3:0|0:0,0:0:0:0:
115,354,72316,6,0,P|88:323|75:284,1,83.9999974365235,4|0,1:2|0:0,0:0:0:0:
250,222,72582,2,0,P|238:262|209:293,1,83.9999974365235,4|0,1:2|0:0,0:0:0:0:
55,168,72849,2,0,P|97:166|136:182,1,83.9999974365235,4|0,1:2|0:0,0:0:0:0:
339,251,73116,6,0,P|373:252|406:239,2,70,12|8|4,3:0|3:0|3:0,0:0:0:0:
247,160,73516,1,4,3:0:0:0:
264,299,73649,6,0,P|252:271|252:242,1,56,4|0,3:0|0:0,0:0:0:0:
322,41,73916,6,0,P|342:78|371:109,1,83.9999974365235,4|0,1:2|0:0,0:0:0:0:
166,133,74182,2,0,P|137:163|101:186,1,83.9999974365235,4|0,1:2|0:0,0:0:0:0:
346,236,74449,2,0,P|381:257|421:270,1,83.9999974365235,4|0,1:2|0:0,0:0:0:0:
248,361,74716,5,12,3:0:0:0:
161,304,74849,1,8,3:0:0:0:
253,269,74982,5,4,3:0:0:0:
183,152,75116,1,4,3:0:0:0:
281,172,75249,1,4,3:0:0:0:
281,172,75516,6,0,P|317:150|359:144,1,83.9999974365235,4|0,1:2|0:0,0:0:0:0:
503,322,75782,2,0,P|461:316|425:294,1,83.9999974365235,4|0,1:2|0:0,0:0:0:0:
471,38,76049,2,0,P|475:79|479:121,1,83.9999974365235,4|0,1:2|0:0,0:0:0:0:
346,236,76316,6,0,B|240:198|238:268|117:227|117:227|146:205|184:196,1,308,0|0,1:0|0:0,0:0:0:0:
184,196,77116,6,0,P|204:269|181:341,1,154.000004699707,6|2,0:0|0:0,0:0:0:0:
28,284,77516,2,0,P|65:278|98:257,1,77.0000023498536,0|0,1:0|0:0,0:0:0:0:
108,103,77782,1,2,0:0:0:0:
30,178,77916,5,2,0:0:0:0:
19,167,78182,1,2,0:0:0:0:
8,156,78449,2,0,L|84:146,1,77.0000023498536,0|2,1:0|0:0,0:0:0:0:
265,22,78716,5,2,0:0:0:0:
257,35,78982,1,0,0:0:0:0:
182,184,79116,2,0,L|175:107,1,77.0000023498536,0|0,1:0|0:0,0:0:0:0:
78,53,79382,1,2,0:0:0:0:
290,172,79516,5,2,0:0:0:0:
303,180,79782,1,2,0:0:0:0:
315,188,80049,2,0,L|391:178,1,77.0000023498536,0|2,1:0|0:0,0:0:0:0:
246,351,80316,6,0,P|183:309|108:292,1,154.000004699707,6|0,0:0|0:0,0:0:0:0:
320,143,80716,2,0,P|314:219|329:294,1,154.000004699707,0|0,1:0|1:0,0:0:0:0:
153,196,81116,2,0,P|187:179|217:150,1,77.0000023498536,2|0,0:0|0:0,0:0:0:0:
49,81,81382,2,0,P|46:119|55:159,1,77.0000023498536,2|0,0:0|0:0,0:0:0:0:
211,47,81649,2,0,P|179:25|139:13,1,77.0000023498536,0|0,1:0|0:0,0:0:0:0:
320,143,81916,6,0,P|395:137|450:85,1,154.000004699707,2|2,0:0|0:0,0:0:0:0:
304,32,82316,1,0,1:0:0:0:
222,169,82449,2,0,P|185:156|143:154,1,77.0000023498536,0|2,0:0|0:0,0:0:0:0:
373,280,82716,1,6,1:2:0:0:
372,280,83516,6,0,P|304:286|244:243,1,140,6|0,0:0|0:0,0:0:0:0:
302,69,83916,2,0,P|336:130|328:198,1,140,2|0,0:0|0:0,0:0:0:0:
111,174,84316,2,0,P|180:163|247:145,1,140,0|0,1:0|0:0,0:0:0:0:
332,201,84716,1,8,3:0:0:0:
332,201,84849,1,8,3:0:0:0:
368,105,84982,1,8,3:0:0:0:
422,230,85116,6,0,P|403:297|393:366,1,140,8|0,3:0|0:0,0:0:0:0:
253,261,85516,2,0,P|287:256|319:242,1,70,2|0,0:0|0:0,0:0:0:0:
281,366,85782,1,0,0:0:0:0:
164,301,85916,2,0,P|100:275|30:274,1,140,0|8,1:0|3:0,0:0:0:0:
1,187,86316,1,8,3:0:0:0:
1,187,86449,1,8,3:0:0:0:
70,129,86582,1,0,0:0:0:0:
32,44,86716,6,0,P|100:43|151:89,1,140,8|0,3:0|0:0,0:0:0:0:
246,216,87116,2,0,P|249:146|260:77,1,140,2|0,0:0|0:0,0:0:0:0:
374,25,87516,1,0,1:0:0:0:
499,215,87782,5,8,3:0:0:0:
430,154,87916,1,8,3:0:0:0:
386,245,88049,5,8,3:0:0:0:
312,191,88182,1,8,3:0:0:0:
250,259,88316,6,0,P|243:327|284:381,1,140,8|0,3:0|0:0,0:0:0:0:
371,182,88716,2,0,P|304:169|232:139,1,140,2|0,0:0|0:0,0:0:0:0:
330,302,89116,2,0,P|394:275|463:262,1,140,0|8,1:0|3:0,0:0:0:0:
506,181,89516,1,8,3:0:0:0:
506,181,89649,1,8,3:0:0:0:
451,108,89782,1,8,3:0:0:0:
493,27,89916,6,0,P|439:69|370:65,1,140,6|0,0:0|0:0,0:0:0:0:
236,1,90316,2,0,L|249:140,1,140,2|0,0:0|0:0,0:0:0:0:
86,169,90716,2,0,P|115:155|149:131,1,70,0|0,1:0|0:0,0:0:0:0:
251,265,90982,2,0,P|223:243|192:228,1,70,0|8,0:0|3:0,0:0:0:0:
249,140,91249,1,8,3:0:0:0:
249,140,91382,1,8,3:0:0:0:
353,278,91516,6,0,P|422:279|477:237,1,140,8|0,3:0|0:0,0:0:0:0:
400,120,91916,2,0,P|393:154|391:189,1,70,2|0,0:0|0:0,0:0:0:0:
511,114,92182,1,0,0:0:0:0:
438,24,92316,2,0,P|369:23|314:65,1,140,0|8,1:0|3:0,0:0:0:0:
266,150,92716,1,8,3:0:0:0:
266,150,92849,1,8,3:0:0:0:
178,106,92982,1,0,0:0:0:0:
103,169,93116,6,0,P|94:100|74:33,1,140,8|0,3:0|0:0,0:0:0:0:
68,257,93516,2,0,P|136:258|186:211,1,140,2|0,0:0|0:0,0:0:0:0:
291,341,93916,2,0,P|259:325|226:315,1,70,0|0,1:0|0:0,0:0:0:0:
299,230,94182,1,8,3:0:0:0:
299,230,94316,1,8,3:0:0:0:
403,211,94449,2,0,P|393:244|389:279,1,70,8|0,3:0|0:0,0:0:0:0:
446,122,94716,6,0,P|377:117|321:157,1,140,8|0,3:0|0:0,0:0:0:0:
149,232,95116,2,0,P|217:227|273:267,1,140,2|0,0:0|0:0,0:0:0:0:
420,347,95516,2,0,B|431:278|395:278|402:211,1,140,0|8,1:0|3:0,0:0:0:0:
500,229,95916,1,8,3:0:0:0:
325,320,96049,1,8,3:0:0:0:
472,58,96316,5,2,0:0:0:0:
478,70,96582,1,0,0:0:0:0:
386,102,96716,2,0,P|380:67|387:33,1,70,0|0,0:0|3:0,0:0:0:0:
455,160,96982,1,0,0:0:0:0:
285,91,97116,5,0,1:0:0:0:
297,96,97382,1,0,0:0:0:0:
251,177,97516,2,0,P|224:154|208:121,1,70,8|8,3:0|3:0,0:0:0:0:
342,177,97782,1,0,0:0:0:0:
168,236,97916,5,4,3:0:0:0:
180,232,98182,1,0,0:0:0:0:
192,323,98316,2,0,P|156:322|125:308,1,70,0|0,0:0|3:0,0:0:0:0:
261,264,98582,1,0,0:0:0:0:
388,339,98716,5,0,1:0:0:0:
400,343,98982,1,0,0:0:0:0:
348,272,99116,2,0,P|379:257|414:257,1,70,8|8,3:0|3:0,0:0:0:0:
294,346,99382,1,0,0:0:0:0:
180,232,99516,6,0,P|160:158|195:98,1,140,6|0,0:2|0:0,0:0:0:0:
388,151,99916,2,0,P|319:155|251:174,1,140,0|0,0:0|0:0,0:0:0:0:
198,18,100316,2,0,P|231:27|263:53,1,70,0|0,1:0|0:0,0:0:0:0:
95,156,100582,2,0,P|86:122|90:87,1,70,0|8,0:0|3:0,0:0:0:0:
267,168,100849,2,0,P|242:193|210:206,1,70,8|0,3:0|0:0,0:0:0:0:
359,59,101116,6,0,P|428:63|479:110,1,140,4|0,3:0|0:0,0:0:0:0:
293,156,101516,2,0,P|224:159|173:206,1,140,0|0,0:0|0:0,0:0:0:0:
369,216,101916,2,0,P|384:185|387:150,1,70,0|0,1:0|0:0,0:0:0:0:
272,262,102182,1,8,3:0:0:0:
272,262,102316,1,8,3:0:0:0:
417,313,102449,2,0,P|451:305|485:300,1,70,8|0,3:0|0:0,0:0:0:0:
301,358,102716,6,0,P|232:356|181:310,1,140,4|0,3:0|0:0,0:0:0:0:
0,253,103116,2,0,P|68:251|119:205,1,140,0|0,0:0|0:0,0:0:0:0:
183,44,103516,2,0,L|191:114,1,70,0|0,1:0|0:0,0:0:0:0:
321,195,103782,1,8,3:0:0:0:
321,195,103916,1,8,3:0:0:0:
282,74,104049,1,8,3:0:0:0:
282,74,104182,1,0,0:0:0:0:
396,141,104316,6,0,P|410:207|376:273,1,140,4|0,3:0|0:0,0:0:0:0:
220,305,104716,2,0,P|254:308|287:321,1,70,0|2,0:0|0:0,0:0:0:0:
279,215,104982,1,0,0:0:0:0:
151,384,105116,6,0,P|120:322|134:255,1,140,0|8,1:0|3:0,0:0:0:0:
180,176,105516,1,8,3:0:0:0:
180,176,105649,1,8,3:0:0:0:
78,115,105782,1,8,3:0:0:0:
167,38,105916,6,0,P|236:32|303:12,1,140,4|0,3:0|0:0,0:0:0:0:
404,156,106316,2,0,P|336:136|267:129,1,140,0|0,0:0|0:0,0:0:0:0:
148,275,106716,2,0,P|216:272|268:222,1,140,0|8,1:0|3:0,0:0:0:0:
180,176,107116,1,8,3:0:0:0:
180,176,107249,1,8,3:0:0:0:
235,308,107382,1,8,3:0:0:0:
375,254,107516,6,0,P|443:257|495:307,1,140,4|0,3:0|0:0,0:0:0:0:
282,374,107916,2,0,P|278:301|274:234,1,140,0|0,0:0|0:0,0:0:0:0:
115,257,108316,2,0,P|146:272|177:297,1,70,0|0,1:0|0:0,0:0:0:0:
180,176,108582,1,8,3:0:0:0:
180,176,108716,1,8,3:0:0:0:
70,151,108849,2,0,P|38:171|7:183,1,70,8|0,3:0|0:0,0:0:0:0:
179,60,109116,6,0,P|247:73|289:127,1,140,2|0,0:0|0:0,0:0:0:0:
300,241,109516,1,0,0:0:0:0:
399,199,109649,2,0,P|396:164|394:129,1,70,2|0,0:0|0:0,0:0:0:0:
409,307,109916,6,0,P|341:294|299:240,1,140,0|8,1:0|3:0,0:0:0:0:
273,125,110316,1,8,3:0:0:0:
163,172,110449,2,0,P|165:207|166:247,1,70,8|0,3:0|0:0,0:0:0:0:
6,371,110716,6,0,P|65:335|134:337,1,140,2|0,0:0|0:0,0:0:0:0:
272,376,111116,1,0,0:0:0:0:
234,257,111249,2,0,P|199:253|166:242,1,70,2|0,0:0|0:0,0:0:0:0:
51,95,111516,6,0,P|58:164|63:234,1,140,0|8,1:0|3:0,0:0:0:0:
166,242,111916,1,8,3:0:0:0:
208,147,112049,1,8,3:0:0:0:
208,147,112182,1,0,0:0:0:0:
275,279,112316,5,2,0:0:0:0:
275,279,112582,2,0,P|299:276|322:267,1,48.9999985046387,0|0,0:0|0:0,0:0:0:0:
345,181,112849,1,0,0:0:0:0:
345,181,112982,1,0,0:0:0:0:
433,228,113116,6,0,P|422:275|433:322,1,97.9999970092774,2|2,0:0|0:0,0:0:0:0:
433,322,113648,2,0,P|410:313|385:310,1,48.9999985046387
301,365,113916,5,2,0:0:0:0:
174,289,114182,5,2,0:0:0:0:
326,200,114449,5,2,0:0:0:0:
130,128,114716,5,2,0:0:0:0:
243,150,128316,5,0,1:0:0:0:
227,294,128449,1,4,3:0:0:0:
307,214,128582,5,0,1:0:0:0:
163,230,128716,1,4,3:0:0:0:
329,126,128849,1,0,1:0:0:0:
337,134,129116,6,0,P|354:223|332:314,1,181.999991668702,6|0,0:2|1:2,0:0:0:0:
241,87,129516,2,0,P|270:52|312:32,1,90.9999958343508,0|0,0:0|1:0,0:0:0:0:
476,138,129782,1,0,0:0:0:0:
212,211,129916,6,0,P|126:177|36:169,1,181.999991668702,6|0,0:0|1:0,0:0:0:0:
241,87,130316,1,0,0:0:0:0:
345,265,130449,2,0,P|390:246|432:239,1,90.9999958343508,0|0,1:0|0:0,0:0:0:0:
243,376,130716,6,0,P|198:299|212:210,1,181.999991668702,6|0,0:0|1:0,0:0:0:0:
454,88,131116,2,0,P|409:80|367:62,1,90.9999958343508,0|0,0:0|1:0,0:0:0:0:
153,147,131382,1,0,0:0:0:0:
256,13,131516,6,0,P|265:57|255:102,1,90.9999958343508,6|0,0:0|0:0,0:0:0:0:
76,223,131782,2,0,P|33:208|0:177,1,90.9999958343508,0|0,1:0|0:0,0:0:0:0:
255,101,132049,2,0,P|297:115|330:146,1,90.9999958343508,0|0,1:0|0:0,0:0:0:0:
97,104,132316,6,0,P|95:55|105:13,1,90.9999958343508,6|0,0:0|0:0,0:0:0:0:
235,220,132582,2,0,P|237:269|227:311,1,90.9999958343508,0|0,1:0|0:0,0:0:0:0:
0,275,132849,2,0,P|42:258|87:253,1,90.9999958343508,0|0,1:0|0:0,0:0:0:0:
332,208,133116,6,0,P|243:195|187:125,1,181.999991668702,6|0,0:0|1:0,0:0:0:0:
438,86,133516,1,0,0:0:0:0:
313,17,133649,2,0,P|296:58|297:103,1,90.9999958343508,0|0,1:0|0:0,0:0:0:0:
410,367,133916,6,0,B|391:272|444:272|435:190,1,181.999991668702,6|0,0:0|1:0,0:0:0:0:
162,248,134316,2,0,P|229:309|316:284,1,181.999991668702
298,143,134716,5,4,0:0:0:0:
250,218,134849,1,0,0:0:0:0:
196,111,134982,5,4,1:2:0:0:
202,221,135116,1,0,0:0:0:0:
89,113,135249,5,4,1:2:0:0:
162,248,135382,1,0,0:0:0:0:
0,298,135516,6,0,P|72:246|161:247,1,181.999991668702,6|0,0:0|1:0,0:0:0:0:
436,350,135916,2,0,B|341:331|341:384|259:375,1,181.999991668702,0|0,0:0|0:0,0:0:0:0:
255,190,136316,6,0,P|270:232|269:277,1,90.9999958343508,6|0,0:0|0:0,0:0:0:0:
183,69,136582,2,0,P|211:34|251:12,1,90.9999958343508,0|0,1:0|0:0,0:0:0:0:
107,203,136849,2,0,P|62:195|23:172,1,90.9999958343508,0|0,1:0|0:0,0:0:0:0:
276,101,137116,6,0,P|365:106|430:166,1,181.999991668702,6|0,0:0|1:0,0:0:0:0:
200,270,137516,2,0,P|154:273|114:293,1,90.9999958343508,0|0,0:0|1:0,0:0:0:0:
259,375,137782,1,0,0:0:0:0:
324,205,137916,6,0,P|345:244|349:289,1,90.9999958343508,6|0,0:0|0:0,0:0:0:0:
177,111,138182,2,0,P|181:66|202:26,1,90.9999958343508,0|0,1:0|0:0,0:0:0:0:
231,212,138449,1,0,1:0:0:0:
89,149,138582,1,0,0:0:0:0:
276,101,138716,6,0,P|317:96|370:85,1,90.9999958343508,6|0,0:0|0:0,0:0:0:0:
127,245,138982,2,0,P|82:235|37:230,1,90.9999958343508,0|0,1:0|0:0,0:0:0:0:
144,343,139249,1,0,1:0:0:0:
193,165,139382,1,0,0:0:0:0:
339,364,139516,6,0,P|427:357|482:288,1,181.999991668702,6|0,0:0|1:0,0:0:0:0:
446,68,139916,1,0,0:0:0:0:
298,224,140049,2,0,P|333:251|376:266,1,90.9999958343508,0|0,1:0|0:0,0:0:0:0:
165,50,140316,6,0,P|122:64|86:92,1,90.9999958343508,6|0,0:0|0:0,0:0:0:0:
363,118,140582,2,0,P|402:139|433:173,1,90.9999958343508,0|0,1:0|0:0,0:0:0:0:
193,165,140849,2,0,P|157:193|133:231,1,90.9999958343508,0|0,1:0|0:0,0:0:0:0:
314,273,141116,2,0,P|344:306|361:348,1,90.9999958343508,6|0,0:0|0:0,0:0:0:0:
216,357,141382,5,0,1:0:0:0:
221,256,141516,1,0,1:0:0:0:
134,306,141649,5,0,1:0:0:0:
97,213,141782,1,0,1:0:0:0:
314,273,141916,6,0,P|356:261|420:257,1,90.9999958343508,6|0,0:0|0:0,0:0:0:0:
466,129,142182,1,0,1:0:0:0:
374,170,142316,1,0,1:0:0:0:
315,87,142449,5,0,1:0:0:0:
274,178,142582,1,0,1:0:0:0:
134,54,142716,6,0,P|88:49|45:37,1,90.9999958343508,6|0,0:0|0:0,0:0:0:0:
143,153,142982,1,0,1:0:0:0:
223,96,143116,1,0,1:0:0:0:
274,178,143249,5,0,1:0:0:0:
315,87,143382,1,0,1:0:0:0:
371,255,143516,6,0,P|380:300|370:349,1,90.9999958343508,6|0,0:0|0:0,0:0:0:0:
274,178,143782,2,0,P|307:148|350:132,1,90.9999958343508,8|4,3:0|3:0,0:0:0:0:
254,300,144049,2,0,P|211:285|176:256,1,90.9999958343508,8|4,3:0|3:0,0:0:0:0:
134,54,144316,5,6,0:0:0:0:
134,53,145116,6,0,P|202:48|253:93,1,140,6|0,0:0|0:0,0:0:0:0:
431,124,145516,2,0,P|362:118|311:163,1,140,0|0,1:0|0:0,0:0:0:0:
159,191,145916,6,0,P|190:198|226:223,1,70,2|0,0:0|0:0,0:0:0:0:
393,245,146182,2,0,P|361:252|326:277,1,70,2|0,0:0|0:0,0:0:0:0:
196,316,146449,2,0,P|227:323|263:348,1,70,0|0,1:0|0:0,0:0:0:0:
106,383,146716,6,0,P|85:317|104:250,1,140,2|0,0:0|0:0,0:0:0:0:
105,143,147116,2,0,P|70:149|38:162,1,70,0|0,1:0|0:0,0:0:0:0:
193,204,147382,1,0,1:0:0:0:
185,70,147516,6,0,P|158:47|127:31,1,70,2|0,0:0|0:0,0:0:0:0:
292,70,147782,2,0,P|292:35|284:0,1,70,2|0,0:0|0:0,0:0:0:0:
380,131,148049,2,0,P|406:108|427:80,1,70,0|0,1:0|0:0,0:0:0:0:
421,232,148316,6,0,P|352:233|294:192,1,140,2|0,0:0|0:0,0:0:0:0:
137,318,148716,2,0,P|203:295|272:292,1,140,0|0,1:0|1:0,0:0:0:0:
197,132,149116,6,0,P|180:162|179:197,1,70,2|0,0:0|0:0,0:0:0:0:
369,149,149382,2,0,P|350:119|321:101,1,70,2|0,0:0|0:0,0:0:0:0:
272,292,149649,2,0,P|306:290|337:274,1,70,0|0,1:0|0:0,0:0:0:0:
152,207,149916,6,0,P|85:220|34:268,1,140,2|0,0:0|0:0,0:0:0:0:
257,368,150316,2,0,L|249:224,1,140,0|0,1:0|0:0,0:0:0:0:
195,64,150716,2,0,P|188:99|196:133,1,70,4|0,1:2|0:0,0:0:0:0:
331,185,150982,5,8,3:0:0:0:
284,98,151116,1,8,3:0:0:0:
387,121,151249,5,8,3:0:0:0:
338,33,151382,1,8,3:0:0:0:
502,146,151516,6,0,P|516:215|500:282,1,140,6|0,0:0|0:0,0:0:0:0:
333,309,151916,2,0,P|390:271|421:209,1,140,0|0,1:0|0:0,0:0:0:0:
327,115,152316,6,0,P|334:150|330:185,1,70,2|0,0:0|0:0,0:0:0:0:
203,280,152582,2,0,P|224:252|237:220,1,70,2|0,0:0|0:0,0:0:0:0:
142,77,152849,2,0,P|159:107|168:140,1,70,0|0,1:0|0:0,0:0:0:0:
55,292,153116,6,0,P|39:224|53:156,1,140,2|0,0:0|0:0,0:0:0:0:
158,313,153516,2,0,P|147:346|125:373,1,70,0|0,1:0|0:0,0:0:0:0:
138,217,153782,1,0,1:0:0:0:
267,291,153916,6,0,P|285:320|292:354,1,70,2|0,0:0|0:0,0:0:0:0:
336,209,154182,2,0,P|370:213|401:230,1,70,2|0,0:0|0:0,0:0:0:0:
321,106,154449,2,0,P|346:82|379:69,1,70,0|0,1:0|0:0,0:0:0:0:
224,194,154716,6,0,P|155:186|105:139,1,140,2|0,0:0|0:0,0:0:0:0:
321,106,155116,2,0,P|389:113|439:160,1,140,0|0,1:0|1:0,0:0:0:0:
202,95,155516,6,0,P|208:60|228:27,1,70,2|0,0:0|0:0,0:0:0:0:
336,209,155782,2,0,P|329:243|309:276,1,70,2|0,0:0|0:0,0:0:0:0:
321,106,156049,2,0,P|356:105|391:100,1,70,0|0,1:0|0:0,0:0:0:0:
223,193,156316,6,0,P|155:177|86:172,1,140,6|2,0:0|0:0,0:0:0:0:
214,346,156716,2,0,P|282:341|334:296,1,140,0|0,1:0|0:0,0:0:0:0:
140,281,157116,6,0,P|121:310|111:343,1,70,6|0,0:0|0:0,0:0:0:0:
232,242,157382,1,2,0:0:0:0:
308,175,157516,6,0,P|327:204|337:237,1,70,0|2,1:0|0:0,0:0:0:0:
217,136,157782,1,0,0:0:0:0:
337,30,157916,6,0,P|382:43|416:70,1,90.9999958343508,6|0,0:0|0:0,0:0:0:0:
145,87,158182,2,0,P|102:107|73:141,1,90.9999958343508,4|0,1:2|0:0,0:0:0:0:
325,211,158449,2,0,P|362:238|385:276,1,90.9999958343508,4|0,1:2|0:0,0:0:0:0:
228,373,158716,5,4,1:2:0:0:
290,298,158849,1,8,3:0:0:0:
190,289,158982,1,4,3:0:0:0:
231,197,159116,1,4,3:0:0:0:
95,288,159249,1,4,3:0:0:0:
95,288,159516,6,0,P|78:245|87:195,1,90.9999958343508,6|0,0:0|0:0,0:0:0:0:
315,11,159782,2,0,P|332:54|323:104,1,90.9999958343508,4|0,1:2|0:0,0:0:0:0:
123,81,160049,2,0,P|167:73|212:63,1,90.9999958343508,4|0,1:2|0:0,0:0:0:0:
325,211,160316,5,4,1:2:0:0:
239,150,160449,1,8,3:0:0:0:
234,249,160582,1,4,3:0:0:0:
133,256,160716,1,4,3:0:0:0:
275,344,160849,1,4,3:0:0:0:
275,344,161116,6,0,P|320:346|362:325,1,90.9999958343508,6|0,0:0|0:0,0:0:0:0:
143,216,161382,2,0,P|98:209|61:181,1,90.9999958343508,4|0,1:2|0:0,0:0:0:0:
368,128,161649,2,0,P|410:113|441:79,1,90.9999958343508,4|0,1:2|0:0,0:0:0:0:
232,48,161916,5,4,1:2:0:0:
280,124,162049,1,8,3:0:0:0:
218,191,162182,1,4,3:0:0:0:
281,257,162316,1,4,3:0:0:0:
218,323,162449,2,0,P|175:311|129:310,1,90.9999958343508,4|4,3:0|3:0,0:0:0:0:
218,191,162716,5,4,1:2:0:0:
281,257,162849,1,8,3:0:0:0:
369,276,162982,1,4,3:0:0:0:
450,234,163116,1,4,3:0:0:0:
489,152,163249,2,0,P|496:102|481:56,1,90.9999958343508,4|4,3:0|3:0,0:0:0:0:
450,234,163516,6,0,L|455:288,2,45.4999979171754,4|4|4,1:2|3:0|3:0,0:0:0:0:
367,155,163782,2,0,L|362:101,2,45.4999979171754,8|8|8,3:0|3:0|3:0,0:0:0:0:
281,257,164049,2,0,P|214:251|143:282,1,136.499993751526,4|0,1:2|0:0,0:0:0:0:
150,276,164316,6,0,P|184:241|201:196,1,97.9999970092774,6|0,0:0|0:0,0:0:0:0:
36,20,164582,2,0,P|24:67|34:114,1,97.9999970092774,4|0,1:2|0:0,0:0:0:0:
290,245,164849,2,0,P|301:195|289:148,1,97.9999970092774,4|0,1:2|0:0,0:0:0:0:
0,225,165116,6,0,P|43:247|92:250,1,97.9999970092774,4|0,1:2|0:0,0:0:0:0:
310,51,165382,2,0,P|267:29|218:26,1,97.9999970092774,4|0,1:2|0:0,0:0:0:0:
420,275,165649,2,0,P|468:272|511:249,1,97.9999970092774,4|0,1:2|0:0,0:0:0:0:
429,67,165916,6,0,P|441:116|431:164,1,97.9999970092774,6|0,0:0|0:0,0:0:0:0:
260,377,166182,2,0,P|254:329|249:266,1,97.9999970092774,6|0,0:0|0:0,0:0:0:0:
76,68,166449,2,0,P|64:117|74:165,1,97.9999970092774,6|0,0:0|0:0,0:0:0:0:
392,192,166716,6,0,P|359:157|295:136,1,97.9999970092774,4|0,1:2|0:0,0:0:0:0:
116,304,166982,2,0,P|163:292|201:262,1,97.9999970092774,4|0,1:2|0:0,0:0:0:0:
171,11,167249,2,0,P|157:57|171:123,1,97.9999970092774,4|0,1:2|0:0,0:0:0:0:
410,85,167516,6,0,P|362:81|314:63,1,97.9999970092774,6|0,0:0|0:0,0:0:0:0:
76,208,167782,2,0,P|121:190|170:186,1,97.9999970092774,4|0,1:2|0:0,0:0:0:0:
458,342,168049,2,0,P|410:338|362:320,1,97.9999970092774,4|0,1:2|0:0,0:0:0:0:
281,152,168316,2,0,B|294:252|237:251|253:342,1,195.999994018555,6|0,0:0|1:0,0:0:0:0:
184,184,168716,5,0,1:0:0:0:
347,308,168849,1,0,1:0:0:0:
150,270,168982,1,0,1:0:0:0:
277,227,169116,5,2,0:0:0:0:
283,207,169419,5,0,0:0:0:0:
285,187,169669,5,0,0:0:0:0:
284,168,169939,5,0,0:0:0:0:
