osu file format v14

[General]
AudioFilename: audio.ogg
AudioLeadIn: 0
PreviewTime: 65925
Countdown: 0
SampleSet: Soft
StackLeniency: 0.7
Mode: 0
LetterboxInBreaks: 0
EpilepsyWarning: 1
WidescreenStoryboard: 1

[Editor]
Bookmarks: 31342
DistanceSpacing: 0.6
BeatDivisor: 4
GridSize: 8
TimelineZoom: 1.5

[Metadata]
Title:Crystal World ~Fracture~
TitleUnicode:水晶世界 ~Fracture~
Artist:Mio Akiyama
ArtistUnicode:秋山 澪
Creator:ent
Version:pewdekz' Hyper
Source:THE BMS OF FIGHTERS 2010 - The Evolution of War -
Tags:けいおん!! k-on!! keion!! No.44 wa. wa remixed remix by celas bms bof2010 Suishou Sekai Hard NRG deadblue238 琴吹 紬 Tsumugi Kotobuki electronic instrumental pewdekz vitas2222 renumi hewwo ralsei fsjallink fanzhen0019
BeatmapID:3827055
BeatmapSetID:1851073

[Difficulty]
HPDrainRate:4
CircleSize:3.8
OverallDifficulty:6
ApproachRate:8
SliderMultiplier:1
SliderTickRate:1

[Events]
//Background and Video events
0,0,"jonatan-pie-VlH2eHyE_50-unsplash.jpg",0,0
Video,300,"Crystal World Fracture noaudio 360.mp4"
//Break Periods
2,47542,49259
//Storyboard Layer 0 (Background)
//Storyboard Layer 1 (Fail)
//Storyboard Layer 2 (Pass)
//Storyboard Layer 3 (Foreground)
//Storyboard Layer 4 (Overlay)
//Storyboard Sound Samples

[TimingPoints]
676,333.333333333333,4,2,0,30,1,0
2009,-125,4,2,0,40,0,0
2676,-125,4,2,0,40,0,0
3342,-125,4,2,0,40,0,0
11342,-125,4,2,0,45,0,1
12675,-117.647058823529,4,2,0,50,0,0
18009,-111.111111111111,4,2,0,50,0,0
20675,-105.263157894737,4,2,0,50,0,0
22009,-105.263157894737,4,2,0,55,0,1
23342,-95.2380952380952,4,2,0,60,0,0
43342,-95.2380952380952,4,2,0,60,0,1
44675,-100,4,2,0,50,0,0
55342,-95.2380952380952,4,2,0,60,0,1
65925,-90.9090909090909,4,2,0,66,0,0
66009,-90.9090909090909,4,2,0,70,0,1
67342,-90.9090909090909,4,2,0,70,0,0
69342,-90.9090909090909,4,2,0,70,0,1
70009,-90.9090909090909,4,2,0,70,0,0
76675,-88.4955752212389,4,2,0,75,0,1
86009,-88.4955752212389,4,2,0,80,0,1
87342,-88.4955752212389,4,2,0,80,0,0
88675,-86.9565217391304,4,2,0,90,0,1
108675,-86.9565217391304,4,2,0,95,0,1
109675,-86.9565217391304,4,2,0,100,0,1
110009,-100,4,2,0,100,0,0

[Colours]
Combo1 : 255,255,0
Combo2 : 58,75,231
Combo3 : 102,155,255
Combo4 : 255,199,51
Combo5 : 255,219,125
Combo6 : 230,230,230
Combo7 : 0,255,255
Combo8 : 255,128,255

[HitObjects]
86,101,2009,5,4,1:0:0:0:
86,101,2175,2,0,P|146:70|171:67,1,80,2|2,0:0|0:0,0:0:0:0:
250,11,2842,2,0,P|310:42|335:45,1,80,2|2,0:0|0:0,0:0:0:0:
421,15,3509,1,2,0:0:0:0:
493,89,3842,1,2,0:0:0:0:
456,186,4175,2,0,L|370:168,1,80,2|2,0:0|0:0,0:0:0:0:
295,105,4842,5,2,0:0:0:0:
205,158,5175,1,2,0:0:0:0:
109,117,5509,1,2,0:0:0:0:
13,157,5842,2,0,L|29:243,2,80,2|2|2,0:0|0:0|0:0,0:0:0:0:
109,117,6842,1,2,0:0:0:0:
219,159,7175,2,0,L|228:217,1,40,2|0,0:0|0:0,0:0:0:0:
238,277,7509,102,0,B|271:298|271:298|321:293,1,80,2|2,0:0|0:0,0:0:0:0:
371,378,8175,2,0,B|403:356|403:356|419:308,1,80,2|2,0:0|0:0,0:0:0:0:
402,214,8842,1,2,0:0:0:0:
426,113,9175,1,2,0:0:0:0:
356,35,9509,2,0,P|320:56|265:59,1,80,2|2,0:0|0:0,0:0:0:0:
188,16,10175,5,2,0:0:0:0:
88,45,10509,1,2,0:0:0:0:
106,147,10842,1,2,0:0:0:0:
59,239,11175,1,2,0:0:0:0:
59,239,11342,2,0,P|83:278|122:302,1,80,2|8,0:1|0:1,0:0:0:0:
213,312,12009,1,2,0:1:0:0:
294,247,12342,2,0,L|307:197,1,40,10|2,0:1|1:1,0:0:0:0:
379,176,12675,101,6,1:0:0:0:
379,176,12842,2,0,L|367:87,1,85.0000016212464,2|2,0:0|0:0,0:0:0:0:
493,188,13509,2,0,L|481:277,1,85.0000016212464,2|2,0:0|0:0,0:0:0:0:
412,363,14175,1,2,0:0:0:0:
297,352,14509,1,2,0:0:0:0:
215,271,14842,2,0,P|222:239|202:181,1,85.0000016212464,2|2,0:0|0:0,0:0:0:0:
289,107,15509,6,0,P|245:74|204:69,1,85.0000016212464,2|2,0:0|0:0,0:0:0:0:
106,37,16175,1,2,0:0:0:0:
21,114,16509,1,2,0:0:0:0:
47,225,16842,1,2,0:0:0:0:
153,268,17175,2,0,P|184:234|193:190,1,85.0000016212464,2|2,0:0|0:0,0:0:0:0:
164,121,17675,2,0,L|176:63,1,42.5000008106232,8|2,0:1|0:0,0:0:0:0:
273,60,18009,101,4,0:1:0:0:
273,60,18175,2,0,L|373:82,1,89.9999972534181,2|2,0:0|0:0,0:0:0:0:
474,56,18842,2,0,B|482:82|482:82|465:148,1,89.9999972534181,2|2,0:0|0:0,0:0:0:0:
473,231,19342,2,0,P|441:233|418:241,1,44.999998626709,4|2,0:0|0:0,0:0:0:0:
379,299,19675,2,0,P|347:297|324:289,1,44.999998626709,8|2,0:1|0:0,0:0:0:0:
243,264,20009,2,0,L|253:315,1,44.999998626709,0|2,0:0|0:0,0:0:0:0:
311,216,20342,2,0,L|318:165,1,44.999998626709,8|2,0:1|0:0,0:0:0:0:
266,100,20675,5,6,1:1:0:0:
266,100,20842,2,0,P|215:105|175:150,1,94.9999974632264,2|2,0:0|0:0,0:0:0:0:
144,220,21342,2,0,P|166:222|191:230,1,47.4999987316132,0|2,0:0|0:0,0:0:0:0:
77,155,21675,2,0,P|55:165|21:167,1,47.4999987316132,8|2,0:1|0:0,0:0:0:0:
60,62,22009,2,0,L|78:158,1,94.9999974632264,2|2,1:0|1:0,0:0:0:0:
144,220,22509,1,2,0:0:0:0:
103,295,22675,1,0,1:0:0:0:
19,290,22842,1,0,0:0:0:0:
19,290,22925,1,0,1:0:0:0:
19,290,23009,2,0,L|6:239,1,47.4999987316132,0|0,1:0|0:0,0:0:0:0:
115,384,23342,102,0,P|135:372|176:362,1,52.4999983978272,6|2,1:0|0:1,0:0:0:0:
257,377,23675,2,0,L|285:274,1,104.999996795654,10|0,0:1|1:0,0:0:0:0:
303,190,24175,1,2,0:0:0:0:
233,130,24342,2,0,P|211:146|172:154,1,52.4999983978272,8|2,0:1|0:0,0:0:0:0:
100,110,24675,6,0,B|116:33|116:33|102:7,2,104.999996795654,2|10|0,1:0|0:1|1:0,0:0:0:0:
77,211,25509,1,2,0:0:0:0:
132,298,25675,2,0,L|198:286,1,52.4999983978272,8|2,0:1|0:0,0:0:0:0:
255,190,26009,102,0,L|360:213,1,104.999996795654,2|10,1:0|0:1,0:0:0:0:
440,167,26509,1,0,0:0:0:0:
502,241,26675,2,0,L|477:342,1,104.999996795654,2|8,1:1|0:1,0:0:0:0:
476,342,27342,6,0,P|458:358|428:365,1,52.4999983978272,2|2,1:0|0:0,0:0:0:0:
340,384,27675,2,0,P|318:374|302:352,1,52.4999983978272,14|2,0:1|0:0,0:0:0:0:
219,307,28009,2,0,L|245:191,1,104.999996795654,6|14,1:0|0:1,0:0:0:0:
262,111,28509,1,2,0:0:0:0:
206,29,28675,102,0,P|173:58|112:63,1,104.999996795654,2|8,1:0|0:1,0:0:0:0:
26,21,29175,1,2,0:0:0:0:
0,113,29342,2,0,L|14:168,1,52.4999983978272,0|2,1:0|0:0,0:0:0:0:
50,257,29675,1,8,0:1:0:0:
19,348,29842,1,2,0:1:0:0:
112,384,30009,6,0,B|158:363|158:363|183:313,2,104.999996795654,2|10|0,1:1|0:1|1:0,0:0:0:0:
19,348,30842,1,2,0:0:0:0:
50,257,31009,2,0,P|69:243|111:234,1,52.4999983978272,8|2,0:1|0:1,0:0:0:0:
133,243,31259,1,2,0:0:0:0:
133,243,31342,102,0,P|155:249|198:242,1,52.4999983978272,2|2,1:0|0:0,0:0:0:0:
236,327,31675,2,0,P|271:291|277:222,1,104.999996795654,8|0,0:1|1:0,0:0:0:0:
246,143,32175,1,2,0:0:0:0:
289,55,32342,2,0,L|347:68,1,52.4999983978272,8|2,0:1|0:0,0:0:0:0:
418,19,32675,5,2,1:0:0:0:
473,100,32842,1,2,0:0:0:0:
411,185,33009,2,0,L|396:127,1,52.4999983978272,8|2,0:1|0:0,0:0:0:0:
492,238,33342,2,0,L|463:342,1,104.999996795654,2|10,1:0|0:1,0:0:0:0:
463,339,34009,102,0,L|402:351,1,52.4999983978272,6|2,1:0|0:1,0:0:0:0:
314,384,34342,2,0,L|259:374,1,52.4999983978272,10|2,0:1|0:1,0:0:0:0:
238,279,34675,2,0,P|282:260|306:208,1,104.999996795654,0|8,1:0|0:1,0:0:0:0:
305,210,35342,6,0,L|291:105,1,104.999996795654,2|10,1:0|0:1,0:0:0:0:
215,48,35842,1,2,0:0:0:0:
135,97,36009,2,0,P|106:83|71:82,1,52.4999983978272,0|0,1:0|0:0,0:0:0:0:
16,148,36342,2,0,L|40:258,1,104.999996795654,10|2,0:1|1:0,0:0:0:0:
23,347,36842,101,2,0:1:0:0:
114,384,37009,2,0,P|132:366|165:358,1,52.4999983978272,10|2,0:1|0:1,0:0:0:0:
224,284,37342,2,0,L|329:307,1,104.999996795654,0|10,1:0|0:1,0:0:0:0:
326,306,38009,6,0,P|353:295|374:269,1,52.4999983978272,2|0,1:0|0:0,0:0:0:0:
283,169,38342,2,0,P|286:197|306:224,1,52.4999983978272,10|0,0:1|0:0,0:0:0:0:
456,129,38675,2,0,P|407:137|380:186,1,104.999996795654,2|10,1:0|0:1,0:0:0:0:
368,278,39175,1,0,0:0:0:0:
276,356,39342,102,0,B|236:328|236:328|179:333,1,104.999996795654,2|10,1:0|0:1,0:0:0:0:
85,383,39842,1,2,0:0:0:0:
22,306,40009,2,0,L|10:241,1,52.4999983978272,0|2,1:0|0:0,0:0:0:0:
28,158,40342,2,0,B|51:153|72:168|73:175|74:183|100:197|123:191,1,104.999996795654,10|2,0:1|1:0,0:0:0:0:
216,147,40842,5,0,0:0:0:0:
278,223,41009,2,0,L|269:293,1,52.4999983978272,10|2,0:1|0:0,0:0:0:0:
358,333,41342,2,0,L|373:220,1,104.999996795654,0|10,1:0|0:1,0:0:0:0:
426,147,41842,1,2,0:1:0:0:
382,56,42009,102,0,L|320:70,1,52.4999983978272,2|2,1:0|0:1,0:0:0:0:
238,15,42342,1,10,0:1:0:0:
172,87,42509,2,0,P|169:127|117:177,1,104.999996795654,2|2,0:1|0:1,0:0:0:0:
26,207,43009,1,10,0:1:0:0:
0,298,43175,1,2,0:1:0:0:
79,360,43342,6,0,P|102:346|142:344,1,52.4999983978272,4|2,1:2|1:2,0:0:0:0:
157,350,43592,1,0,2:0:0:0:
186,359,43675,2,0,P|212:356|246:334,1,52.4999983978272,0|2,1:0|1:2,0:0:0:0:
322,263,44009,2,0,L|315:220,3,26.2499991989136,0|0|0|0,1:0|1:0|1:0|1:0,0:0:0:0:
297,205,44342,2,0,L|307:161,3,26.2499991989136,2|2|2|2,1:0|1:0|1:0|1:0,0:0:0:0:
290,146,44675,1,6,1:0:0:0:
256,192,44759,12,0,47342,1:0:0:0:
441,347,50009,102,0,L|426:245,1,100,4|8,1:0|0:1,0:0:0:0:
412,152,50509,1,2,0:0:0:0:
337,92,50675,2,0,P|308:121|245:130,1,100,0|8,1:0|0:1,0:0:0:0:
252,132,51342,2,0,P|211:125|155:155,1,100,0|8,1:0|0:1,0:0:0:0:
129,242,51842,1,2,0:0:0:0:
182,331,52009,2,0,L|241:346,1,50,0|2,1:0|0:0,0:0:0:0:
317,384,52342,2,0,L|376:369,1,50,8|2,0:1|0:0,0:0:0:0:
464,384,52675,6,0,L|491:271,1,100,0|8,1:0|0:1,0:0:0:0:
510,196,53175,1,2,0:0:0:0:
475,109,53342,2,0,B|444:118|444:118|411:102|411:102|372:112,1,100,0|8,1:0|0:1,0:0:0:0:
380,109,54009,2,0,P|336:82|274:86,1,100,0|8,1:0|0:1,0:0:0:0:
213,139,54509,1,2,0:0:0:0:
153,68,54675,2,0,L|166:6,1,50,0|2,1:0|0:0,0:0:0:0:
75,105,55009,1,10,0:1:0:0:
111,188,55175,1,10,0:1:0:0:
49,256,55342,102,0,P|81:224|162:213,1,104.999996795654,6|8,1:0|3:1,0:0:0:0:
225,246,55842,1,2,3:2:0:0:
313,194,56009,2,0,L|327:136,1,52.4999983978272,0|2,1:0|3:2,0:0:0:0:
419,144,56342,2,0,L|405:202,1,52.4999983978272,8|2,3:1|3:2,0:0:0:0:
376,67,56675,6,0,P|426:54|481:86,1,104.999996795654,0|8,1:0|3:1,0:0:0:0:
508,168,57175,1,2,3:2:0:0:
473,256,57342,2,0,P|450:272|410:271,1,52.4999983978272,0|2,1:0|3:2,0:0:0:0:
348,230,57675,1,10,3:1:0:0:
269,272,57842,1,2,3:1:0:0:
195,196,58009,102,0,L|216:87,1,104.999996795654,6|8,1:0|3:1,0:0:0:0:
190,7,58509,1,2,3:2:0:0:
101,0,58675,2,0,P|65:6|44:20,1,52.4999983978272,0|2,1:0|3:2,0:0:0:0:
1,89,59009,2,0,L|18:146,1,52.4999983978272,8|2,3:1|3:2,0:0:0:0:
89,191,59342,6,0,L|68:300,1,104.999996795654,0|8,1:0|3:1,0:0:0:0:
131,369,59842,1,2,3:2:0:0:
213,322,60009,1,2,1:0:0:0:
293,365,60175,1,2,3:1:0:0:
364,308,60342,2,0,L|353:240,1,52.4999983978272,10|2,3:1|3:1,0:0:0:0:
407,188,60675,102,0,P|367:229|315:234,1,104.999996795654,6|8,1:0|3:1,0:0:0:0:
265,162,61175,1,2,3:2:0:0:
179,136,61342,2,0,B|151:140|151:140|124:160,1,52.4999983978272,0|2,1:0|3:2,0:0:0:0:
46,131,61675,2,0,B|38:158|38:158|45:191,1,52.4999983978272,8|2,3:1|3:2,0:0:0:0:
117,71,62009,6,0,P|138:33|201:11,1,104.999996795654,0|8,1:0|3:1,0:0:0:0:
286,6,62509,1,2,3:2:0:0:
351,72,62675,2,0,L|339:143,1,52.4999983978272,0|2,1:0|3:2,0:0:0:0:
301,206,63009,1,10,3:1:0:0:
322,295,63175,1,2,3:1:0:0:
247,365,63342,102,0,B|202:357|202:357|191:364|191:364|138:356,1,104.999996795654,6|8,1:0|3:1,0:0:0:0:
114,274,63842,1,2,3:2:0:0:
174,200,64009,2,0,P|196:212|228:214,1,52.4999983978272,0|2,1:0|3:2,0:0:0:0:
307,170,64342,2,0,P|329:158|361:156,1,52.4999983978272,8|2,3:1|1:2,0:0:0:0:
443,211,64675,6,0,L|436:252,3,26.2499991989136,4|0|2|0,1:0|3:0|3:2|3:0,0:0:0:0:
414,261,65009,2,0,L|421:302,3,26.2499991989136,4|0|2|0,1:1|3:0|3:2|3:0,0:0:0:0:
438,318,65342,2,0,P|420:345|386:357,1,52.4999983978272,6|2,1:1|3:2,0:0:0:0:
308,307,65675,1,6,1:0:0:0:
308,307,66009,6,0,P|286:291|238:285,1,55.0000016784668,6|2,1:0|0:0,0:0:0:0:
223,201,66342,2,0,P|199:214|174:256,1,55.0000016784668,10|2,0:1|0:0,0:0:0:0:
90,215,66675,2,0,L|106:335,1,110.000003356934,2|8,1:0|0:1,0:0:0:0:
170,384,67175,1,2,0:0:0:0:
264,315,67342,5,2,1:0:0:0:
343,353,67509,1,2,0:1:0:0:
417,301,67675,2,0,L|426:239,1,55.0000016784668,10|2,0:1|0:1,0:0:0:0:
507,195,68009,2,0,L|515:235,2,27.5000008392334,0|0|2,1:0|0:0|0:0,0:0:0:0:
458,114,68342,2,0,P|440:131|397:140,1,55.0000016784668,8|2,0:1|0:0,0:0:0:0:
314,98,68675,102,0,P|286:89|238:91,1,55.0000016784668,2|2,1:0|0:0,0:0:0:0:
206,21,69009,2,0,P|186:42|168:87,1,55.0000016784668,10|2,0:1|0:0,0:0:0:0:
122,130,69342,1,0,1:0:0:0:
212,203,69509,2,0,L|204:142,2,55.0000016784668,2|8|2,0:1|0:1|0:1,0:0:0:0:
99,243,70009,6,0,B|127:242|146:259|146:265|145:270|159:291|193:293,1,110.000003356934,2|10,1:0|0:1,0:0:0:0:
281,258,70509,1,2,0:0:0:0:
289,266,70592,1,2,0:0:0:0:
289,266,70675,2,0,L|301:331,1,55.0000016784668,2|2,1:0|0:0,0:0:0:0:
393,335,71009,2,0,L|381:270,1,55.0000016784668,10|2,0:1|0:0,0:0:0:0:
469,260,71342,102,0,P|422:264|366:223,1,110.000003356934,2|10,1:0|0:1,0:0:0:0:
379,141,71842,1,2,0:0:0:0:
313,73,72009,2,0,P|287:86|255:85,1,55.0000016784668,2|2,1:0|0:0,0:0:0:0:
230,73,72259,1,0,0:0:0:0:
230,73,72342,2,0,P|196:67|165:81,1,55.0000016784668,8|2,0:1|0:0,0:0:0:0:
61,70,72675,6,0,L|76:137,1,55.0000016784668,2|2,1:0|0:1,0:0:0:0:
151,184,73009,2,0,L|139:251,1,55.0000016784668,10|2,0:1|0:1,0:0:0:0:
44,294,73342,2,0,L|35:255,2,27.5000008392334,2|0|2,1:0|0:0|0:0,0:0:0:0:
142,239,73675,2,0,P|170:256|194:287,1,55.0000016784668,8|2,0:1|0:0,0:0:0:0:
200,378,74009,102,0,P|250:359|277:299,1,110.000003356934,2|10,1:0|0:1,0:0:0:0:
277,213,74509,1,2,0:0:0:0:
350,149,74675,2,0,L|421:171,1,55.0000016784668,2|2,1:0|0:0,0:0:0:0:
439,164,74925,1,0,0:0:0:0:
439,164,75009,2,0,L|461:235,1,55.0000016784668,10|2,0:1|0:0,0:0:0:0:
490,353,75342,6,0,L|432:343,1,55.0000016784668,2|2,1:0|0:0,0:0:0:0:
334,274,75675,2,0,L|405:252,1,55.0000016784668,10|2,0:1|0:0,0:0:0:0:
349,368,76009,1,2,1:0:0:0:
259,327,76175,1,2,0:0:0:0:
262,229,76342,1,14,0:1:0:0:
187,170,76509,1,2,1:2:0:0:
127,251,76675,102,0,B|153:271|153:271|244:253,1,113.000000344849,6|10,1:0|0:1,0:0:0:0:
283,171,77175,1,2,0:0:0:0:
238,88,77342,2,0,P|209:78|172:82,1,56.5000001724243,2|2,1:1|0:0,0:0:0:0:
81,60,77675,2,0,L|98:120,1,56.5000001724243,8|2,0:1|0:0,0:0:0:0:
34,205,78009,5,2,1:0:0:0:
105,268,78175,1,2,0:1:0:0:
192,228,78342,2,0,L|209:152,1,56.5000001724243,10|2,0:1|0:1,0:0:0:0:
293,268,78675,2,0,L|282:223,2,28.2500000862122,0|0|2,1:0|0:0|0:0,0:0:0:0:
343,175,79009,2,0,P|374:168|397:150,1,56.5000001724243,8|2,0:1|0:0,0:0:0:0:
505,253,79342,102,0,P|456:231|400:252,1,113.000000344849,2|14,1:0|0:1,0:0:0:0:
351,334,79842,1,2,0:0:0:0:
260,343,80009,2,0,L|245:283,1,56.5000001724243,2|2,1:0|0:1,0:0:0:0:
270,188,80342,1,10,0:1:0:0:
192,143,80509,1,2,0:1:0:0:
130,251,80675,6,0,P|156:250|182:233,1,56.5000001724243,2|2,1:0|0:0,0:0:0:0:
270,188,81009,2,0,L|293:75,1,113.000000344849,8|2,0:1|1:0,0:0:0:0:
224,11,81509,1,2,0:0:0:0:
128,37,81675,2,0,L|144:106,1,56.5000001724243,10|2,0:1|0:0,0:0:0:0:
50,155,82009,102,0,P|81:172|96:191,1,56.5000001724243,2|2,1:0|0:0,0:0:0:0:
175,242,82342,2,0,P|209:233|228:219,1,56.5000001724243,10|2,0:1|0:0,0:0:0:0:
294,153,82675,2,0,P|341:191|403:186,1,113.000000344849,2|8,1:0|0:1,0:0:0:0:
469,136,83175,1,2,0:0:0:0:
381,74,83342,6,0,B|359:103|359:103|378:189,1,113.000000344849,2|10,1:0|0:1,0:0:0:0:
403,266,83842,1,2,0:1:0:0:
350,344,84009,1,0,1:0:0:0:
350,344,84092,1,0,0:0:0:0:
350,344,84175,2,0,P|322:331|277:326,2,56.5000001724243,2|8|2,0:0|0:1|0:0,0:0:0:0:
208,357,84675,102,0,P|214:288|198:223,1,113.000000344849,2|2,1:0|1:1,0:0:0:0:
157,167,85175,1,2,1:2:0:0:
198,79,85342,2,0,P|246:58|271:61,1,56.5000001724243,0|2,1:0|1:0,0:0:0:0:
157,167,85675,2,0,P|117:147|84:147,1,56.5000001724243,2|2,1:0|1:0,0:0:0:0:
20,210,86009,6,0,L|27:245,3,28.2500000862122,6|0|0|4,1:0|1:0|1:0|1:0,0:0:0:0:
48,266,86342,2,0,L|41:309,3,28.2500000862122,0|0|4|0,1:0|1:0|1:0|1:0,0:0:0:0:
72,339,86675,1,2,1:0:0:0:
72,339,86759,1,4,1:0:0:0:
72,339,86842,1,4,1:0:0:0:
72,339,86925,1,0,1:0:0:0:
72,339,87009,1,6,1:0:0:0:
256,192,87342,12,2,88342,1:0:0:0:
273,47,88675,6,0,P|302:30|332:27,1,57.5000010967255,6|2,1:0|0:0,0:0:0:0:
356,42,88925,2,0,P|383:58|414:60,1,57.5000010967255
441,49,89175,1,2,0:0:0:0:
471,149,89342,2,0,L|457:218,1,57.5000010967255,2|2,1:0|0:0,0:0:0:0:
439,233,89592,2,0,L|449:290,1,57.5000010967255,2|0,0:0|0:0,0:0:0:0:
472,315,89842,1,2,0:0:0:0:
422,384,90009,6,0,L|341:369,1,57.5000010967255,0|2,1:0|0:0,0:0:0:0:
318,289,90342,1,10,0:1:0:0:
237,328,90509,2,0,L|242:372,2,28.7500005483627,2|0|2,0:1|0:0|1:0,0:0:0:0:
169,266,90842,1,2,0:0:0:0:
181,173,91009,2,0,L|259:148,1,57.5000010967255,10|2,0:1|0:0,0:0:0:0:
323,71,91342,6,0,P|306:40|267:23,1,57.5000010967255,0|2,1:0|0:0,0:0:0:0:
259,8,91592,2,0,L|201:21,1,57.5000010967255,2|2,0:0|0:0,0:0:0:0:
171,6,91842,1,2,0:1:0:0:
63,37,92009,2,0,L|44:104,1,57.5000010967255,0|2,1:0|0:0,0:0:0:0:
21,115,92259,2,0,L|32:186,1,57.5000010967255,2|2,0:0|0:0,0:0:0:0:
37,205,92509,1,2,0:1:0:0:
0,308,92675,6,0,P|23:326|72:325,1,57.5000010967255,2|2,1:0|0:0,0:0:0:0:
83,321,92925,1,0,0:0:0:0:
113,303,93009,2,0,P|140:294|186:312,1,57.5000010967255,8|2,0:1|0:0,0:0:0:0:
268,303,93342,1,2,1:0:0:0:
268,303,93425,2,0,L|258:237,1,57.5000010967255,2|2,0:0|0:0,0:0:0:0:
233,223,93675,2,0,L|242:179,3,28.7500005483627,10|2|2|2,0:1|0:0|0:1|0:0,0:0:0:0:
265,172,94009,70,0,P|299:188|332:183,1,57.5000010967255,2|2,1:0|0:0,0:0:0:0:
346,167,94259,1,2,0:0:0:0:
359,135,94342,2,0,L|348:71,1,57.5000010967255,8|2,0:1|0:1,0:0:0:0:
435,28,94675,2,0,L|448:95,1,57.5000010967255,0|2,1:0|0:1,0:0:0:0:
501,172,95009,2,0,L|510:129,3,28.7500005483627,8|2|2|2,0:1|0:0|0:0|0:0,0:0:0:0:
474,196,95342,6,0,P|442:201|413:230,1,57.5000010967255,2|2,1:0|0:0,0:0:0:0:
398,241,95592,1,0,0:0:0:0:
368,258,95675,2,0,P|335:255|303:230,1,57.5000010967255,10|2,0:1|0:0,0:0:0:0:
261,169,96009,1,2,1:0:0:0:
177,221,96175,1,2,0:1:0:0:
177,221,96259,1,2,0:0:0:0:
177,221,96342,2,0,L|192:303,1,57.5000010967255,10|2,0:1|0:1,0:0:0:0:
69,334,96675,5,2,1:0:0:0:
69,334,96759,1,2,0:0:0:0:
69,334,96842,2,0,P|78:304|67:262,1,57.5000010967255,2|10,0:0|0:1,0:0:0:0:
43,188,97175,1,2,0:0:0:0:
94,104,97342,1,0,1:0:0:0:
94,104,97425,1,0,0:0:0:0:
94,104,97509,2,0,B|89:77|89:77|67:53,1,57.5000010967255,0|10,0:1|0:1,0:0:0:0:
168,40,97842,1,2,0:0:0:0:
236,122,98009,5,2,1:0:0:0:
239,142,98092,1,0,0:0:0:0:
241,162,98175,1,2,0:0:0:0:
137,227,98342,2,0,L|145:185,2,28.7500005483627,8|0|2,0:1|0:0|0:0,0:0:0:0:
210,333,98675,2,0,L|202:293,3,28.7500005483627,2|2|2|2,1:0|0:0|0:1|0:0,0:0:0:0:
215,271,99009,2,0,P|238:253|280:247,1,57.5000010967255,10|2,0:1|0:1,0:0:0:0:
385,176,99342,70,0,P|358:170|323:140,1,57.5000010967255,6|2,1:0|0:0,0:0:0:0:
303,136,99592,2,0,P|275:130|231:143,1,57.5000010967255,2|2,0:0|0:0,0:0:0:0:
214,147,99842,2,0,P|170:154|104:98,1,115.000002193451,2|2,0:1|0:0,0:0:0:0:
8,129,100342,1,10,0:1:0:0:
8,129,100425,1,0,0:0:0:0:
8,129,100509,2,0,P|31:158|41:192,1,57.5000010967255,2|2,0:1|1:0,0:0:0:0:
14,282,100842,5,2,0:0:0:0:
69,365,101009,2,0,L|151:342,1,57.5000010967255,8|2,0:1|0:0,0:0:0:0:
157,337,101259,1,0,0:0:0:0:
189,325,101342,2,0,P|219:326|253:342,1,57.5000010967255,2|2,1:0|0:0,0:0:0:0:
272,356,101592,1,0,0:0:0:0:
300,374,101675,2,0,P|330:373|364:357,1,57.5000010967255,10|2,0:1|0:0,0:0:0:0:
430,295,102009,1,2,1:0:0:0:
430,295,102092,6,0,L|408:221,1,57.5000010967255
388,216,102342,2,0,L|400:150,1,57.5000010967255,8|2,0:1|0:1,0:0:0:0:
344,79,102675,2,0,P|307:99|266:103,1,57.5000010967255,0|2,1:0|0:0,0:0:0:0:
203,60,103009,2,0,L|195:95,3,28.7500005483627,8|2|2|2,0:1|0:0|0:1|0:0,0:0:0:0:
176,115,103342,6,0,L|191:188,1,57.5000010967255,2|2,1:0|0:0,0:0:0:0:
194,205,103592,1,2,0:0:0:0:
201,238,103675,2,0,P|186:264|157:280,1,57.5000010967255,8|2,0:1|0:0,0:0:0:0:
80,334,104009,1,2,1:0:0:0:
10,271,104175,1,2,0:0:0:0:
10,271,104259,1,2,0:0:0:0:
10,271,104342,2,0,L|24:205,1,57.5000010967255,10|2,0:1|0:0,0:0:0:0:
101,148,104675,70,0,P|132:167|174:176,1,57.5000010967255,2|2,1:0|0:0,0:0:0:0:
186,170,104925,1,2,0:0:0:0:
211,145,105009,2,0,L|202:100,3,28.7500005483627,8|0|2|0,0:1|0:0|0:1|0:0,0:0:0:0:
221,86,105342,2,0,P|275:81|325:125,1,115.000002193451,2|10,1:0|0:1,0:0:0:0:
335,148,105759,1,2,0:0:0:0:
330,169,105842,1,2,0:0:0:0:
325,191,105925,1,2,0:0:0:0:
320,210,106009,6,0,P|298:231|255:237,1,57.5000010967255,2|2,1:0|0:0,0:0:0:0:
248,325,106342,2,0,P|219:313|196:276,1,57.5000010967255,10|2,0:1|0:0,0:0:0:0:
112,304,106675,2,0,L|126:241,1,57.5000010967255,2|2,1:2|0:0,0:0:0:0:
134,214,106925,1,2,0:0:0:0:
143,180,107009,2,0,P|122:159|77:147,1,57.5000010967255,8|2,0:1|0:1,0:0:0:0:
0,107,107342,6,0,L|19:186,1,57.5000010967255,2|2,1:0|0:0,0:0:0:0:
71,245,107675,2,0,L|52:324,1,57.5000010967255,8|2,0:1|0:0,0:0:0:0:
145,372,108009,1,2,1:2:0:0:
145,372,108092,1,2,0:0:0:0:
145,372,108175,1,2,0:0:0:0:
145,372,108259,1,2,0:0:0:0:
145,372,108342,2,0,L|197:355,3,28.7500005483627,8|2|2|2,0:1|0:0|0:0|0:0,0:0:0:0:
198,336,108675,6,0,L|271:350,1,57.5000010967255,6|2,1:0|1:0,0:0:0:0:
314,269,109009,1,2,1:0:0:0:
296,176,109175,1,2,1:0:0:0:
349,77,109342,2,0,L|391:82,3,28.7500005483627,2|0|0|0,1:0|1:0|1:0|1:0,0:0:0:0:
401,110,109675,2,0,L|450:102,3,28.7500005483627,10|2|2|2,1:0|1:0|1:0|1:0,0:0:0:0:
451,81,110009,1,6,1:0:0:0:
