osu file format v14

[General]
AudioFilename: audio.ogg
AudioLeadIn: 0
PreviewTime: 65925
Countdown: 0
SampleSet: Soft
StackLeniency: 0.7
Mode: 0
LetterboxInBreaks: 0
EpilepsyWarning: 1
WidescreenStoryboard: 1

[Editor]
DistanceSpacing: 0.7
BeatDivisor: 4
GridSize: 8
TimelineZoom: 2.699999

[Metadata]
Title:Crystal World ~Fracture~
TitleUnicode:水晶世界 ~Fracture~
Artist:Mio Akiyama
ArtistUnicode:秋山 澪
Creator:ent
Version:fanzhen's Another '2012
Source:THE BMS OF FIGHTERS 2010 - The Evolution of War -
Tags:けいおん!! k-on!! keion!! No.44 wa. wa remixed remix by celas bms bof2010 Suishou Sekai Hard NRG deadblue238 琴吹 紬 Tsumugi Kotobuki electronic instrumental pewdekz vitas2222 renumi hewwo ralsei fsjallink fanzhen0019
BeatmapID:4459294
BeatmapSetID:1851073

[Difficulty]
HPDrainRate:7
CircleSize:4
OverallDifficulty:9
ApproachRate:9
SliderMultiplier:2.08
SliderTickRate:1

[Events]
//Background and Video events
0,0,"crystal-world-h.png",0,0
Video,300,"Crystal World Fracture noaudio 360.mp4"
//Break Periods
//Storyboard Layer 0 (Background)
//Storyboard Layer 1 (Fail)
//Storyboard Layer 2 (Pass)
//Storyboard Layer 3 (Foreground)
//Storyboard Layer 4 (Overlay)
//Storyboard Sound Samples

[TimingPoints]
676,333.333333333333,4,2,0,5,1,0
1842,-100,4,2,0,30,0,0
2009,-100,4,2,0,40,0,0
7342,-133.333333333333,4,2,0,40,0,0
11342,-100,4,2,0,45,0,0
12509,-100,4,2,0,45,0,0
12675,-200,4,2,0,50,0,0
14009,-100,4,2,0,50,0,0
21925,-100,4,2,0,50,0,0
22009,-100,4,2,0,55,0,0
23259,-100,4,2,0,55,0,0
23342,-100,4,2,0,60,0,0
24675,-100,4,2,0,60,0,0
24842,-100,4,2,0,60,0,0
26175,-100,4,2,0,60,0,0
28675,-100,4,2,0,60,0,0
29759,-100,4,2,0,60,0,0
29925,-100,4,2,0,60,0,0
31509,-100,4,2,0,60,0,0
32592,-100,4,2,0,60,0,0
33842,-100,4,2,0,60,0,0
33925,-100,4,2,0,60,0,0
43425,-100,4,2,0,60,0,0
44592,-100,4,2,0,60,0,0
44675,-100,4,2,0,75,0,0
44842,-100,4,2,0,50,0,0
49759,-100,4,2,0,50,0,0
49925,-100,4,2,0,50,0,0
55009,-100,4,2,0,50,0,0
55342,-66.6666666666667,4,2,0,60,0,0
64675,-100,4,2,0,60,0,0
65009,-100,4,2,0,60,0,0
65342,-66.6666666666667,4,2,0,60,0,0
65675,-66.6666666666667,4,2,0,60,0,0
65925,-66.6666666666667,4,2,0,66,0,0
66009,-100,4,2,0,70,0,0
76009,-100,4,2,0,70,0,0
76092,-100,4,2,0,70,0,0
76175,-100,4,2,0,70,0,0
76259,-100,4,2,0,70,0,0
76509,-100,4,2,0,70,0,0
76592,-100,4,2,0,70,0,0
76675,-100,4,2,0,75,0,0
84301,-100,4,2,0,75,0,0
86009,-100,4,2,0,80,0,0
88592,-100,4,2,0,80,0,0
88675,-100,4,2,0,90,0,0
107342,-100,4,2,0,90,0,0
108634,-100,4,2,0,90,0,0
108675,-100,4,2,0,95,0,0
109675,-100,4,2,0,100,0,0
110092,-100,4,2,0,5,0,0
115342,-100,4,2,0,25,0,0

[Colours]
Combo1 : 255,255,0
Combo2 : 58,75,231
Combo3 : 102,155,255
Combo4 : 255,199,51
Combo5 : 255,219,125
Combo6 : 230,230,230
Combo7 : 0,255,255
Combo8 : 255,128,255

[HitObjects]
256,192,676,12,0,1842,0:0:0:0:
256,192,2009,5,4,1:0:0:0:
364,132,2175,1,2,0:0:0:0:
380,160,2259,1,0,0:0:0:0:
396,188,2342,2,0,B|382:244|382:244|352:288,1,104,8|2,0:1|0:0,0:0:0:0:
364,132,2842,5,2,0:0:0:0:
396,152,2925,1,0,0:0:0:0:
432,176,3009,2,0,B|433:228|433:228|420:292,1,104,8|2,0:1|0:0,0:0:0:0:
256,192,3342,101,0,0:0:0:0:
148,132,3509,1,2,0:0:0:0:
132,160,3592,1,0,0:0:0:0:
116,188,3675,2,0,B|129:244|129:244|160:288,1,104,8|2,0:1|0:0,0:0:0:0:
148,132,4175,5,2,0:0:0:0:
116,152,4259,1,0,0:0:0:0:
80,176,4342,2,0,B|78:228|78:228|92:292,1,104,8|2,0:1|0:0,0:0:0:0:
256,192,4675,101,0,0:0:0:0:
148,132,4842,5,2,0:0:0:0:
96,148,4925,1,0,0:0:0:0:
52,164,5009,2,0,B|16:200|16:200|4:268,1,104,8|2,0:1|0:0,0:0:0:0:
256,192,5342,1,0,0:0:0:0:
364,132,5509,101,2,0:0:0:0:
416,148,5592,1,0,0:0:0:0:
460,164,5675,2,0,B|496:200|496:200|508:268,1,104,8|2,0:1|0:0,0:0:0:0:
256,192,6009,1,0,0:0:0:0:
148,132,6175,5,2,0:0:0:0:
88,112,6259,1,0,0:0:0:0:
32,92,6342,2,0,B|0:80|0:80|32:156,1,104,8|2,0:1|0:0,0:0:0:0:
256,192,6675,1,0,0:0:0:0:
364,132,6842,101,2,0:0:0:0:
424,112,6925,1,0,0:0:0:0:
480,92,7009,2,0,B|512:80|512:80|480:156,1,104,8|2,0:1|0:0,0:0:0:0:
256,192,7342,6,0,B|208:152|136:172,1,116.999996513128
80,216,7675,2,0,B|56:300,1,77.9999976754189,8|2,0:1|0:0,0:0:0:0:
64,328,7925,1,0,0:0:0:0:
64,328,8009,1,0,0:0:0:0:
220,260,8175,101,2,0:0:0:0:
240,224,8259,1,0,0:0:0:0:
256,192,8342,2,0,B|253:140|224:120,1,77.9999976754189,8|2,0:1|0:0,0:0:0:0:
100,68,8675,1,0,0:0:0:0:
48,152,8842,5,2,0:0:0:0:
92,144,8925,1,0,0:0:0:0:
136,136,9009,2,0,B|216:160,1,77.9999976754189,8|2,0:1|0:0,0:0:0:0:
348,208,9342,1,0,0:0:0:0:
464,104,9509,101,2,0:0:0:0:
432,92,9592,1,0,0:0:0:0:
400,80,9675,1,8,0:1:0:0:
252,112,9842,1,2,0:0:0:0:
348,208,10009,5,0,0:0:0:0:
464,104,10175,1,2,0:0:0:0:
432,92,10259,1,0,0:0:0:0:
400,80,10342,1,8,0:1:0:0:
224,80,10509,1,2,0:0:0:0:
344,244,10675,1,0,0:0:0:0:
436,132,10842,101,2,0:0:0:0:
432,92,10925,1,0,0:0:0:0:
424,48,11009,1,8,0:1:0:0:
236,44,11175,1,2,0:0:0:0:
312,268,11342,1,2,0:1:0:0:
404,156,11509,5,2,0:1:0:0:
432,92,11592,1,0,0:0:0:0:
464,28,11675,1,8,0:1:0:0:
216,116,11842,1,2,0:0:0:0:
272,28,12009,102,0,B|426:49,1,156,2|0,0:1|0:0,0:0:0:0:
316,136,12342,1,10,0:1:0:0:
156,116,12509,1,2,1:1:0:0:
112,112,12592,1,0,0:0:0:0:
68,108,12675,5,6,1:0:0:0:
64,232,12842,1,2,0:0:0:0:
64,232,12925,1,0,0:0:0:0:
64,232,13009,2,0,B|148:244,1,78,8|0,0:1|0:0,0:0:0:0:
141,243,13342,101,0,0:0:0:0:
156,116,13509,1,2,0:0:0:0:
120,96,13592,1,0,0:0:0:0:
80,76,13675,1,8,0:1:0:0:
12,148,13842,1,2,0:0:0:0:
156,116,14009,5,0,0:0:0:0:
292,88,14175,1,2,0:0:0:0:
292,88,14259,1,0,0:0:0:0:
292,88,14342,1,8,0:1:0:0:
248,216,14509,1,2,0:0:0:0:
156,116,14675,101,0,0:0:0:0:
364,72,14842,1,2,0:0:0:0:
364,72,14925,1,0,0:0:0:0:
364,72,15009,1,8,0:1:0:0:
288,272,15175,1,2,0:0:0:0:
156,116,15342,5,0,0:0:0:0:
360,184,15509,1,2,0:0:0:0:
400,164,15592,1,0,0:0:0:0:
444,140,15675,2,0,B|500:48,1,104,8|2,0:1|0:0,0:0:0:0:
248,216,16009,1,0,0:0:0:0:
348,232,16175,101,2,0:0:0:0:
360,184,16259,1,0,0:0:0:0:
368,136,16342,2,0,B|360:24,1,104,8|2,0:1|0:0,0:0:0:0:
288,272,16675,1,0,0:0:0:0:
396,304,16842,5,2,0:0:0:0:
348,232,16925,1,0,0:0:0:0:
300,164,17009,2,0,B|220:92,1,104,8|2,0:1|0:0,0:0:0:0:
148,112,17259,1,0,0:0:0:0:
148,112,17342,102,0,B|96:124|48:88,1,104,0|2,0:0|0:0,0:0:0:0:
112,212,17675,2,0,B|164:224|212:188,1,104,8|2,0:1|0:0,0:0:0:0:
312,68,18009,5,4,0:1:0:0:
404,116,18175,1,2,0:0:0:0:
404,116,18259,1,0,0:0:0:0:
404,116,18342,1,8,0:1:0:0:
320,164,18509,1,2,0:0:0:0:
360,40,18675,101,0,0:0:0:0:
440,152,18842,1,2,0:0:0:0:
440,152,18925,1,0,0:0:0:0:
440,152,19009,1,8,0:1:0:0:
308,216,19175,1,2,0:0:0:0:
220,100,19342,5,4,0:0:0:0:
268,148,19509,1,2,0:0:0:0:
160,160,19675,1,8,0:1:0:0:
324,88,19842,1,2,0:0:0:0:
104,84,20009,101,0,0:0:0:0:
220,100,20175,1,2,0:0:0:0:
288,0,20342,1,8,0:1:0:0:
508,172,20509,5,2,0:0:0:0:
392,188,20675,1,6,1:1:0:0:
324,88,20842,1,2,0:0:0:0:
84,232,21009,101,8,0:1:0:0:
200,248,21175,1,2,0:0:0:0:
268,148,21342,1,0,0:0:0:0:
504,280,21509,5,2,0:0:0:0:
388,296,21675,1,8,0:1:0:0:
320,196,21842,1,2,0:0:0:0:
320,196,21925,1,0,0:0:0:0:
320,196,22009,102,0,B|296:296,1,104,2|2,1:0|0:0,0:0:0:0:
0,240,22342,2,0,B|24:140,1,104,2|2,1:0|0:0,0:0:0:0:
172,44,22675,1,0,1:0:0:0:
200,248,22925,1,0,1:0:0:0:
200,248,23009,1,0,1:0:0:0:
80,352,23175,1,0,0:0:0:0:
128,348,23259,1,0,0:0:0:0:
176,344,23342,6,0,B|284:352,1,104,6|2,1:0|0:1,0:0:0:0:
440,184,23675,1,10,0:1:0:0:
460,300,23842,1,2,0:1:0:0:
412,304,23925,1,0,0:0:0:0:
364,292,24009,1,0,1:0:0:0:
328,264,24092,1,0,0:0:0:0:
304,224,24175,1,2,0:0:0:0:
304,172,24259,1,0,0:0:0:0:
320,128,24342,1,8,0:1:0:0:
440,184,24509,1,2,0:0:0:0:
440,184,24592,1,0,0:0:0:0:
440,184,24675,101,2,1:0:0:0:
96,280,24842,1,2,0:0:0:0:
164,212,25009,5,10,0:1:0:0:
180,168,25092,1,0,0:0:0:0:
172,120,25175,1,2,0:0:0:0:
140,84,25259,1,0,0:0:0:0:
96,68,25342,1,0,1:0:0:0:
64,164,25509,1,2,0:0:0:0:
64,164,25592,1,0,0:0:0:0:
64,164,25675,101,8,0:1:0:0:
208,296,25842,1,2,0:0:0:0:
320,128,26009,6,0,B|428:132,1,104,2|0,1:0|0:0,0:0:0:0:
420,224,26342,2,0,B|312:220,1,104,10|0,0:1|0:0,0:0:0:0:
320,136,26675,102,0,B|428:140,1,104,2|2,1:1|0:0,0:0:0:0:
420,232,27009,2,0,B|312:228,1,104,8|2,0:1|0:0,0:0:0:0:
64,164,27342,5,2,1:0:0:0:
36,200,27425,1,0,0:0:0:0:
36,248,27509,1,2,0:0:0:0:
220,136,27675,101,14,0:1:0:0:
248,100,27759,1,0,0:0:0:0:
248,52,27842,1,2,0:0:0:0:
156,224,28009,5,6,1:0:0:0:
168,268,28092,1,0,0:0:0:0:
208,296,28175,1,2,0:0:0:0:
256,300,28259,1,0,0:0:0:0:
300,288,28342,2,0,B|372:284,1,52,14|0,0:1|0:0,0:0:0:0:
460,160,28509,2,0,B|532:156,1,52,2|0,0:0|0:0,0:0:0:0:
420,232,28675,101,2,1:0:0:0:
420,232,28759,1,0,0:0:0:0:
420,232,28842,1,2,0:1:0:0:
360,32,29009,6,0,B|360:84|312:120,1,104,8|2,0:1|0:0,0:0:0:0:
268,132,29259,1,0,0:0:0:0:
220,124,29342,1,0,1:0:0:0:
180,96,29425,1,0,0:0:0:0:
132,92,29509,1,2,0:0:0:0:
88,104,29592,1,0,0:0:0:0:
56,140,29675,1,8,0:1:0:0:
32,312,29842,101,2,0:1:0:0:
288,236,30009,2,0,B|272:296,1,52,2|0,1:1|0:0,0:0:0:0:
224,364,30175,5,2,0:1:0:0:
180,352,30259,1,0,0:0:0:0:
132,352,30342,1,10,0:1:0:0:
32,52,30509,2,0,B|48:112,1,52,2|0,0:1|0:0,0:0:0:0:
96,180,30675,101,0,1:0:0:0:
140,168,30759,1,0,0:0:0:0:
188,168,30842,1,2,0:0:0:0:
232,180,30925,1,0,0:0:0:0:
272,204,31009,1,8,0:1:0:0:
360,336,31175,5,2,0:1:0:0:
364,344,31259,1,2,0:0:0:0:
368,352,31342,1,2,1:0:0:0:
432,228,31509,101,2,0:0:0:0:
444,320,31675,1,8,0:1:0:0:
276,316,31842,1,2,0:0:0:0:
340,132,32009,5,0,1:0:0:0:
352,224,32175,1,2,0:0:0:0:
184,220,32342,1,8,0:1:0:0:
508,152,32509,1,2,0:0:0:0:
440,276,32675,101,2,1:0:0:0:
368,300,32842,1,2,0:0:0:0:
236,236,33009,5,8,0:1:0:0:
308,212,33175,1,2,0:0:0:0:
92,128,33342,101,2,1:0:0:0:
116,200,33509,1,2,0:0:0:0:
52,332,33675,5,10,0:1:0:0:
28,260,33842,1,2,1:2:0:0:
192,40,34009,101,6,1:0:0:0:
436,120,34175,2,0,B|448:68,1,52,2|0,0:1|0:0,0:0:0:0:
436,120,34342,2,0,B|272:148,1,156,10|0,0:1|0:0,0:0:0:0:
208,236,34675,1,0,1:0:0:0:
156,228,34759,1,0,0:0:0:0:
116,200,34842,1,2,0:0:0:0:
88,160,34925,1,0,0:0:0:0:
84,112,35009,1,8,0:1:0:0:
284,48,35175,1,2,0:0:0:0:
208,124,35342,5,2,1:0:0:0:
80,360,35509,1,0,0:0:0:0:
116,332,35592,1,0,0:0:0:0:
160,324,35675,1,10,0:1:0:0:
208,332,35759,1,0,0:0:0:0:
248,360,35842,1,2,0:0:0:0:
408,332,36009,101,0,1:0:0:0:
372,304,36092,1,0,0:0:0:0:
364,256,36175,1,0,0:0:0:0:
388,216,36259,1,0,0:0:0:0:
432,200,36342,2,0,B|456:88,1,104,10|2,0:1|0:0,0:0:0:0:
472,8,36675,5,2,1:0:0:0:
56,144,36842,1,2,0:1:0:0:
200,92,37009,101,10,0:1:0:0:
220,132,37092,1,0,0:0:0:0:
216,180,37175,1,2,0:1:0:0:
188,220,37259,1,0,0:0:0:0:
144,240,37342,1,0,1:0:0:0:
164,284,37425,1,0,0:0:0:0:
208,304,37509,1,2,0:0:0:0:
256,304,37592,1,0,0:0:0:0:
300,284,37675,6,0,B|324:176,1,104,10|0,0:1|0:0,0:0:0:0:
332,72,38009,102,0,B|392:84,1,52,2|0,1:0|0:0,0:0:0:0:
376,268,38175,6,0,B|364:328,1,52
180,312,38342,102,0,B|120:300,1,52,10|0,0:1|0:0,0:0:0:0:
136,116,38509,6,0,B|148:56,1,52
394,99,38675,102,0,B|453:141,1,52,2|0,1:0|0:0,0:0:0:0:
348,330,38842,6,0,B|306:389,1,52
117,284,39009,102,0,B|58:242,1,52,10|0,0:1|0:0,0:0:0:0:
164,52,39175,6,0,B|206:-6,1,52
428,160,39342,102,0,B|444:212|440:264,1,104,2|2,1:0|0:0,0:0:0:0:
228,260,39675,1,10,0:1:0:0:
276,156,39842,1,2,0:0:0:0:
60,56,40009,1,0,1:0:0:0:
68,100,40092,1,0,0:0:0:0:
100,132,40175,1,2,0:0:0:0:
120,176,40259,1,0,0:0:0:0:
112,224,40342,5,10,0:1:0:0:
24,312,40509,1,2,0:0:0:0:
384,80,40675,2,0,B|344:188,1,104,2|0,1:0|0:0,0:0:0:0:
280,336,41009,102,0,B|224:344,1,52,10|0,0:1|0:0,0:0:0:0:
24,312,41175,2,0,B|80:304,1,52,2|0,0:0|0:0,0:0:0:0:
192,256,41342,1,0,1:0:0:0:
212,212,41425,1,0,0:0:0:0:
212,164,41509,1,2,0:0:0:0:
196,120,41592,1,0,0:0:0:0:
168,84,41675,6,0,B|224:88,1,52,10|0,0:1|0:0,0:0:0:0:
92,32,41842,2,0,B|36:28,1,52,2|0,0:1|0:0,0:0:0:0:
80,156,42009,101,2,1:0:0:0:
344,172,42175,1,2,0:1:0:0:
48,232,42342,1,10,0:1:0:0:
316,252,42509,1,2,0:1:0:0:
24,312,42675,6,0,B|88:304,1,52,0|0,1:0|0:0,0:0:0:0:
344,172,42842,2,0,B|280:180,1,52,2|0,0:1|0:0,0:0:0:0:
80,156,43009,2,0,B|144:148,1,52,10|0,0:1|0:0,0:0:0:0:
280,336,43175,2,0,B|216:344,1,52,2|0,0:1|0:0,0:0:0:0:
188,244,43342,101,4,1:2:0:0:
424,224,43509,1,2,1:2:0:0:
424,272,43592,1,0,2:0:0:0:
404,312,43675,1,0,1:0:0:0:
188,244,43842,1,2,1:2:0:0:
416,104,44009,5,0,1:0:0:0:
456,132,44092,1,0,1:0:0:0:
480,172,44175,1,0,1:0:0:0:
496,216,44259,1,0,1:0:0:0:
496,264,44342,101,2,1:0:0:0:
484,308,44425,1,2,1:0:0:0:
464,352,44509,1,2,1:0:0:0:
428,384,44592,1,2,1:0:0:0:
280,336,44675,5,6,1:0:0:0:
188,356,44842,1,2,0:0:0:0:
164,264,45009,1,8,0:1:0:0:
256,244,45175,1,2,0:0:0:0:
92,300,45342,101,0,1:0:0:0:
20,188,45509,1,2,0:0:0:0:
112,208,45675,1,8,0:1:0:0:
0,280,45842,1,2,0:0:0:0:
236,64,46009,5,0,1:0:0:0:
260,156,46175,1,2,0:0:0:0:
352,136,46342,1,8,0:1:0:0:
328,44,46509,1,2,0:0:0:0:
236,64,46675,101,0,1:0:0:0:
424,24,46842,1,2,0:0:0:0:
256,244,47009,1,8,0:1:0:0:
20,188,47175,1,2,0:0:0:0:
232,336,47342,5,0,1:0:0:0:
324,356,47509,1,2,0:0:0:0:
348,264,47675,1,8,0:1:0:0:
256,244,47842,1,2,0:0:0:0:
420,300,48009,101,0,1:0:0:0:
492,188,48175,1,2,0:0:0:0:
400,208,48342,1,8,0:1:0:0:
512,280,48509,1,2,0:0:0:0:
276,64,48675,5,0,1:0:0:0:
256,156,48842,1,2,0:0:0:0:
164,136,49009,1,8,0:1:0:0:
184,44,49175,1,2,0:0:0:0:
276,64,49342,101,0,1:0:0:0:
48,208,49509,1,2,0:0:0:0:
236,252,49675,1,8,0:1:0:0:
88,24,49842,1,2,0:0:0:0:
424,24,50009,5,4,1:0:0:0:
364,96,50175,1,2,0:0:0:0:
364,96,50259,1,0,0:0:0:0:
364,96,50342,1,8,0:1:0:0:
276,64,50509,1,2,0:0:0:0:
304,168,50675,101,0,1:0:0:0:
392,200,50842,1,2,0:0:0:0:
392,200,50925,1,0,0:0:0:0:
392,200,51009,1,8,0:1:0:0:
452,128,51175,1,2,0:0:0:0:
480,236,51342,5,0,1:0:0:0:
420,308,51509,1,2,0:0:0:0:
420,308,51592,1,0,0:0:0:0:
420,308,51675,1,8,0:1:0:0:
332,276,51842,1,2,0:0:0:0:
244,244,52009,102,0,B|188:264,1,52,0|0,1:0|0:0,0:0:0:0:
60,128,52175,2,0,B|116:108,1,52,2|0,0:0|0:0,0:0:0:0:
200,232,52342,6,0,B|144:252,1,52,8|0,0:1|0:0,0:0:0:0:
16,116,52509,2,0,B|72:96,1,52,2|0,0:0|0:0,0:0:0:0:
88,24,52675,101,0,1:0:0:0:
148,96,52842,1,2,0:0:0:0:
148,96,52925,1,0,0:0:0:0:
148,96,53009,1,8,0:1:0:0:
236,64,53175,1,2,0:0:0:0:
208,168,53342,5,0,1:0:0:0:
120,200,53509,1,2,0:0:0:0:
120,200,53592,1,0,0:0:0:0:
120,200,53675,1,8,0:1:0:0:
60,128,53842,1,2,0:0:0:0:
32,236,54009,101,0,1:0:0:0:
92,308,54175,1,2,0:0:0:0:
92,308,54259,1,0,0:0:0:0:
92,308,54342,1,8,0:1:0:0:
180,276,54509,1,2,0:0:0:0:
268,244,54675,6,0,B|324:264,1,52,0|0,1:0|0:0,0:0:0:0:
468,96,54842,2,0,B|412:76,1,52,2|0,0:0|0:0,0:0:0:0:
256,96,55009,102,0,B|236:40,1,52,10|0,0:1|0:0,0:0:0:0:
476,252,55175,2,0,B|496:308,1,52,10|0,0:1|0:0,0:0:0:0:
376,360,55342,6,0,B|296:368,1,78.000002975464,6|0,1:0|0:0,0:0:0:0:
256,300,55509,2,0,B|176:308,1,78.000002975464
292,224,55675,2,0,B|212:232,1,78.000002975464,8|0,3:1|3:0,0:0:0:0:
188,168,55842,2,0,B|108:176,1,78.000002975464,2|0,3:2|3:0,0:0:0:0:
8,112,56009,102,0,B|88:104,1,78.000002975464,0|0,1:0|3:0,0:0:0:0:
504,112,56175,2,0,B|424:104,1,78.000002975464,2|0,3:2|3:0,0:0:0:0:
0,40,56342,6,0,B|80:32,1,78.000002975464,8|0,3:1|3:0,0:0:0:0:
512,40,56509,2,0,B|432:32,1,78.000002975464,2|0,3:2|3:0,0:0:0:0:
136,360,56675,102,0,B|216:368,1,78.000002975464,0|0,1:0|3:0,0:0:0:0:
256,300,56842,2,0,B|336:308,1,78.000002975464,2|0,3:2|3:0,0:0:0:0:
220,224,57009,2,0,B|300:232,1,78.000002975464,8|0,3:1|3:0,0:0:0:0:
324,168,57175,2,0,B|404:176,1,78.000002975464,2|0,3:2|3:0,0:0:0:0:
504,112,57342,6,0,B|424:104,1,78.000002975464,0|0,1:0|3:0,0:0:0:0:
77,32,57509,2,0,B|0:40,1,78.000002975464,2|0,3:2|3:0,0:0:0:0:
8,112,57675,102,0,B|88:104,1,78.000002975464,10|0,3:1|3:0,0:0:0:0:
434,32,57842,2,0,B|512:40,1,78.000002975464,2|0,3:1|3:0,0:0:0:0:
428,196,58009,6,0,B|440:240|426:272,1,78.000002975464,6|0,1:0|3:0,0:0:0:0:
340,372,58175,2,0,B|327:327|341:295,1,78.000002975464,2|0,3:2|3:0,0:0:0:0:
268,248,58342,2,0,B|190:255,1,78.000002975464,8|0,3:1|3:0,0:0:0:0:
166,39,58509,2,0,B|244:32,1,78.000002975464,2|0,3:2|3:0,0:0:0:0:
236,332,58675,101,0,1:0:0:0:
188,340,58759,1,0,3:0:0:0:
144,328,58842,1,2,3:2:0:0:
112,292,58925,1,0,3:0:0:0:
104,244,59009,1,8,3:1:0:0:
120,200,59092,1,0,3:0:0:0:
160,176,59175,2,0,B|192:162|244:172,1,78.000002975464,2|0,3:2|3:0,0:0:0:0:
76,356,59342,6,0,B|44:369|-8:360,1,78.000002975464,0|0,1:0|3:0,0:0:0:0:
8,112,59509,2,0,B|21:144|8:196,1,78.000002975464,2|0,3:2|3:0,0:0:0:0:
244,248,59675,2,0,B|321:255,1,78.000002975464,8|0,3:1|3:0,0:0:0:0:
345,39,59842,2,0,B|268:32,1,78.000002975464,2|0,3:2|3:0,0:0:0:0:
388,120,60009,101,2,1:0:0:0:
429,141,60092,1,0,3:0:0:0:
459,174,60175,1,2,3:1:0:0:
468,228,60259,1,0,3:0:0:0:
448,272,60342,1,10,3:1:0:0:
401,270,60425,1,0,3:0:0:0:
354,277,60509,1,2,3:1:0:0:
317,305,60592,1,0,3:0:0:0:
236,364,60675,6,0,B|144:340,1,78.000002975464,6|0,1:0|3:0,0:0:0:0:
20,276,60842,2,0,B|112:300,1,78.000002975464,2|0,3:2|3:0,0:0:0:0:
264,288,61009,102,0,B|172:264,1,78.000002975464,8|0,3:1|3:0,0:0:0:0:
24,200,61175,2,0,B|116:224,1,78.000002975464,2|0,3:2|3:0,0:0:0:0:
300,208,61342,6,0,B|208:184,1,78.000002975464,0|0,1:0|3:0,0:0:0:0:
28,124,61509,2,0,B|120:148,1,78.000002975464,2|0,3:2|3:0,0:0:0:0:
356,72,61675,101,8,3:1:0:0:
392,104,61759,1,0,3:0:0:0:
404,148,61842,2,0,B|402:188|368:220,1,78.000002975464,2|0,3:2|3:0,0:0:0:0:
236,364,62009,6,0,B|148:376,1,78.000002975464,0|0,1:0|3:0,0:0:0:0:
320,332,62175,2,0,B|408:320,1,78.000002975464,2|0,3:2|3:0,0:0:0:0:
192,292,62342,102,0,B|104:304,1,78.000002975464,8|0,3:1|3:0,0:0:0:0:
320,252,62509,2,0,B|408:240,1,78.000002975464,2|0,3:2|3:0,0:0:0:0:
144,220,62675,6,0,B|56:232,1,78.000002975464,0|0,1:0|3:0,0:0:0:0:
320,168,62842,2,0,B|408:156,1,78.000002975464,2|0,3:2|3:0,0:0:0:0:
160,76,63009,101,10,3:1:0:0:
124,108,63092,1,0,3:0:0:0:
112,152,63175,2,0,B|113:192|148:224,1,78.000002975464,2|0,3:1|3:0,0:0:0:0:
344,296,63342,6,0,B|424:312,3,78.000002975464,6|0|2|0,1:0|3:0|3:2|3:0,0:0:0:0:
360,104,63675,102,0,B|376:24,3,78.000002975464,8|0|2|0,3:1|3:0|3:2|3:0,0:0:0:0:
168,88,64009,6,0,B|88:72,3,78.000002975464,0|0|2|0,1:0|3:0|3:2|3:0,0:0:0:0:
152,280,64342,102,0,B|136:360,3,78.000002975464,8|0|2|0,3:1|3:0|1:2|3:0,0:0:0:0:
344,296,64675,6,0,B|408:280,1,52,4|0,1:0|3:0,0:0:0:0:
360,104,64842,102,0,B|344:40,1,52,2|0,3:2|3:0,0:0:0:0:
168,88,65009,6,0,B|104:104,1,52,4|0,1:1|3:0,0:0:0:0:
152,280,65175,102,0,B|168:344,1,52,2|0,3:2|3:0,0:0:0:0:
376,312,65342,22,0,B|452:268,1,78.000002975464,6|0,1:1|3:0,0:0:0:0:
376,72,65509,6,0,B|332:-4,1,78.000002975464,2|0,3:2|3:0,0:0:0:0:
136,72,65675,102,0,B|60:116,1,78.000002975464,6|0,1:0|3:0,0:0:0:0:
136,312,65842,6,0,B|180:388,1,78.000002975464,2|0,3:2|3:0,0:0:0:0:
408,328,66009,102,0,B|508:364,1,104,6|2,1:0|0:0,0:0:0:0:
496,148,66342,1,10,0:1:0:0:
440,236,66509,1,2,0:0:0:0:
332,248,66675,1,2,1:0:0:0:
116,160,66842,1,2,0:0:0:0:
168,160,66925,1,0,0:0:0:0:
216,184,67009,1,8,0:1:0:0:
248,224,67092,1,0,0:0:0:0:
244,276,67175,2,0,B|224:340,1,52,2|0,0:0|0:0,0:0:0:0:
108,364,67342,6,0,B|4:376,1,104,2|2,1:0|0:1,0:0:0:0:
0,80,67675,2,0,B|104:68,1,104,10|2,0:1|0:1,0:0:0:0:
196,88,67925,1,0,0:0:0:0:
236,124,68009,102,0,B|232:184,2,52,0|0|2,1:0|0:0|0:0,0:0:0:0:
472,48,68342,2,0,B|476:108,3,52,8|0|2|0,0:1|0:0|0:0|0:0,0:0:0:0:
508,172,68675,6,0,B|464:140|408:144,1,104,2|2,1:0|0:0,0:0:0:0:
308,248,69009,2,0,B|264:280|208:276,1,104,10|2,0:1|0:0,0:0:0:0:
0,212,69342,101,0,1:0:0:0:
44,188,69425,1,0,0:0:0:0:
96,188,69509,1,2,0:1:0:0:
144,208,69592,1,0,0:0:0:0:
172,164,69675,5,8,0:1:0:0:
220,148,69759,1,0,0:0:0:0:
272,156,69842,1,2,0:1:0:0:
312,188,69925,1,0,0:0:0:0:
328,240,70009,102,0,B|308:352,1,104,2|0,1:0|0:0,0:0:0:0:
480,224,70342,2,0,B|500:112,1,104,10|2,0:1|0:0,0:0:0:0:
512,48,70592,1,2,0:0:0:0:
512,48,70675,6,0,B|448:56,1,52,2|0,1:0|0:0,0:0:0:0:
360,20,70842,2,0,B|296:28,1,52,2|0,0:0|0:0,0:0:0:0:
220,148,71009,2,0,B|100:168,1,104,10|2,0:1|0:0,0:0:0:0:
56,112,71259,1,0,0:0:0:0:
56,112,71342,102,0,B|100:72|152:96,1,104,2|2,1:0|0:0,0:0:0:0:
176,216,71592,1,0,0:0:0:0:
160,264,71675,2,0,B|168:320,1,52,10|0,0:1|0:0,0:0:0:0:
56,320,71842,2,0,B|64:376,1,52,2|0,0:0|0:0,0:0:0:0:
80,240,72009,6,0,B|20:248,2,52,2|0|2,1:0|0:0|0:0,0:0:0:0:
432,144,72259,1,0,0:0:0:0:
432,144,72342,2,0,B|492:136,2,52,8|0|2,0:1|0:0|0:0,0:0:0:0:
360,96,72592,1,0,0:0:0:0:
360,96,72675,102,0,B|412:72|456:112,1,104,2|2,1:0|0:1,0:0:0:0:
336,216,72925,1,0,0:0:0:0:
352,264,73009,2,0,B|344:320,1,52,10|0,0:1|0:0,0:0:0:0:
456,320,73175,2,0,B|448:376,1,52,2|0,0:1|0:0,0:0:0:0:
464,240,73342,6,0,B|456:184,2,52,2|0|2,1:0|0:0|0:0,0:0:0:0:
48,240,73675,2,0,B|56:184,2,52,8|0|2,0:1|0:0|0:0,0:0:0:0:
256,328,73925,1,0,0:0:0:0:
256,328,74009,102,0,B|256:172,1,156,2|0,1:0|0:0,0:0:0:0:
176,144,74342,2,0,B|120:160|120:224,1,104,10|2,0:1|0:0,0:0:0:0:
391,221,74592,1,0,0:0:0:0:
391,221,74675,2,0,B|392:160|336:144,1,104,2|2,1:0|0:0,0:0:0:0:
176,144,74925,5,0,0:0:0:0:
176,144,75009,2,0,B|120:160|120:224,1,104,10|2,0:1|0:0,0:0:0:0:
352,308,75342,102,0,B|460:340,1,104,2|2,1:0|0:0,0:0:0:0:
160,308,75675,2,0,B|52:340,1,104,10|2,0:1|0:0,0:0:0:0:
436,40,76009,6,0,B|504:40,1,52,2|2,1:0|0:0,0:0:0:0:
364,104,76175,2,0,B|428:124,1,52,2|2,0:0|0:0,0:0:0:0:
272,136,76342,2,0,B|320:172,1,52,14|2,0:1|0:0,0:0:0:0:
176,144,76509,2,0,B|208:192,1,52,2|2,1:2|0:0,0:0:0:0:
80,120,76675,102,0,B|104:232,1,104,6|2,1:0|0:0,0:0:0:0:
96,340,76925,1,0,0:0:0:0:
96,340,77009,2,0,B|176:336,1,52,10|0,0:1|0:0,0:0:0:0:
352,236,77175,2,0,B|272:240,1,52,2|0,0:0|0:0,0:0:0:0:
248,316,77342,5,2,1:1:0:0:
292,340,77425,1,0,0:0:0:0:
344,348,77509,1,2,0:0:0:0:
396,344,77592,1,0,0:0:0:0:
456,320,77675,1,8,0:1:0:0:
452,268,77759,1,0,0:0:0:0:
480,224,77842,1,2,0:0:0:0:
476,172,77925,1,0,0:0:0:0:
476,80,78009,102,0,B|424:52|368:68,1,104,2|2,1:0|0:1,0:0:0:0:
304,116,78259,1,0,0:0:0:0:
304,116,78342,2,0,B|296:60,1,52,10|0,0:1|0:0,0:0:0:0:
120,160,78509,2,0,B|128:104,1,52,2|0,0:1|0:0,0:0:0:0:
24,288,78675,6,0,B|75:316|132:300,1,104,0|2,1:0|0:0,0:0:0:0:
200,224,78925,1,0,0:0:0:0:
200,224,79009,2,0,B|260:232,3,52,8|0|2|0,0:1|0:0|0:0|0:0,0:0:0:0:
300,220,79342,102,0,B|264:264|276:324,1,104,2|2,1:0|0:0,0:0:0:0:
480,368,79592,1,0,0:0:0:0:
480,368,79675,2,0,B|516:324|504:264,1,104,14|2,0:1|0:0,0:0:0:0:
424,176,80009,1,2,1:0:0:0:
332,124,80175,6,0,B|268:112,1,52,2|0,0:1|0:0,0:0:0:0:
56,220,80342,2,0,B|76:160,1,52,10|0,0:1|0:0,0:0:0:0:
200,224,80509,2,0,B|264:212,1,52,2|0,0:1|0:0,0:0:0:0:
440,316,80675,2,0,B|420:256,1,52,2|0,1:0|0:0,0:0:0:0:
292,320,80842,101,2,0:0:0:0:
252,352,80925,1,0,0:0:0:0:
200,364,81009,1,8,0:1:0:0:
148,356,81092,1,0,0:0:0:0:
108,324,81175,1,2,0:0:0:0:
96,272,81259,1,0,0:0:0:0:
112,224,81342,5,2,1:0:0:0:
440,316,81509,1,2,0:0:0:0:
212,260,81675,102,0,B|276:232,1,52,10|0,0:1|0:0,0:0:0:0:
484,140,81842,1,2,0:0:0:0:
484,140,82009,6,0,B|456:184|480:240,1,104,2|2,1:0|0:0,0:0:0:0:
488,376,82342,1,10,0:1:0:0:
344,192,82509,1,2,0:0:0:0:
300,168,82592,1,0,0:0:0:0:
248,164,82675,1,2,1:0:0:0:
196,172,82759,1,0,0:0:0:0:
144,172,82842,1,2,0:0:0:0:
96,148,82925,1,0,0:0:0:0:
92,96,83009,101,8,0:1:0:0:
388,108,83175,1,2,0:0:0:0:
28,140,83342,6,0,B|56:184|32:240,1,104,2|2,1:0|0:1,0:0:0:0:
24,376,83675,1,10,0:1:0:0:
200,284,83842,1,2,0:1:0:0:
252,276,83925,1,0,0:0:0:0:
300,300,84009,102,0,B|288:360,2,52,0|0|2,1:0|0:0|0:0,0:0:0:0:
484,148,84342,2,0,B|504:256,1,104,8|2,0:1|0:0,0:0:0:0:
476,320,84592,1,0,0:0:0:0:
476,320,84675,6,0,B|420:288|428:236,1,104,2|2,1:0|1:2,0:0:0:0:
36,320,85009,2,0,B|92:288|84:236,1,104,2|2,1:1|1:2,0:0:0:0:
364,168,85342,2,0,B|472:160,1,104,0|2,1:0|1:0,0:0:0:0:
148,168,85675,2,0,B|40:160,1,104,2|2,1:0|1:0,0:0:0:0:
152,20,86009,102,0,B|204:48|200:108,1,104,6|0,1:0|1:0,0:0:0:0:
311,105,86259,2,0,B|308:48|360:20,1,104,4|0,1:0|1:0,0:0:0:0:
504,112,86509,2,0,B|400:96,1,104,4|2,1:0|1:0,0:0:0:0:
110,96,86759,2,0,B|8:112,1,104,4|0,1:0|1:0,0:0:0:0:
64,184,87009,6,0,B|132:172,1,52,6|0,1:0|1:0,0:0:0:0:
396,174,87175,2,0,B|448:184,1,52,2|0,1:0|1:0,0:0:0:0:
256,364,87342,1,14,1:0:0:0:
256,192,87425,12,0,88592,0:0:0:0:
236,260,88675,5,6,1:0:0:0:
400,344,88842,5,2,0:0:0:0:
352,324,88925,1,0,0:0:0:0:
328,280,89009,1,8,0:1:0:0:
332,228,89092,1,0,0:0:0:0:
372,196,89175,1,2,0:0:0:0:
424,188,89259,1,0,0:0:0:0:
472,204,89342,6,0,B|488:148,1,52,2|0,1:0|0:0,0:0:0:0:
220,108,89509,2,0,B|236:52,1,52,2|2,0:0|0:0,0:0:0:0:
392,100,89675,2,0,B|406:50,1,52,8|0,0:1|0:0,0:0:0:0:
128,224,89842,2,0,B|142:174,1,52,2|0,0:0|0:0,0:0:0:0:
100,48,90009,5,0,1:0:0:0:
120,96,90092,1,0,0:0:0:0:
100,144,90175,1,2,0:0:0:0:
48,156,90259,1,0,0:0:0:0:
4,128,90342,69,10,0:1:0:0:
28,172,90425,1,0,0:0:0:0:
28,224,90509,2,0,B|20:276,1,52,2|0,0:1|0:0,0:0:0:0:
144,372,90675,5,2,1:0:0:0:
120,328,90759,1,0,0:0:0:0:
120,276,90842,2,0,B|128:224,1,52,2|2,0:0|0:1,0:0:0:0:
220,108,91009,5,10,0:1:0:0:
244,152,91092,1,0,0:0:0:0:
244,204,91175,2,0,B|236:256,1,52,2|2,0:0|0:0,0:0:0:0:
292,380,91342,6,0,B|328:304|424:308,1,156,0|0,1:0|0:0,0:0:0:0:
492,232,91675,69,8,0:1:0:0:
440,244,91759,1,0,0:0:0:0:
388,232,91842,1,2,0:1:0:0:
360,188,91925,1,0,0:0:0:0:
368,136,92009,5,0,1:0:0:0:
368,136,92092,1,0,0:0:0:0:
368,136,92175,2,0,B|332:76,1,52,2|2,0:0|0:0,0:0:0:0:
192,92,92342,5,8,0:1:0:0:
192,92,92425,1,2,0:0:0:0:
192,92,92509,2,0,B|156:32,1,52,2|0,0:1|0:0,0:0:0:0:
76,152,92675,5,2,1:0:0:0:
60,184,92759,1,0,0:0:0:0:
60,220,92842,1,2,0:0:0:0:
68,256,92925,1,0,0:0:0:0:
88,288,93009,1,8,0:1:0:0:
120,308,93092,1,0,0:0:0:0:
156,320,93175,1,2,0:0:0:0:
192,324,93259,1,0,0:0:0:0:
260,332,93342,69,2,1:0:0:0:
260,332,93425,2,0,B|320:344|352:300,1,104,2|2,0:0|0:0,0:0:0:0:
396,204,93675,5,10,0:1:0:0:
396,204,93759,2,0,B|336:216|304:172,1,104,2|2,0:0|0:0,0:0:0:0:
232,44,94009,5,2,1:0:0:0:
264,84,94092,1,0,0:0:0:0:
312,100,94175,1,2,0:0:0:0:
364,100,94259,1,2,0:0:0:0:
412,84,94342,2,0,B|436:32,1,52,8|0,0:1|0:0,0:0:0:0:
496,196,94509,2,0,B|472:248,1,52,2|0,0:1|0:0,0:0:0:0:
384,320,94675,6,0,B|320:312,3,52,0|0|2|0,1:0|0:0|0:1|0:0,0:0:0:0:
304,220,95009,1,8,0:1:0:0:
252,228,95092,1,2,0:0:0:0:
216,264,95175,1,2,0:0:0:0:
204,316,95259,1,2,0:0:0:0:
216,368,95342,70,0,B|112:328,1,104,2|2,1:0|0:0,0:0:0:0:
96,260,95592,1,0,0:0:0:0:
104,296,95675,6,0,B|0:256,1,104,10|2,0:1|0:0,0:0:0:0:
28,188,95925,1,0,0:0:0:0:
100,144,96009,5,2,1:0:0:0:
156,132,96092,1,2,0:0:0:0:
212,124,96175,1,2,0:1:0:0:
268,116,96259,1,2,0:0:0:0:
320,88,96342,6,0,B|380:80,1,52,10|2,0:1|0:0,0:0:0:0:
460,160,96509,2,0,B|520:152,1,52,2|2,0:1|0:0,0:0:0:0:
504,28,96675,69,2,1:0:0:0:
504,28,96759,1,2,0:0:0:0:
504,28,96842,1,2,0:0:0:0:
504,28,96925,1,2,0:0:0:0:
504,28,97009,6,0,B|484:84,1,52,10|2,0:1|0:0,0:0:0:0:
372,160,97175,2,0,B|352:216,1,52,2|2,0:0|0:0,0:0:0:0:
156,132,97342,6,0,B|136:76,1,52,0|0,1:0|0:0,0:0:0:0:
256,60,97509,1,0,0:0:0:0:
268,116,97592,1,0,0:0:0:0:
268,116,97675,6,0,B|248:172,1,52,10|2,0:1|0:0,0:0:0:0:
136,248,97842,2,0,B|116:304,1,52,2|2,0:0|0:0,0:0:0:0:
232,312,98009,69,2,1:0:0:0:
288,324,98092,1,0,0:0:0:0:
344,336,98175,1,2,0:0:0:0:
400,348,98259,1,0,0:0:0:0:
496,228,98342,5,8,0:1:0:0:
440,240,98425,1,0,0:0:0:0:
384,252,98509,1,2,0:0:0:0:
328,264,98592,1,0,0:0:0:0:
216,228,98675,6,0,B|160:212,1,52,2|2,1:0|0:0,0:0:0:0:
384,180,98842,2,0,B|428:132,1,52,2|2,0:1|0:0,0:0:0:0:
112,144,99009,2,0,B|56:148,1,52,10|2,0:1|0:0,0:0:0:0:
424,64,99175,2,0,B|484:40,1,52,2|2,0:1|0:0,0:0:0:0:
236,24,99342,6,0,B|248:84|220:136,1,104,6|2,1:0|0:0,0:0:0:0:
180,164,99592,1,0,0:0:0:0:
140,204,99675,70,0,B|80:224,1,52,8|0,0:1|0:0,0:0:0:0:
112,376,99842,2,0,B|172:356,1,52,2|0,0:1|0:0,0:0:0:0:
328,264,100009,1,0,1:0:0:0:
376,232,100092,1,0,0:0:0:0:
380,176,100175,1,2,0:0:0:0:
348,128,100259,1,0,0:0:0:0:
292,124,100342,6,0,B|276:68,1,52,10|0,0:1|0:0,0:0:0:0:
492,272,100509,2,0,B|508:216,1,52,2|0,0:1|0:0,0:0:0:0:
264,204,100675,5,2,1:0:0:0:
212,236,100759,1,0,0:0:0:0:
204,292,100842,1,2,0:0:0:0:
236,340,100925,1,0,0:0:0:0:
292,352,101009,1,8,0:1:0:0:
344,332,101092,1,0,0:0:0:0:
400,324,101175,1,2,0:0:0:0:
456,340,101259,1,0,0:0:0:0:
488,384,101342,6,0,B|500:272,1,104,2|2,1:0|0:0,0:0:0:0:
476,228,101592,1,0,0:0:0:0:
484,236,101675,70,0,B|496:124,1,104,10|2,0:1|0:0,0:0:0:0:
472,80,101925,1,0,0:0:0:0:
376,104,102009,5,2,1:0:0:0:
320,116,102092,1,0,0:0:0:0:
264,104,102175,1,2,0:0:0:0:
228,60,102259,1,0,0:0:0:0:
316,40,102342,5,8,0:1:0:0:
264,104,102425,1,0,0:0:0:0:
188,128,102509,1,2,0:1:0:0:
112,116,102592,1,2,0:0:0:0:
52,64,102675,6,0,B|36:8,1,52,0|2,1:0|0:0,0:0:0:0:
112,116,102842,2,0,B|116:56,1,52,2|2,0:0|0:0,0:0:0:0:
144,192,103009,2,0,B|168:144,1,52,8|2,0:1|0:0,0:0:0:0:
160,268,103175,2,0,B|204:216,1,52,2|2,0:1|0:0,0:0:0:0:
320,116,103342,69,2,1:0:0:0:
488,88,103509,1,2,0:0:0:0:
508,140,103592,1,2,0:0:0:0:
484,192,103675,1,8,0:1:0:0:
144,192,103842,1,2,0:0:0:0:
124,244,103925,1,2,0:0:0:0:
148,296,104009,6,0,B|216:288,1,52,2|0,1:0|0:0,0:0:0:0:
328,312,104175,2,0,B|396:320,1,52,2|2,0:0|0:0,0:0:0:0:
464,260,104342,1,10,0:1:0:0:
416,228,104425,1,0,0:0:0:0:
404,172,104509,1,2,0:0:0:0:
424,120,104592,1,2,0:0:0:0:
460,72,104675,5,2,1:0:0:0:
388,76,104759,1,0,0:0:0:0:
316,80,104842,1,2,0:0:0:0:
244,68,104925,1,2,0:0:0:0:
172,56,105009,1,8,0:1:0:0:
28,28,105175,1,2,0:1:0:0:
48,144,105342,5,2,1:0:0:0:
48,144,105425,1,0,0:0:0:0:
48,144,105509,1,0,0:0:0:0:
48,144,105592,1,0,0:0:0:0:
48,144,105675,70,0,B|72:200,1,52,10|2,0:1|0:0,0:0:0:0:
172,232,105842,2,0,B|160:300,1,52,2|2,0:0|0:0,0:0:0:0:
60,328,106009,5,2,1:0:0:0:
64,320,106092,1,0,0:0:0:0:
64,308,106175,1,2,0:0:0:0:
60,300,106259,1,0,0:0:0:0:
52,292,106342,5,10,0:1:0:0:
60,328,106425,1,0,0:0:0:0:
92,352,106509,1,2,0:0:0:0:
132,364,106592,1,0,0:0:0:0:
188,356,106675,5,2,1:2:0:0:
220,308,106759,1,0,0:0:0:0:
276,292,106842,2,0,B|344:296,1,52,2|2,0:0|0:0,0:0:0:0:
468,264,107009,69,8,0:1:0:0:
436,216,107092,1,0,0:0:0:0:
380,200,107175,2,0,B|312:204,1,52,2|0,0:1|0:0,0:0:0:0:
115,36,107342,5,2,1:0:0:0:
135,59,107425,1,0,0:0:0:0:
152,85,107509,1,2,0:0:0:0:
165,112,107592,1,0,0:0:0:0:
176,140,107675,1,8,0:1:0:0:
184,170,107759,1,0,0:0:0:0:
189,200,107842,1,2,0:0:0:0:
191,230,107925,1,0,0:0:0:0:
184,256,108009,5,2,1:2:0:0:
124,236,108092,1,2,0:0:0:0:
88,184,108175,1,2,0:0:0:0:
100,124,108259,1,2,0:0:0:0:
151,84,108342,6,0,B|215:66,1,52,8|2,0:1|0:0,0:0:0:0:
384,120,108509,2,0,B|448:102,1,52,2|2,0:0|0:0,0:0:0:0:
496,32,108675,69,6,1:0:0:0:
276,92,108842,1,2,1:0:0:0:
260,176,109009,5,2,1:0:0:0:
480,116,109175,1,2,1:0:0:0:
468,204,109342,5,2,1:0:0:0:
460,248,109425,1,0,1:0:0:0:
452,296,109509,1,0,1:0:0:0:
444,340,109592,1,0,1:0:0:0:
316,360,109675,6,0,B|332:296,1,52,10|2,1:0|1:0,0:0:0:0:
248,228,109842,2,0,B|264:164,1,52,2|2,1:0|1:0,0:0:0:0:
176,76,110009,1,6,1:0:0:0:
