osu file format v14

[General]
AudioFilename: audio.ogg
AudioLeadIn: 0
PreviewTime: 65925
Countdown: 0
SampleSet: Soft
StackLeniency: 0.3
Mode: 0
LetterboxInBreaks: 0
EpilepsyWarning: 1
WidescreenStoryboard: 1

[Editor]
DistanceSpacing: 0.7
BeatDivisor: 4
GridSize: 8
TimelineZoom: 1.5

[Metadata]
Title:Crystal World ~Fracture~
TitleUnicode:水晶世界 ~Fracture~
Artist:Mio Akiyama
ArtistUnicode:秋山 澪
Creator:ent
Version:Vitas' Russian Another
Source:THE BMS OF FIGHTERS 2010 - The Evolution of War -
Tags:けいおん!! k-on!! keion!! No.44 wa. wa remixed remix by celas bms bof2010 Suishou Sekai Hard NRG deadblue238 琴吹 紬 Tsumugi Kotobuki electronic instrumental pewdekz vitas2222 renumi hewwo ralsei fsjallink fanzhen0019
BeatmapID:3828325
BeatmapSetID:1851073

[Difficulty]
HPDrainRate:4.5
CircleSize:3.5
OverallDifficulty:8
ApproachRate:9
SliderMultiplier:1.3
SliderTickRate:1

[Events]
//Background and Video events
0,0,"jonatan-pie-VlH2eHyE_50-unsplash.jpg",0,0
Video,300,"Crystal World Fracture noaudio 360.mp4"
//Break Periods
//Storyboard Layer 0 (Background)
//Storyboard Layer 1 (Fail)
//Storyboard Layer 2 (Pass)
//Storyboard Layer 3 (Foreground)
//Storyboard Layer 4 (Overlay)
//Storyboard Sound Samples

[TimingPoints]
676,333.333333333333,4,2,0,30,1,0
2009,-40,4,2,0,40,0,0
2509,-66.6666666666667,4,2,0,40,0,0
2676,-100,4,2,0,40,0,0
3175,-66.6666666666667,4,2,0,40,0,0
4342,-100,4,2,0,40,0,0
6509,-66.6666666666667,4,2,0,40,0,0
6842,-100,4,2,0,40,0,0
7175,-66.6666666666667,4,2,0,40,0,0
7509,-100,4,2,0,40,0,0
7842,-66.6666666666667,4,2,0,40,0,0
8175,-100,4,2,0,40,0,0
11342,-100,4,2,0,45,0,1
12675,-40,4,2,0,50,0,0
13175,-66.6666666666667,4,2,0,50,0,0
15009,-100,4,2,0,50,0,0
17175,-66.6666666666667,4,2,0,50,0,0
17509,-100,4,2,0,50,0,0
18009,-40,4,2,0,50,0,0
18842,-100,4,2,0,50,0,0
19675,-66.6666666666667,4,2,0,50,0,0
20675,-40,4,2,0,50,0,0
21009,-100,4,2,0,50,0,0
22009,-66.6666666666667,4,2,0,55,0,1
22342,-40,4,2,0,55,0,1
23342,-100,4,2,0,60,0,0
24009,-66.6666666666667,4,2,0,60,0,0
24342,-100,4,2,0,60,0,0
25342,-66.6666666666667,4,2,0,60,0,0
25675,-100,4,2,0,60,0,0
26009,-40,4,2,0,60,0,0
27009,-100,4,2,0,60,0,0
27675,-66.6666666666667,4,2,0,60,0,0
28009,-50,4,2,0,60,0,0
28342,-40,4,2,0,60,0,0
29009,-100,4,2,0,60,0,0
30675,-66.6666666666667,4,2,0,60,0,0
31342,-100,4,2,0,60,0,0
32009,-66.6666666666667,4,2,0,60,0,0
32675,-50,4,2,0,60,0,0
33342,-40,4,2,0,60,0,0
34509,-66.6666666666667,4,2,0,60,0,0
36009,-100,4,2,0,60,0,0
36342,-66.6666666666667,4,2,0,60,0,0
37675,-100,4,2,0,60,0,0
38009,-66.6666666666667,4,2,0,60,0,0
38342,-50,4,2,0,60,0,0
38675,-66.6666666666667,4,2,0,60,0,0
39009,-100,4,2,0,60,0,0
39342,-40,4,2,0,60,0,0
41175,-200,4,2,0,60,0,0
42509,-100,4,2,0,60,0,0
43342,-66.6666666666667,4,2,0,60,0,1
44675,-100,4,2,0,50,0,0
45342,-133.333333333333,4,2,0,50,0,0
50009,-40,4,2,0,50,0,0
50675,-100,4,2,0,50,0,0
55342,-40,4,2,0,60,0,1
56009,-100,4,2,0,60,0,1
64675,-40,4,2,0,60,0,1
65925,-100,4,2,0,66,0,0
66009,-66.6666666666667,4,2,0,70,0,1
66842,-100,4,2,0,70,0,1
67342,-66.6666666666667,4,2,0,70,0,0
68175,-50,4,2,0,70,0,0
68675,-40,4,2,0,70,0,0
69342,-100,4,2,0,70,0,1
69509,-66.6666666666667,4,2,0,70,0,1
70009,-66.6666666666667,4,2,0,70,0,0
74342,-50,4,2,0,70,0,0
74675,-40,4,2,0,70,0,0
75009,-50,4,2,0,70,0,0
75342,-66.6666666666667,4,2,0,70,0,0
75675,-100,4,2,0,70,0,0
76342,-40,4,2,0,70,0,0
76675,-40,4,2,0,75,0,1
77175,-100,4,2,0,75,0,1
79342,-40,4,2,0,75,0,1
80675,-66.6666666666667,4,2,0,75,0,1
82009,-40,4,2,0,75,0,1
82842,-100,4,2,0,75,0,1
83342,-66.6666666666667,4,2,0,75,0,1
86009,-66.6666666666667,4,2,0,80,0,1
87009,-100,4,2,0,80,0,1
87342,-100,4,2,0,80,0,0
88009,-66.6666666666667,4,2,0,80,0,0
88675,-66.6666666666667,4,2,0,90,0,1
91009,-100,4,2,0,90,0,1
91342,-66.6666666666667,4,2,0,90,0,1
95342,-40,4,2,0,90,0,1
96342,-100,4,2,0,90,0,1
98675,-66.6666666666667,4,2,0,90,0,1
99342,-40,4,2,0,90,0,1
99675,-66.6666666666667,4,2,0,90,0,1
100675,-100,4,2,0,90,0,1
102509,-66.6666666666667,4,2,0,90,0,1
103675,-100,4,2,0,90,0,1
104342,-66.6666666666667,4,2,0,90,0,1
108675,-100,4,2,0,95,0,1
109009,-66.6666666666667,4,2,0,95,0,1
109675,-66.6666666666667,4,2,0,100,0,1
110009,-66.6666666666667,4,2,0,100,0,0
110092,-66.6666666666667,4,2,0,5,0,0
115342,-66.6666666666667,4,2,0,25,0,0

[Colours]
Combo1 : 255,255,0
Combo2 : 58,75,231
Combo3 : 102,155,255
Combo4 : 255,199,51
Combo5 : 255,219,125
Combo6 : 230,230,230
Combo7 : 0,255,255
Combo8 : 255,128,255

[HitObjects]
42,374,2009,6,0,B|26:295|26:295|31:287|31:287|17:212,1,162.5,4|2,1:0|0:0,0:0:0:0:
116,176,2342,1,8,0:1:0:0:
116,176,2425,1,0,0:0:0:0:
116,176,2509,2,0,B|106:126|106:126|110:118|110:118|100:72,1,97.5000037193299,2|0,0:0|0:0,0:0:0:0:
168,1,2842,1,2,0:0:0:0:
267,63,3009,5,8,0:1:0:0:
267,63,3092,1,0,0:0:0:0:
267,63,3175,2,0,B|258:113|258:113|251:117|251:117|242:171,1,97.5000037193299,2|0,0:0|0:0,0:0:0:0:
318,229,3509,1,2,0:0:0:0:
418,187,3675,1,8,0:1:0:0:
418,187,3759,1,0,0:0:0:0:
418,187,3842,2,0,B|406:139|406:139|400:135|400:135|390:89,1,97.5000037193299,2|0,0:0|0:0,0:0:0:0:
489,52,4175,101,2,0:0:0:0:
489,52,4259,1,0,0:0:0:0:
489,52,4342,2,0,L|496:17,2,32.5,8|0|2,0:1|0:0|0:0,0:0:0:0:
391,95,4675,1,0,0:0:0:0:
307,48,4842,5,2,0:0:0:0:
307,48,4925,1,0,0:0:0:0:
307,48,5009,2,0,L|297:11,2,32.5,8|0|2,0:1|0:0|0:0,0:0:0:0:
227,116,5342,1,0,0:0:0:0:
146,67,5509,1,2,0:0:0:0:
146,67,5592,1,0,0:0:0:0:
146,67,5675,2,0,L|156:24,2,32.5,0|0|2,0:0|0:0|0:0,0:0:0:0:
75,144,6009,1,0,0:0:0:0:
253,249,6175,102,0,L|246:212,1,32.5,2|0,0:0|0:0,0:0:0:0:
160,224,6342,1,8,0:1:0:0:
160,224,6425,1,0,0:0:0:0:
160,224,6509,2,0,B|170:273|170:273|167:281|167:281|175:328,1,97.5000037193299,2|0,0:0|0:0,0:0:0:0:
333,313,6842,6,0,L|327:349,1,32.5,2|0,0:0|0:0,0:0:0:0:
420,383,7009,1,8,0:1:0:0:
420,383,7092,1,0,0:0:0:0:
420,383,7175,2,0,B|430:333|430:333|436:328|436:328|446:281,1,97.50000371933,2|0,0:0|0:0,0:0:0:0:
364,179,7509,2,0,L|402:173,1,32.5,2|0,0:0|0:0,0:0:0:0:
426,78,7675,1,8,0:1:0:0:
426,78,7759,1,0,0:0:0:0:
426,78,7842,2,0,B|378:86|378:86|370:82|370:82|313:91,1,97.50000371933,2|0,0:0|0:0,0:0:0:0:
232,122,8175,102,0,L|195:116,1,32.5,2|0,0:0|0:0,0:0:0:0:
173,23,8342,1,8,0:1:0:0:
173,23,8425,1,0,0:0:0:0:
173,23,8509,1,2,0:0:0:0:
98,95,8675,1,0,0:0:0:0:
132,191,8842,6,0,L|141:228,1,32.5,2|0,0:0|0:0,0:0:0:0:
64,264,9009,1,8,0:1:0:0:
64,264,9092,1,0,0:0:0:0:
64,264,9175,1,2,0:0:0:0:
139,322,9342,1,0,0:0:0:0:
238,285,9509,2,0,L|246:246,1,32.5,2|0,0:0|0:0,0:0:0:0:
172,213,9675,1,8,0:1:0:0:
172,213,9759,1,0,0:0:0:0:
172,213,9842,1,2,0:0:0:0:
264,171,10009,1,0,0:0:0:0:
290,66,10175,102,0,L|254:59,2,32.5,2|0|8,0:0|0:0|0:1,0:0:0:0:
385,131,10509,1,2,0:0:0:0:
385,131,10592,1,0,0:0:0:0:
385,131,10675,1,0,0:0:0:0:
285,169,10842,2,0,L|249:162,2,32.5,2|0|8,0:0|0:0|0:1,0:0:0:0:
375,243,11175,1,2,0:0:0:0:
375,243,11259,1,0,0:0:0:0:
375,243,11342,1,2,0:1:0:0:
267,269,11509,6,0,L|222:259,4,32.5,2|0|8|0|2,0:1|0:0|0:1|0:0|0:0,0:0:0:0:
342,340,12009,1,2,0:1:0:0:
445,317,12175,2,0,L|481:325,2,32.5,2|0|10,0:0|0:0|0:1,0:0:0:0:
375,243,12509,1,2,1:1:0:0:
421,113,12675,102,0,B|340:124|340:124|333:119|333:119|250:130,1,162.5,6|2,1:0|0:0,0:0:0:0:
161,97,13009,1,8,0:1:0:0:
161,97,13092,1,0,0:0:0:0:
161,97,13175,2,0,B|151:146|151:146|145:151|145:151|132:212,1,97.50000371933,2|0,0:0|0:0,0:0:0:0:
231,226,13509,1,2,0:0:0:0:
274,331,13675,5,8,0:1:0:0:
274,331,13759,1,0,0:0:0:0:
274,331,13842,2,0,B|322:323|322:323|326:317|326:317|373:310,1,97.50000371933,2|0,0:0|0:0,0:0:0:0:
440,384,14175,1,2,0:0:0:0:
474,289,14342,1,8,0:1:0:0:
474,289,14425,1,0,0:0:0:0:
474,289,14509,2,0,B|461:242|461:242|464:234|464:234|453:191,1,97.50000371933,2|0,0:0|0:0,0:0:0:0:
489,96,14842,101,2,0:0:0:0:
489,96,14925,1,0,0:0:0:0:
489,96,15009,2,0,L|495:62,2,32.5,8|0|2,0:1|0:0|0:0,0:0:0:0:
380,121,15342,1,0,0:0:0:0:
324,43,15509,5,2,0:0:0:0:
324,43,15592,1,0,0:0:0:0:
324,43,15675,2,0,L|331:12,2,32.5,8|0|2,0:1|0:0|0:0,0:0:0:0:
216,67,16009,1,0,0:0:0:0:
181,172,16175,1,2,0:0:0:0:
181,172,16259,1,0,0:0:0:0:
181,172,16342,2,0,L|190:218,2,32.5,8|0|2,0:1|0:0|0:0,0:0:0:0:
70,142,16675,1,0,0:0:0:0:
23,239,16842,102,0,L|30:271,1,32.5,2|0,0:0|0:0,0:0:0:0:
124,311,17009,1,8,0:1:0:0:
124,311,17092,1,0,0:0:0:0:
124,311,17175,2,0,B|112:263|112:263|114:255|114:255|103:213,1,97.50000371933,2|0,0:0|0:0,0:0:0:0:
261,260,17509,6,0,L|251:303,1,32.5,2|0,0:0|0:0,0:0:0:0:
303,382,17675,1,8,0:1:0:0:
303,382,17759,1,0,0:0:0:0:
303,382,17842,1,2,0:0:0:0:
512,347,18009,102,0,B|431:332|431:332|426:324|426:324|334:303,1,162.5,4|2,0:1|0:0,0:0:0:0:
349,210,18342,1,8,0:1:0:0:
349,210,18425,1,0,0:0:0:0:
349,210,18509,1,2,0:0:0:0:
443,231,18675,1,0,0:0:0:0:
482,133,18842,6,0,L|425:140,1,32.5,2|0,0:0|0:0,0:0:0:0:
377,98,19009,1,8,0:1:0:0:
377,98,19092,1,0,0:0:0:0:
377,98,19175,1,2,0:0:0:0:
266,115,19342,1,4,0:0:0:0:
159,44,19509,101,2,0:0:0:0:
179,91,19592,1,0,0:0:0:0:
140,124,19675,2,0,B|86:113|86:113|83:106|83:106|44:95,1,97.50000371933,8|2,0:1|0:0,0:0:0:0:
0,188,20009,5,0,0:0:0:0:
62,271,20175,1,2,0:0:0:0:
163,243,20342,1,8,0:1:0:0:
185,141,20509,1,2,0:0:0:0:
225,326,20675,101,6,1:1:0:0:
343,350,20842,1,2,0:0:0:0:
414,251,21009,2,0,L|405:212,2,32.5,8|0|2,0:1|0:0|0:0,0:0:0:0:
311,236,21342,5,0,0:0:0:0:
344,102,21509,1,2,0:0:0:0:
212,138,21675,1,8,0:1:0:0:
310,245,21842,1,2,0:0:0:0:
477,69,22009,102,0,B|430:59|430:59|426:52|426:52|378:39,1,97.50000371933,2|2,1:0|0:0,0:0:0:0:
134,93,22342,6,0,B|83:37|141:-47|254:-25|263:71|296:158|168:152|135:254|219:328,1,487.5,2|0,1:0|0:0,0:0:0:0:
269,347,22925,1,0,1:0:0:0:
316,310,23009,1,0,1:0:0:0:
278,211,23175,1,0,0:0:0:0:
489,145,23342,101,6,1:0:0:0:
338,103,23509,1,2,0:1:0:0:
432,56,23675,1,10,0:1:0:0:
395,191,23842,1,2,0:1:0:0:
480,250,24009,6,0,B|492:298|492:298|488:305|488:305|500:358,1,97.50000371933,0|2,1:0|0:0,0:0:0:0:
397,315,24342,2,0,L|359:304,2,32.5,8|0|2,0:1|0:0|0:0,0:0:0:0:
184,298,24675,101,2,1:0:0:0:
264,230,24842,1,2,0:0:0:0:
235,130,25009,1,10,0:1:0:0:
135,101,25175,1,2,0:0:0:0:
63,176,25342,2,0,B|51:224|51:224|54:231|54:231|44:276,1,97.50000371933,0|2,1:0|0:0,0:0:0:0:
102,358,25675,2,0,L|136:351,2,32.5,8|0|2,0:1|0:0|0:0,0:0:0:0:
276,312,26009,6,0,P|318:162|390:7,2,325,2|10|2,1:0|0:1|1:1,0:0:0:0:
384,295,26842,1,2,0:0:0:0:
384,295,26925,1,0,0:0:0:0:
384,295,27009,2,0,L|374:255,2,32.5,8|0|2,0:1|0:0|0:0,0:0:0:0:
416,171,27342,102,0,P|444:189|489:198,1,65,2|2,1:0|0:0,0:0:0:0:
352,88,27675,2,0,P|404:80|457:50,1,97.50000371933,14|2,0:1|0:0,0:0:0:0:
239,117,28009,2,0,P|274:60|293:-9,1,130,6|2,1:0|0:0,0:0:0:0:
159,181,28342,2,0,P|143:115|99:24,1,162.5,14|2,0:1|0:0,0:0:0:0:
0,166,28675,5,2,1:0:0:0:
73,241,28842,1,2,0:1:0:0:
53,351,29009,2,0,L|15:343,2,32.5,8|0|2,0:1|0:0|0:0,0:0:0:0:
214,352,29342,101,0,1:0:0:0:
175,254,29509,1,2,0:0:0:0:
252,184,29675,1,8,0:1:0:0:
398,255,29842,5,2,0:1:0:0:
363,139,30009,1,2,1:1:0:0:
480,166,30175,1,2,0:1:0:0:
397,265,30342,102,0,L|431:260,2,32.5,10|0|2,0:1|0:0|0:1,0:0:0:0:
315,346,30675,2,0,B|302:297|302:297|305:290|305:290|294:249,1,97.50000371933,0|2,1:0|0:0,0:0:0:0:
357,168,31009,1,8,0:1:0:0:
150,284,31175,5,2,0:1:0:0:
201,274,31259,1,2,0:0:0:0:
165,237,31342,2,0,L|97:225,3,65,2|2|8|2,1:0|0:0|0:1|0:0,0:0:0:0:
202,139,32009,2,0,L|307:125,3,97.50000371933,0|2|8|2,1:0|0:0|0:1|0:0,0:0:0:0:
150,47,32675,2,0,L|1:26,3,130,2|2|8|2,1:0|0:0|0:1|0:0,0:0:0:0:
268,26,33342,102,0,P|232:87|202:181,1,162.5,2|2,1:0|0:0,0:0:0:0:
302,266,33675,1,10,0:1:0:0:
372,151,33842,1,2,1:2:0:0:
19,280,34009,6,0,B|101:294|101:294|105:301|105:301|184:312,1,162.5,6|2,1:0|0:1,0:0:0:0:
211,213,34342,1,10,0:1:0:0:
128,151,34509,2,0,B|79:143|79:143|75:136|75:136|34:129,1,97.50000371933,2|0,0:1|1:0,0:0:0:0:
169,59,34842,1,2,0:0:0:0:
169,59,34925,1,0,0:0:0:0:
169,59,35009,2,0,B|218:51|218:51|223:45|223:45|266:38,1,97.50000371933,8|2,0:1|0:0,0:0:0:0:
403,164,35342,101,2,1:0:0:0:
454,21,35509,1,0,0:0:0:0:
362,68,35675,1,10,0:1:0:0:
496,116,35842,1,2,0:0:0:0:
470,218,36009,2,0,L|508:210,2,32.5,0|0|0,1:0|0:0|0:0,0:0:0:0:
339,347,36342,6,0,P|352:299|377:251,1,97.50000371933,10|2,0:1|0:0,0:0:0:0:
198,220,36675,1,2,1:0:0:0:
296,184,36842,1,2,0:1:0:0:
325,82,37009,1,10,0:1:0:0:
244,17,37175,2,0,B|192:26|192:26|185:22|185:22|135:31,1,97.50000371933,2|0,0:1|1:0,0:0:0:0:
0,0,37509,101,2,0:0:0:0:
0,0,37592,1,0,0:0:0:0:
0,0,37675,2,0,P|19:28|30:70,1,65,10|0,0:1|0:0,0:0:0:0:
110,124,38009,2,0,P|99:161|59:218,1,97.50000371933,2|0,1:0|0:0,0:0:0:0:
159,287,38342,2,0,P|114:337|47:361,1,130,10|0,0:1|0:0,0:0:0:0:
212,383,38675,2,0,P|229:328|252:289,1,97.50000371933,2|0,1:0|0:0,0:0:0:0:
211,212,39009,2,0,P|243:188|292:172,1,65,10|0,0:1|0:0,0:0:0:0:
462,314,39342,6,0,P|382:216|323:19,2,325,2|10|0,1:0|0:1|1:0,0:0:0:0:
512,207,40175,1,2,0:0:0:0:
512,207,40259,1,0,0:0:0:0:
512,207,40342,2,0,P|381:227|217:346,2,325,10|2|10,0:1|1:0|0:1,0:0:0:0:
438,87,41175,102,0,P|440:113|451:90,1,65,2|2,0:0|0:0,0:0:0:0:
218,110,41675,5,10,0:1:0:0:
332,145,41842,1,2,0:1:0:0:
359,261,42009,1,2,1:0:0:0:
271,343,42175,1,2,0:1:0:0:
156,308,42342,1,10,0:1:0:0:
129,191,42509,2,0,L|161:197,2,32.5,2|0|0,0:1|0:0|1:0,0:0:0:0:
257,220,42842,101,2,0:1:0:0:
315,95,43009,1,10,0:1:0:0:
208,10,43175,1,2,0:1:0:0:
77,39,43342,2,0,B|65:86|65:86|68:95|68:95|58:142,1,97.50000371933,4|2,1:2|1:2,0:0:0:0:
128,232,43675,1,0,1:0:0:0:
232,167,43842,1,2,1:2:0:0:
98,350,44009,5,0,1:0:0:0:
109,363,44092,1,0,1:0:0:0:
128,374,44175,1,0,1:0:0:0:
155,373,44259,1,0,1:0:0:0:
180,353,44342,1,2,1:0:0:0:
193,319,44425,1,2,1:0:0:0:
223,290,44509,1,2,1:0:0:0:
268,300,44592,1,2,1:0:0:0:
282,349,44675,102,0,L|353:333,3,65,6|2|8|2,1:0|0:0|0:1|0:0,0:0:0:0:
426,372,45342,2,0,L|439:319,3,48.750001859665,0|2|8|2,1:0|0:0|0:1|0:0,0:0:0:0:
380,252,46009,5,0,1:0:0:0:
409,247,46175,1,2,0:0:0:0:
402,218,46342,1,8,0:1:0:0:
373,225,46509,1,2,0:0:0:0:
290,190,46675,2,0,L|301:140,3,48.750001859665,0|2|8|2,1:0|0:0|0:1|0:0,0:0:0:0:
213,112,47342,101,0,1:0:0:0:
182,119,47509,1,2,0:0:0:0:
189,150,47675,1,8,0:1:0:0:
220,143,47842,1,2,0:0:0:0:
198,237,48009,2,0,L|137:223,3,48.750001859665,0|2|8|2,1:0|0:0|0:1|0:0,0:0:0:0:
84,285,48675,5,0,1:0:0:0:
111,302,48842,1,2,0:0:0:0:
96,330,49009,1,8,0:1:0:0:
67,318,49175,1,2,0:0:0:0:
0,256,49342,2,0,L|13:198,3,48.750001859665,0|2|8|2,1:0|0:0|0:1|0:0,0:0:0:0:
254,216,50009,102,0,B|173:202|173:202|169:195|169:195|85:179,1,162.5,4|2,1:0|0:0,0:0:0:0:
76,89,50342,1,8,0:1:0:0:
76,89,50425,1,0,0:0:0:0:
76,89,50509,1,2,0:0:0:0:
168,44,50675,6,0,L|241:58,1,65,0|2,1:0|0:0,0:0:0:0:
333,31,51009,2,0,L|324:-3,2,32.5,8|0|2,0:1|0:0|0:0,0:0:0:0:
415,61,51342,101,0,1:0:0:0:
378,142,51509,1,2,0:0:0:0:
471,180,51675,1,8,0:1:0:0:
471,180,51759,1,0,0:0:0:0:
471,180,51842,1,2,0:0:0:0:
493,265,52009,6,0,L|423:275,1,65,0|2,1:0|0:0,0:0:0:0:
387,352,52342,2,0,L|395:384,2,32.5,8|0|2,0:1|0:0|0:0,0:0:0:0:
299,330,52675,101,0,1:0:0:0:
325,243,52842,1,2,0:0:0:0:
248,223,53009,1,8,0:1:0:0:
248,223,53092,1,0,0:0:0:0:
248,223,53175,1,2,0:0:0:0:
165,263,53342,6,0,L|153:194,1,65,0|2,1:0|0:0,0:0:0:0:
197,121,53675,2,0,L|162:113,2,32.5,8|0|2,0:1|0:0|0:0,0:0:0:0:
284,105,54009,101,0,1:0:0:0:
264,17,54175,1,2,0:0:0:0:
356,0,54342,1,8,0:1:0:0:
356,0,54425,1,0,0:0:0:0:
356,0,54509,1,2,0:0:0:0:
428,52,54675,2,0,L|513:39,1,65,0|2,1:0|0:0,0:0:0:0:
379,178,55009,5,10,0:1:0:0:
510,220,55175,1,10,0:1:0:0:
291,281,55342,102,0,B|277:200|277:200|271:195|271:195|257:111,1,162.5,6|0,1:0|0:0,0:0:0:0:
129,2,55675,5,8,3:1:0:0:
146,21,55759,1,0,3:0:0:0:
150,46,55842,1,2,3:2:0:0:
138,68,55925,1,0,3:0:0:0:
116,80,56009,102,0,L|80:70,3,32.5,0|0|2|0,1:0|3:0|3:2|3:0,0:0:0:0:
37,146,56342,2,0,L|75:158,3,32.5,8|0|2|0,3:1|3:0|3:2|3:0,0:0:0:0:
111,234,56675,5,0,1:0:0:0:
120,261,56759,1,0,3:0:0:0:
139,282,56842,1,2,3:2:0:0:
168,280,56925,1,0,3:0:0:0:
193,264,57009,1,8,3:1:0:0:
218,248,57092,1,0,3:0:0:0:
247,246,57176,1,2,3:2:0:0:
266,267,57259,1,0,3:0:0:0:
275,294,57342,102,0,L|311:287,3,32.5,0|0|2|0,1:0|3:0|3:2|3:0,0:0:0:0:
394,325,57675,2,0,L|405:288,3,32.5,10|0|2|0,3:1|3:0|3:1|3:0,0:0:0:0:
462,218,58009,5,6,1:0:0:0:
431,208,58092,1,0,3:0:0:0:
410,183,58175,1,2,3:2:0:0:
416,150,58259,1,0,3:0:0:0:
445,136,58342,1,8,3:1:0:0:
474,122,58425,1,0,3:0:0:0:
480,89,58509,1,2,3:2:0:0:
459,64,58592,1,0,3:0:0:0:
428,54,58675,102,0,L|418:14,3,32.5,0|0|2|0,1:0|3:0|3:2|3:0,0:0:0:0:
317,6,59009,2,0,L|309:40,3,32.5,8|0|2|0,3:1|3:0|3:2|3:0,0:0:0:0:
213,76,59342,5,0,1:0:0:0:
246,87,59425,1,0,3:0:0:0:
269,114,59509,1,2,3:2:0:0:
258,148,59592,1,0,3:0:0:0:
226,164,59675,1,8,3:1:0:0:
194,180,59759,1,0,3:0:0:0:
183,214,59842,1,2,3:2:0:0:
206,241,59925,1,0,3:0:0:0:
239,252,60009,102,0,L|248:291,3,32.5,2|0|2|0,1:0|3:0|3:1|3:0,0:0:0:0:
348,329,60342,2,0,L|339:368,3,32.5,10|0|2|0,3:1|3:0|3:1|3:0,0:0:0:0:
450,384,60675,5,6,1:0:0:0:
487,371,60759,1,0,3:0:0:0:
506,337,60842,1,2,3:2:0:0:
480,307,60925,1,0,3:0:0:0:
442,294,61009,1,8,3:1:0:0:
404,281,61092,1,0,3:0:0:0:
378,251,61176,1,2,3:2:0:0:
397,217,61259,1,0,3:0:0:0:
434,204,61342,102,0,L|425:168,3,32.5,0|0|2|0,1:0|3:0|3:2|3:0,0:0:0:0:
506,84,61675,2,0,L|514:46,3,32.5,8|0|2|0,3:1|3:0|3:2|3:0,0:0:0:0:
395,44,62009,5,0,1:0:0:0:
382,84,62092,1,0,3:0:0:0:
347,107,62175,1,2,3:2:0:0:
306,94,62259,1,0,3:0:0:0:
286,56,62342,1,8,3:1:0:0:
266,18,62425,1,0,3:0:0:0:
225,7,62509,1,2,3:2:0:0:
190,28,62592,1,0,3:0:0:0:
177,68,62675,102,0,L|143:61,3,32.5,0|0|2|0,1:0|3:0|3:2|3:0,0:0:0:0:
71,164,63009,2,0,L|59:118,3,32.5,10|0|2|0,3:1|3:0|3:1|3:0,0:0:0:0:
187,161,63342,5,6,1:0:0:0:
221,131,63425,1,0,3:0:0:0:
265,128,63509,1,2,3:2:0:0:
299,158,63592,1,0,3:0:0:0:
308,202,63675,1,8,3:1:0:0:
317,246,63759,1,0,3:0:0:0:
350,276,63842,1,2,3:2:0:0:
395,273,63926,1,0,3:0:0:0:
429,243,64009,1,0,1:0:0:0:
395,213,64091,1,0,3:0:0:0:
351,210,64175,1,2,3:2:0:0:
317,240,64258,1,0,3:0:0:0:
308,284,64341,1,8,3:1:0:0:
299,328,64425,1,0,3:0:0:0:
266,358,64508,1,2,1:2:0:0:
221,355,64592,1,0,3:0:0:0:
187,325,64675,102,0,B|268:338|268:338|275:333|275:333|361:347,1,162.5,4|2,1:0|3:2,0:0:0:0:
512,294,65009,2,0,B|432:280|432:280|428:273|428:273|350:256,1,162.5,4|2,1:1|3:2,0:0:0:0:
358,70,65342,22,0,P|315:131|276:225,1,162.5,6|2,1:1|3:2,0:0:0:0:
505,144,65675,2,0,P|463:82|432:-10,1,162.5,6|2,1:0|3:2,0:0:0:0:
259,45,66009,6,0,B|308:55|308:55|315:52|315:52|362:61,1,97.50000371933,6|2,1:0|0:0,0:0:0:0:
404,168,66342,1,10,0:1:0:0:
307,240,66509,2,0,B|259:230|259:230|255:224|255:224|189:210,1,97.50000371933,2|2,0:0|1:0,0:0:0:0:
163,123,66842,2,0,L|172:92,2,32.5,2|0|8,0:0|0:0|0:1,0:0:0:0:
43,145,67175,101,2,0:0:0:0:
76,263,67342,2,0,B|65:310|65:310|59:314|59:314|48:362,1,97.50000371933,2|2,1:0|0:1,0:0:0:0:
164,317,67675,1,10,0:1:0:0:
134,198,67842,2,0,B|182:207|182:207|188:204|188:204|240:214,1,97.50000371933,2|0,0:1|1:0,0:0:0:0:
413,175,68175,6,0,P|371:196|381:277,1,130,2|8,0:0|0:1,0:0:0:0:
490,240,68509,1,2,0:0:0:0:
287,375,68675,102,0,P|250:214|191:57,2,325,2|10|0,1:0|0:1|1:0,0:0:0:0:
134,335,69453,5,2,0:1:0:0:
134,335,69509,2,0,B|144:287|144:287|141:280|141:280|152:232,1,97.50000371933,2|8,0:1|0:1,0:0:0:0:
12,115,69842,101,2,0:1:0:0:
203,152,70009,2,0,B|253:143|253:143|257:137|257:137|311:128,1,97.50000371933,2|0,1:0|0:0,0:0:0:0:
154,53,70342,2,0,B|106:43|106:43|103:37|103:37|63:27,1,97.50000371933,10|2,0:1|0:0,0:0:0:0:
259,0,70675,1,2,1:0:0:0:
368,61,70842,2,0,B|379:110|379:110|376:117|376:117|387:166,1,97.50000371933,2|10,0:0|0:1,0:0:0:0:
269,122,71175,5,2,0:0:0:0:
298,236,71342,2,0,B|348:241|348:241|352:247|352:247|397:252,1,97.50000371933,2|2,1:0|0:0,0:0:0:0:
357,364,71675,1,10,0:1:0:0:
237,381,71842,1,2,0:0:0:0:
204,265,72009,2,0,B|215:217|215:217|212:210|212:210|223:167,1,97.50000371933,2|2,1:0|0:0,0:0:0:0:
114,99,72342,101,8,0:1:0:0:
135,220,72509,1,2,0:0:0:0:
21,177,72675,2,0,B|7:227|7:227|10:234|10:234|-5:286,1,97.50000371933,2|2,1:0|0:1,0:0:0:0:
87,352,73009,1,10,0:1:0:0:
186,286,73175,2,0,B|235:298|235:298|242:295|242:295|284:305,1,97.50000371933,2|2,0:1|1:0,0:0:0:0:
166,199,73509,2,0,B|119:189|119:189|116:182|116:182|68:170,1,97.50000371933,2|8,0:0|0:1,0:0:0:0:
266,135,73842,5,2,0:0:0:0:
232,17,74009,2,0,P|261:46|324:55,1,97.50000371933,2|2,1:0|0:0,0:0:0:0:
427,14,74342,2,0,P|442:83|481:137,1,130,10|2,0:1|0:0,0:0:0:0:
401,226,74675,2,0,P|320:178|234:157,1,162.5,2|2,1:0|0:0,0:0:0:0:
145,210,75009,2,0,P|175:261|195:349,1,130,10|2,0:1|0:0,0:0:0:0:
106,384,75342,2,0,P|62:352|17:336,1,97.50000371933,2|2,1:0|0:0,0:0:0:0:
0,250,75675,2,0,P|38:241|68:222,1,65,10|2,0:1|0:0,0:0:0:0:
16,33,76009,101,2,1:0:0:0:
103,114,76175,1,2,0:0:0:0:
231,71,76342,2,0,B|248:150|248:150|244:158|244:158|259:243,1,162.5,14|2,0:1|1:2,0:0:0:0:
440,266,76675,6,0,B|458:185|458:185|456:177|456:177|474:103,1,162.5,6|2,1:0|0:0,0:0:0:0:
401,9,77009,1,10,0:1:0:0:
341,111,77175,1,2,0:0:0:0:
364,122,77259,1,0,0:0:0:0:
378,142,77342,1,2,1:1:0:0:
374,167,77425,1,0,0:0:0:0:
358,187,77509,2,0,L|321:194,2,32.5,2|0|8,0:0|0:0|0:1,0:0:0:0:
439,249,77842,101,2,0:0:0:0:
395,346,78009,2,0,L|429:354,2,32.5,2|0|2,1:0|0:0|0:1,0:0:0:0:
294,376,78342,1,10,0:1:0:0:
318,273,78509,2,0,L|351:267,2,32.5,2|0|0,0:1|0:0|1:0,0:0:0:0:
219,237,78842,2,0,L|185:244,2,32.5,2|0|8,0:0|0:0|0:1,0:0:0:0:
253,136,79175,1,2,0:0:0:0:
35,62,79342,6,0,P|86:199|130:381,2,325,2|14|2,1:0|0:1|1:0,0:0:0:0:
248,119,80175,101,2,0:1:0:0:
201,231,80342,1,10,0:1:0:0:
300,304,80509,1,2,0:1:0:0:
409,246,80675,6,0,B|397:295|397:295|400:301|400:301|388:355,1,97.50000371933,2|2,1:0|0:0,0:0:0:0:
509,213,81009,2,0,B|499:165|499:165|493:160|493:160|484:117,1,97.50000371933,8|2,0:1|0:0,0:0:0:0:
406,50,81342,1,2,1:0:0:0:
506,18,81509,1,2,0:0:0:0:
372,148,81675,101,10,0:1:0:0:
258,108,81842,1,2,0:0:0:0:
184,310,82009,6,0,P|150:148|92:-8,2,325,2|10|2,1:0|0:1|1:0,0:0:0:0:
85,337,82842,2,0,L|50:329,2,32.5,2|0|8,0:0|0:0|0:1,0:0:0:0:
301,384,83175,101,2,0:0:0:0:
276,361,83259,1,0,0:0:0:0:
267,328,83342,2,0,B|315:320|315:320|319:313|319:313|365:305,1,97.50000371933,2|2,1:0|0:1,0:0:0:0:
448,384,83675,1,10,0:1:0:0:
482,266,83842,2,0,B|435:254|435:254|430:246|430:246|385:233,1,97.50000371933,2|0,0:1|1:0,0:0:0:0:
345,123,84175,2,0,B|393:133|393:133|399:129|399:129|442:139,1,97.50000371933,2|8,0:0|0:1,0:0:0:0:
494,31,84509,1,2,0:0:0:0:
376,4,84675,5,2,1:0:0:0:
289,24,84842,1,2,1:2:0:0:
238,97,85009,1,2,1:1:0:0:
272,179,85175,1,2,1:2:0:0:
350,221,85342,1,0,1:0:0:0:
380,305,85509,1,2,1:0:0:0:
307,355,85675,1,2,1:0:0:0:
229,313,85842,1,2,1:0:0:0:
84,346,86009,102,0,B|96:297|96:297|93:290|93:290|104:249,1,97.50000371933,6|0,1:0|1:0,0:0:0:0:
44,187,86259,2,0,B|91:173|91:173|95:166|95:166|140:153,1,97.50000371933,4|0,1:0|1:0,0:0:0:0:
175,76,86509,2,0,B|223:87|223:87|230:84|230:84|271:93,1,97.50000371933,4|2,1:0|1:0,0:0:0:0:
354,68,86759,2,0,B|367:116|367:116|364:123|364:123|376:170,1,97.50000371933,4|0,1:0|1:0,0:0:0:0:
454,96,87009,6,0,L|449:116,6,16.25,6|0|0|0|2|0|0,1:0|0:0|1:0|0:0|1:0|0:0|1:0,0:0:0:0:
495,190,87342,2,0,L|460:197,3,32.5,14|0|0|0,1:0|0:0|0:0|0:0,0:0:0:0:
437,282,87675,2,0,L|473:276,3,32.5,2|0|0|0,0:0|0:0|0:0|0:0,0:0:0:0:
376,216,88009,101,0,1:0:0:0:
366,230,88092,1,0,1:0:0:0:
350,245,88175,1,0,1:0:0:0:
323,243,88259,1,0,1:0:0:0:
301,220,88342,1,2,1:1:0:0:
284,188,88425,1,0,1:0:0:0:
247,169,88509,1,2,1:0:0:0:
206,190,88592,1,0,1:0:0:0:
198,240,88675,22,0,P|154:212|89:190,1,97.50000371933,6|2,1:0|0:0,0:0:0:0:
87,109,88925,2,0,P|141:96|184:75,1,97.50000371933
221,0,89175,1,2,0:0:0:0:
336,32,89342,5,2,1:0:0:0:
305,43,89425,1,0,0:0:0:0:
285,69,89509,1,2,0:0:0:0:
288,101,89592,1,2,0:0:0:0:
307,127,89675,1,8,0:1:0:0:
331,148,89759,1,0,0:0:0:0:
334,180,89842,1,2,0:0:0:0:
319,208,89925,1,0,0:0:0:0:
287,216,90009,2,0,P|307:261|324:326,1,97.50000371933,0|2,1:0|0:0,0:0:0:0:
435,342,90342,5,10,0:1:0:0:
465,330,90425,1,0,0:0:0:0:
483,302,90509,1,2,0:1:0:0:
475,270,90592,1,0,0:0:0:0:
451,246,90675,1,2,1:0:0:0:
428,221,90759,1,0,0:0:0:0:
421,189,90842,1,2,0:0:0:0:
439,162,90925,1,2,0:1:0:0:
471,154,91009,2,0,L|478:121,1,32.5,10|0,0:1|0:0,0:0:0:0:
406,84,91175,5,2,0:0:0:0:
406,84,91259,1,2,0:0:0:0:
406,84,91342,2,0,P|356:93|304:113,1,97.50000371933,0|2,1:0|0:0,0:0:0:0:
260,181,91592,2,0,P|311:202|354:232,1,97.50000371933,2|2,0:0|0:0,0:0:0:0:
440,219,91842,2,0,P|418:257|401:316,1,97.50000371933,2|0,0:1|1:0,0:0:0:0:
294,361,92175,69,2,0:0:0:0:
287,328,92259,1,2,0:0:0:0:
265,303,92342,1,8,0:1:0:0:
232,299,92425,1,2,0:0:0:0:
201,310,92509,1,2,0:1:0:0:
46,384,92675,2,0,P|32:335|7:273,1,97.50000371933,2|2,1:0|0:0,0:0:0:0:
132,366,93009,2,0,P|118:317|93:255,1,97.50000371933,8|2,0:1|0:0,0:0:0:0:
194,168,93342,5,2,1:0:0:0:
174,194,93425,1,2,0:0:0:0:
141,196,93509,1,2,0:0:0:0:
119,171,93592,1,2,0:0:0:0:
114,138,93675,1,10,0:1:0:0:
105,106,93759,1,2,0:0:0:0:
81,82,93842,1,2,0:1:0:0:
48,85,93925,1,2,0:0:0:0:
29,112,94009,2,0,P|15:58|-2:13,2,97.50000371933,2|2|8,1:0|0:0|0:1,0:0:0:0:
0,262,94509,6,0,P|46:277|99:306,1,97.50000371933,2|0,0:1|1:0,0:0:0:0:
206,271,94842,1,2,0:1:0:0:
192,254,94925,1,0,0:0:0:0:
199,228,95009,1,8,0:1:0:0:
225,210,95092,1,2,0:0:0:0:
249,182,95175,1,2,0:0:0:0:
236,142,95259,1,2,0:0:0:0:
192,128,95342,2,0,P|376:97|511:51,2,325,2|10|2,1:0|0:1|1:0,0:0:0:0:
69,50,96175,5,2,0:1:0:0:
95,69,96259,1,2,0:0:0:0:
108,98,96342,2,0,L|98:136,3,32.5,10|2|2|2,0:1|0:0|0:1|0:0,0:0:0:0:
180,43,96675,2,0,L|170:6,1,32.5,2|2,1:0|0:0,0:0:0:0:
265,26,96842,69,2,0:0:0:0:
275,56,96925,1,2,0:0:0:0:
300,77,97009,1,10,0:1:0:0:
332,74,97092,1,2,0:0:0:0:
355,50,97175,2,0,L|348:13,1,32.5,2|2,0:0|0:0,0:0:0:0:
442,34,97342,2,0,L|432:76,3,32.5,0|0|0|0,1:0|0:0|0:0|0:0,0:0:0:0:
501,123,97675,5,10,0:1:0:0:
469,132,97759,1,2,0:0:0:0:
448,157,97842,1,2,0:0:0:0:
448,189,97925,1,2,0:0:0:0:
463,218,98009,6,0,L|495:210,1,32.5,2|0,1:0|0:0,0:0:0:0:
378,244,98175,2,0,L|344:253,1,32.5,2|0,0:0|0:0,0:0:0:0:
466,226,98342,2,0,L|499:217,1,32.5,8|0,0:1|0:0,0:0:0:0:
381,252,98509,2,0,L|346:257,1,32.5,2|0,0:0|0:0,0:0:0:0:
291,183,98675,5,2,1:0:0:0:
279,195,98759,1,2,0:0:0:0:
259,204,98842,1,2,0:1:0:0:
233,197,98925,1,2,0:0:0:0:
216,170,99009,1,10,0:1:0:0:
206,135,99092,1,2,0:0:0:0:
178,105,99175,1,2,0:1:0:0:
132,112,99259,1,2,0:0:0:0:
100,152,99342,70,0,B|118:231|118:231|115:239|115:239|132:319,1,162.5,6|2,1:0|0:0,0:0:0:0:
246,279,99675,2,0,P|222:321|207:375,2,97.50000371933,8|2|0,0:1|0:1|1:0,0:0:0:0:
359,307,100175,1,2,0:0:0:0:
346,289,100259,1,0,0:0:0:0:
351,263,100342,1,10,0:1:0:0:
376,244,100425,1,0,0:0:0:0:
392,211,100509,1,2,0:1:0:0:
378,172,100592,1,0,0:0:0:0:
335,155,100675,2,0,L|327:119,1,32.5,2|0,1:0|0:0,0:0:0:0:
388,60,100842,5,2,0:0:0:0:
388,60,100925,1,0,0:0:0:0:
388,60,101009,2,0,L|396:14,3,32.5,8|0|2|0,0:1|0:0|0:0|0:0,0:0:0:0:
293,0,101342,2,0,L|301:37,3,32.5,2|0|2|0,1:0|0:0|0:0|0:0,0:0:0:0:
200,60,101675,2,0,L|206:25,3,32.5,10|0|2|0,0:1|0:0|0:0|0:0,0:0:0:0:
120,0,102009,5,2,1:0:0:0:
89,10,102092,1,0,0:0:0:0:
69,36,102175,1,2,0:0:0:0:
76,67,102259,1,0,0:0:0:0:
100,88,102342,1,8,0:1:0:0:
111,118,102425,1,0,0:0:0:0:
90,144,102509,2,0,P|114:187|129:245,1,97.50000371933,2|0,0:1|1:0,0:0:0:0:
240,273,102842,5,2,0:0:0:0:
219,247,102925,1,2,0:0:0:0:
226,215,103009,1,8,0:1:0:0:
252,196,103092,1,2,0:0:0:0:
266,167,103175,1,2,0:1:0:0:
253,136,103259,1,2,0:0:0:0:
222,124,103342,2,0,P|207:73|185:23,1,97.50000371933,2|2,1:0|0:0,0:0:0:0:
272,0,103592,1,2,0:0:0:0:
302,12,103675,2,0,L|292:55,3,32.5,8|2|2|2,0:1|0:0|0:0|0:0,0:0:0:0:
340,120,104009,70,0,L|385:110,1,32.5,2|0,1:0|0:0,0:0:0:0:
460,145,104175,1,2,0:0:0:0:
460,145,104259,1,2,0:0:0:0:
460,145,104342,2,0,P|437:183|419:240,1,97.50000371933,10|2,0:1|0:0,0:0:0:0:
358,334,104675,6,0,P|344:283|316:230,1,97.50000371933,2|2,1:0|0:0,0:0:0:0:
360,160,104925,2,0,P|303:139|270:114,1,97.50000371933,2|0,0:0|0:0,0:0:0:0:
198,163,105175,2,0,P|220:204|234:266,1,97.50000371933,2|2,0:1|1:0,0:0:0:0:
155,343,105509,5,0,0:0:0:0:
126,327,105592,1,0,0:0:0:0:
116,295,105675,1,10,0:1:0:0:
136,269,105759,1,2,0:0:0:0:
142,237,105842,1,2,0:0:0:0:
119,213,105925,1,2,0:0:0:0:
86,205,106009,2,0,P|102:155|125:104,1,97.50000371933,2|2,1:0|0:0,0:0:0:0:
0,178,106342,2,0,P|16:128|39:77,1,97.50000371933,10|2,0:1|0:0,0:0:0:0:
170,43,106675,5,2,1:2:0:0:
170,43,106759,1,0,0:0:0:0:
170,43,106842,2,0,P|191:83|210:148,1,97.50000371933,2|8,0:0|0:1,0:0:0:0:
329,190,107175,1,2,0:1:0:0:
413,83,107342,2,0,P|425:131|461:182,1,97.50000371933,2|2,1:0|0:0,0:0:0:0:
486,268,107675,1,8,0:1:0:0:
397,321,107842,1,2,0:0:0:0:
270,269,108009,69,2,1:2:0:0:
234,309,108092,1,2,0:0:0:0:
182,295,108175,1,2,0:0:0:0:
154,248,108259,1,2,0:0:0:0:
166,196,108342,1,8,0:1:0:0:
212,169,108425,1,2,0:0:0:0:
246,127,108509,1,2,0:0:0:0:
234,74,108592,1,2,0:0:0:0:
187,47,108675,2,0,L|152:53,1,32.5,6|0,1:0|0:0,0:0:0:0:
75,36,108842,5,2,1:0:0:0:
75,36,108925,1,0,0:0:0:0:
75,36,109009,2,0,P|56:66|42:103,1,48.750001859665,2|2,1:0|0:1,0:0:0:0:
118,132,109175,2,0,P|136:157|145:198,1,48.750001859665,2|0,1:0|0:0,0:0:0:0:
107,256,109342,5,2,1:0:0:0:
121,273,109425,1,0,1:0:0:0:
146,283,109509,1,0,1:0:0:0:
177,276,109592,1,0,1:0:0:0:
205,253,109675,1,10,1:0:0:0:
241,232,109759,1,2,1:0:0:0:
287,232,109842,1,2,1:0:0:0:
326,265,109925,1,2,1:0:0:0:
339,320,110009,1,6,1:0:0:0:
