osu file format v14

[General]
AudioFilename: audio.ogg
AudioLeadIn: 0
PreviewTime: 65925
Countdown: 0
SampleSet: Soft
StackLeniency: 0.7
Mode: 0
LetterboxInBreaks: 0
EpilepsyWarning: 1
WidescreenStoryboard: 1

[Editor]
DistanceSpacing: 0.6
BeatDivisor: 4
GridSize: 8
TimelineZoom: 2.899999

[Metadata]
Title:Crystal World ~Fracture~
TitleUnicode:水晶世界 ~Fracture~
Artist:Mio Akiyama
ArtistUnicode:秋山 澪
Creator:ent
Version:THE EXTRA OF COLOR 2013 - The Evolution of osu! -
Source:THE BMS OF FIGHTERS 2010 - The Evolution of War -
Tags:けいおん!! k-on!! keion!! No.44 wa. wa remixed remix by celas bms bof2010 Suishou Sekai Hard NRG deadblue238 琴吹 紬 Tsumugi Kotobuki electronic instrumental pewdekz vitas2222 renumi hewwo ralsei fsjallink fanzhen0019
BeatmapID:3806976
BeatmapSetID:1851073

[Difficulty]
HPDrainRate:7
CircleSize:4
OverallDifficulty:9
ApproachRate:9
SliderMultiplier:1.9
SliderTickRate:2

[Events]
//Background and Video events
Video,300,"Crystal World Fracture noaudio 360.mp4"
0,0,"102159003_p0.jpg",0,0
//Break Periods
//Storyboard Layer 0 (Background)
//Storyboard Layer 1 (Fail)
//Storyboard Layer 2 (Pass)
//Storyboard Layer 3 (Foreground)
//Storyboard Layer 4 (Overlay)
//Storyboard Sound Samples

[TimingPoints]
676,333.333333333333,4,2,0,30,1,0
2009,-100,4,2,0,40,0,0
11342,-100,4,2,0,45,0,0
12675,-100,4,2,0,50,0,0
22009,-100,4,2,0,55,0,0
23342,-100,4,2,0,60,0,0
44675,-100,4,2,0,50,0,0
55342,-100,4,2,0,60,0,0
66009,-100,4,2,0,70,0,1
76675,-100,4,2,0,75,0,1
86009,-100,4,2,0,80,0,1
87342,-100,4,2,0,80,0,0
88675,-83.3333333333333,4,2,0,90,0,1
108675,-83.3333333333333,4,2,0,95,0,1
109675,-83.3333333333333,4,2,0,100,0,1
110009,-100,4,2,0,100,0,0

[Colours]
Combo1 : 255,255,0
Combo2 : 58,75,231
Combo3 : 102,155,255
Combo4 : 255,199,51
Combo5 : 255,219,125
Combo6 : 230,230,230
Combo7 : 0,255,255
Combo8 : 255,128,255

[HitObjects]
80,232,2009,6,0,L|80:128,2,95,4|2|8,1:0|0:0|0:1,0:0:0:0:
80,352,2509,2,0,P|171:351|216:272,1,190,2|2,0:0|0:0,0:0:0:0:
216,144,3009,1,8,0:1:0:0:
216,144,3175,2,0,P|261:65|352:63,1,190,2|2,0:0|0:0,0:0:0:0:
479,123,3675,1,8,0:1:0:0:
479,123,3842,2,0,B|485:194|485:194|464:228|464:228|470:306,1,190,2|2,0:0|0:0,0:0:0:0:
368,384,4342,2,0,L|359:288,2,95,8|2|0,0:1|0:0|0:0,0:0:0:0:
270,237,4842,5,2,0:0:0:0:
270,237,5009,1,8,0:1:0:0:
270,237,5175,2,0,P|205:232|151:345,1,190,2|2,0:0|0:0,0:0:0:0:
32,384,5675,2,0,P|24:328|32:272,1,95,8|2,0:1|0:0,0:0:0:0:
51,157,6009,1,0,0:0:0:0:
51,157,6175,1,2,0:0:0:0:
51,157,6342,2,0,P|101:172|174:158,1,95,8|2,0:1|0:0,0:0:0:0:
179,0,6675,2,0,P|140:35|116:105,1,95,0|2,0:0|0:0,0:0:0:0:
250,189,7009,2,0,P|237:137|188:81,2,95,8|2|0,0:1|0:0|0:0,0:0:0:0:
306,24,7509,102,0,P|385:10|490:83,1,190,2|2,0:0|0:0,0:0:0:0:
512,177,8009,1,0,0:0:0:0:
512,177,8175,2,0,L|506:243,2,47.5,2|0|8,0:0|0:0|0:1,0:0:0:0:
416,274,8509,2,0,L|425:377,1,95,2|0,0:0|0:0,0:0:0:0:
288,291,8842,1,2,0:0:0:0:
314,199,9009,1,8,0:1:0:0:
340,108,9175,2,0,P|319:45|199:30,1,190,2|2,0:0|0:0,0:0:0:0:
130,111,9675,1,8,0:1:0:0:
130,111,9842,2,0,L|148:318,1,190,2|2,0:0|0:0,0:0:0:0:
0,384,10342,6,0,L|9:280,1,95,8|2,0:1|0:0,0:0:0:0:
24,156,10675,1,0,0:0:0:0:
24,156,10842,2,0,L|-28:151,2,47.5,2|0|8,0:0|0:0|0:1,0:0:0:0:
456,213,11342,102,0,P|492:182|500:109,1,95,2|2,0:1|0:1,0:0:0:0:
336,21,11675,2,0,P|300:52|292:125,1,95,8|2,0:1|0:0,0:0:0:0:
492,57,12009,2,0,P|461:21|388:13,1,95,2|2,0:1|0:0,0:0:0:0:
300,177,12342,2,0,P|331:213|404:221,1,95,10|2,0:1|1:1,0:0:0:0:
336,21,12675,6,0,P|287:3|159:67,1,190,6|8,1:0|0:1,0:0:0:0:
89,178,13175,2,0,P|33:197|-21:174,2,95,2|0|2,0:0|0:0|0:0,0:0:0:0:
163,303,13675,2,0,P|206:284|252:292,1,95,8|2,0:1|0:0,0:0:0:0:
394,355,14009,101,0,0:0:0:0:
394,355,14175,1,2,0:0:0:0:
510,203,14342,1,8,0:1:0:0:
510,203,14509,1,2,0:0:0:0:
327,255,14675,1,0,0:0:0:0:
327,255,14842,1,2,0:0:0:0:
507,322,15009,1,8,0:1:0:0:
507,322,15175,1,2,0:0:0:0:
399,163,15342,5,0,0:0:0:0:
439,81,15509,1,2,0:0:0:0:
439,81,15592,1,0,0:0:0:0:
439,81,15675,1,8,0:1:0:0:
379,6,15842,2,0,P|320:4|257:37,1,95,2|0,0:0|0:0,0:0:0:0:
236,118,16175,2,0,L|242:171,2,47.5,2|0|8,0:0|0:0|0:1,0:0:0:0:
164,27,16509,2,0,P|118:13|71:17,1,95,2|0,0:0|0:0,0:0:0:0:
1,98,16842,101,2,0:0:0:0:
1,98,16925,1,0,0:0:0:0:
1,98,17009,1,8,0:1:0:0:
86,140,17175,2,0,P|48:194|103:312,1,190,2|2,0:0|0:0,0:0:0:0:
234,245,17675,2,0,P|180:218|135:223,1,95,8|2,0:1|0:0,0:0:0:0:
244,366,18009,5,4,0:1:0:0:
244,366,18092,1,0,0:0:0:0:
244,366,18175,2,0,P|290:364|331:340,1,95,2|8,0:0|0:1,0:0:0:0:
351,222,18509,2,0,P|429:212|522:302,1,190,2|2,0:0|0:0,0:0:0:0:
448,181,19009,2,0,P|440:127|462:80,1,95,8|2,0:1|0:0,0:0:0:0:
512,0,19342,101,4,0:0:0:0:
512,0,19509,1,2,0:0:0:0:
383,31,19675,1,8,0:1:0:0:
383,31,19842,1,2,0:0:0:0:
256,0,20009,1,0,0:0:0:0:
256,0,20175,1,2,0:0:0:0:
129,31,20342,1,8,0:1:0:0:
129,31,20509,1,2,0:0:0:0:
0,0,20675,6,0,P|-11:49|8:106,1,95,6|2,1:1|0:0,0:0:0:0:
92,256,21009,2,0,P|103:207|84:150,2,95,8|2|0,0:1|0:0|0:0,0:0:0:0:
211,172,21509,2,0,P|247:206|306:218,1,95,2|8,0:0|0:1,0:0:0:0:
224,317,21842,2,0,P|176:331|136:376,1,95,2|2,0:0|1:0,0:0:0:0:
380,384,22342,1,2,1:0:0:0:
511,236,22675,2,0,P|526:166|500:96,1,142.5,0|0,1:0|1:0,0:0:0:0:
485,87,23009,2,0,L|387:99,1,95,0|2,1:0|2:0,0:0:0:0:
214,122,23342,101,6,1:0:0:0:
204,36,23509,1,2,0:1:0:0:
290,27,23675,1,10,0:1:0:0:
299,112,23842,2,0,P|291:189|197:286,1,190,2|2,0:1|0:0,0:0:0:0:
97,253,24342,2,0,L|106:149,1,95,8|2,0:1|0:0,0:0:0:0:
0,0,24675,5,2,1:0:0:0:
27,93,24842,1,2,0:0:0:0:
0,0,25009,1,10,0:1:0:0:
27,93,25175,2,0,P|100:129|208:82,1,190,2|2,0:0|0:0,0:0:0:0:
288,0,25675,2,0,L|383:8,1,95,8|2,0:1|0:0,0:0:0:0:
486,128,26009,102,0,B|428:119|400:149|414:161|377:200|305:171,1,190,2|10,1:0|0:1,0:0:0:0:
367,81,26509,1,2,0:0:0:0:
367,81,26675,2,0,B|414:115|412:156|394:155|393:208|464:239,1,190,2|8,1:1|0:1,0:0:0:0:
353,345,27175,1,2,0:0:0:0:
353,345,27342,5,2,1:0:0:0:
221,322,27509,1,2,0:0:0:0:
243,191,27675,1,14,0:1:0:0:
375,213,27842,1,2,0:0:0:0:
282,360,28009,101,6,1:0:0:0:
204,251,28175,1,2,0:0:0:0:
313,174,28342,1,14,0:1:0:0:
391,283,28509,1,2,0:0:0:0:
221,322,28675,6,0,P|153:325|104:306,1,95,2|2,1:0|0:1,0:0:0:0:
49,384,29009,2,0,P|84:339|71:191,1,190,8|0,0:1|1:0,0:0:0:0:
35,101,29509,2,0,L|88:85,2,47.5,2|0|8,0:0|0:0|0:1,0:0:0:0:
197,136,29842,1,2,0:1:0:0:
197,136,30009,102,0,P|219:85|204:23,1,95,2|2,1:1|0:1,0:0:0:0:
366,73,30342,2,0,P|344:124|359:186,1,95,10|2,0:1|0:1,0:0:0:0:
432,239,30675,1,0,1:0:0:0:
385,343,30842,1,2,0:0:0:0:
272,331,31009,1,8,0:1:0:0:
248,219,31175,1,2,0:1:0:0:
224,214,31259,1,2,0:0:0:0:
200,210,31342,6,0,P|141:214|96:336,1,190,2|8,1:0|0:1,0:0:0:0:
105,200,31842,2,0,P|83:156|22:123,1,95,2|0,0:0|1:0,0:0:0:0:
181,346,32175,2,0,P|228:349|272:331,2,95,2|8|2,0:0|0:1|0:0,0:0:0:0:
320,257,32675,102,0,L|414:277,1,95,2|2,1:0|0:0,0:0:0:0:
512,167,33009,2,0,L|418:187,1,95,8|2,0:1|0:0,0:0:0:0:
369,78,33342,2,0,P|361:28|375:-34,1,95,2|2,1:0|0:0,0:0:0:0:
143,78,33675,2,0,P|151:28|137:-34,1,95,10|2,0:1|1:2,0:0:0:0:
256,192,34009,5,6,1:0:0:0:
256,192,34175,2,0,P|249:297|229:313,1,95,2|10,0:1|0:1,0:0:0:0:
148,335,34509,2,0,P|202:316|329:382,1,190,2|2,0:1|0:0,0:0:0:0:
318,365,34925,1,0,0:0:0:0:
318,365,35009,1,8,0:1:0:0:
471,384,35175,1,2,0:0:0:0:
471,384,35342,102,0,L|480:280,1,95,2|2,1:0|0:0,0:0:0:0:
360,138,35675,2,0,L|369:241,1,95,10|2,0:1|0:0,0:0:0:0:
442,26,36009,1,0,1:0:0:0:
442,26,36175,1,0,0:0:0:0:
442,26,36342,2,0,P|400:4|342:8,1,95,10|2,0:1|0:0,0:0:0:0:
217,64,36675,5,2,1:0:0:0:
262,166,36842,1,2,0:1:0:0:
217,64,37009,1,10,0:1:0:0:
262,166,37175,2,0,L|244:367,1,190,2|2,0:1|0:0,0:0:0:0:
119,384,37675,2,0,L|127:287,1,95,10|2,0:1|0:0,0:0:0:0:
3,151,38009,102,0,L|81:206,1,95,2|2,1:0|0:0,0:0:0:0:
262,165,38342,2,0,L|174:205,1,95,10|2,0:1|0:0,0:0:0:0:
62,46,38675,1,2,1:0:0:0:
62,46,38842,2,0,L|70:-4,2,47.5,2|0|10,0:0|0:0|0:1,0:0:0:0:
185,92,39175,1,2,0:0:0:0:
185,92,39342,6,0,P|247:66|363:90,1,190,2|10,1:0|0:1,0:0:0:0:
461,15,39842,2,0,P|409:76|385:207,1,190,2|2,0:0|0:0,0:0:0:0:
382,180,40259,1,0,0:0:0:0:
382,180,40342,1,10,0:1:0:0:
481,305,40509,1,2,0:0:0:0:
481,305,40675,102,0,P|432:293|379:296,1,95,2|2,1:0|0:0,0:0:0:0:
214,374,41009,2,0,P|263:386|316:383,2,95,10|2|0,0:1|0:0|1:0,0:0:0:0:
117,282,41509,1,2,0:0:0:0:
117,282,41592,1,0,0:0:0:0:
117,282,41675,2,0,L|133:145,1,95,10|2,0:1|0:1,0:0:0:0:
104,29,42009,5,2,1:0:0:0:
2,57,42175,1,2,0:1:0:0:
104,29,42342,1,10,0:1:0:0:
2,57,42509,2,0,P|-18:130|20:239,1,190,2|2,0:1|0:1,0:0:0:0:
151,280,43009,1,10,0:1:0:0:
251,227,43175,1,2,0:1:0:0:
257,112,43342,101,4,1:2:0:0:
257,112,43425,1,0,2:0:0:0:
257,112,43509,1,2,1:2:0:0:
354,51,43675,1,0,1:0:0:0:
354,51,43842,1,2,1:2:0:0:
466,68,44009,1,0,1:0:0:0:
476,89,44092,1,0,1:0:0:0:
483,111,44175,1,0,1:0:0:0:
489,134,44259,1,0,1:0:0:0:
492,158,44342,1,2,1:0:0:0:
494,182,44425,1,2,1:0:0:0:
492,205,44509,1,2,1:0:0:0:
489,229,44592,1,2,1:0:0:0:
483,252,44675,6,0,L|365:239,1,95,6|2,1:0|0:0,0:0:0:0:
242,354,45009,2,0,L|360:341,1,95,8|2,0:1|0:0,0:0:0:0:
185,215,45342,1,0,0:0:0:0:
85,276,45509,1,2,0:0:0:0:
147,330,45675,1,8,0:1:0:0:
123,161,45842,1,2,0:0:0:0:
144,0,46009,101,0,0:0:0:0:
230,37,46175,1,2,0:0:0:0:
316,74,46342,1,8,0:1:0:0:
402,111,46509,1,2,0:0:0:0:
390,17,46675,1,0,0:0:0:0:
316,74,46842,1,2,0:0:0:0:
243,132,47009,1,8,0:1:0:0:
169,190,47175,1,2,0:0:0:0:
228,371,47342,6,0,P|280:374|328:353,1,95,0|2,0:0|0:0,0:0:0:0:
345,173,47675,2,0,P|316:216|310:268,1,95,8|2,0:1|0:0,0:0:0:0:
457,373,48009,2,0,P|433:326|391:295,1,95,0|2,0:0|0:0,0:0:0:0:
228,371,48342,2,0,P|280:374|328:353,1,95,8|2,0:1|0:0,0:0:0:0:
153,218,48675,101,0,0:0:0:0:
53,232,48842,1,2,0:0:0:0:
67,332,49009,1,8,0:1:0:0:
167,318,49175,1,2,0:0:0:0:
245,159,49342,1,0,0:0:0:0:
345,173,49509,1,2,0:0:0:0:
331,273,49675,1,8,0:1:0:0:
231,259,49842,1,2,0:0:0:0:
167,89,50009,5,4,1:0:0:0:
167,89,50175,2,0,P|170:33|203:-17,2,95,2|8|2,0:0|0:1|0:0,0:0:0:0:
167,89,50592,1,0,0:0:0:0:
167,89,50675,1,0,0:0:0:0:
305,40,50842,2,0,P|372:46|413:76,2,95,2|8|2,0:0|0:1|0:0,0:0:0:0:
403,165,51342,101,0,0:0:0:0:
439,253,51509,1,2,0:0:0:0:
344,240,51675,2,0,P|282:237|232:252,1,95,8|2,0:1|0:0,0:0:0:0:
97,324,52009,1,0,0:0:0:0:
61,236,52175,1,2,0:0:0:0:
156,249,52342,2,0,P|218:252|268:237,1,95,8|2,0:1|0:0,0:0:0:0:
94,126,52675,6,0,L|0:137,1,95,0|2,0:0|0:0,0:0:0:0:
170,94,53009,2,0,L|156:-21,1,95,8|2,0:1|0:0,0:0:0:0:
202,170,53342,2,0,L|317:156,1,95,0|2,0:0|0:0,0:0:0:0:
126,202,53675,2,0,L|140:317,1,95,8|2,0:1|0:0,0:0:0:0:
256,384,54009,101,0,0:0:0:0:
356,341,54175,1,2,0:0:0:0:
264,281,54342,1,8,0:1:0:0:
364,238,54509,1,2,0:0:0:0:
512,338,54675,5,0,0:0:0:0:
489,206,54842,1,2,0:0:0:0:
366,151,55009,1,10,0:1:0:0:
343,19,55175,1,10,0:1:0:0:
343,19,55259,1,0,0:0:0:0:
343,19,55342,101,6,1:0:0:0:
229,2,55509,1,0,0:0:0:0:
177,105,55675,1,8,3:1:0:0:
259,185,55842,1,2,3:2:0:0:
361,132,56009,2,0,L|459:146,1,95,0|2,1:0|3:2,0:0:0:0:
177,105,56342,2,0,L|79:119,1,95,8|2,3:1|3:2,0:0:0:0:
81,279,56675,5,0,1:0:0:0:
147,370,56842,1,2,3:2:0:0:
147,370,56925,1,0,3:0:0:0:
147,370,57009,1,8,3:1:0:0:
256,339,57175,1,2,3:2:0:0:
190,248,57342,2,0,P|151:207|94:195,1,95,0|2,1:0|3:2,0:0:0:0:
322,248,57675,2,0,P|361:207|418:195,1,95,10|2,3:1|3:1,0:0:0:0:
490,354,58009,101,6,1:0:0:0:
460,254,58175,1,2,3:2:0:0:
489,153,58342,1,8,3:1:0:0:
462,51,58509,1,2,3:2:0:0:
364,13,58675,1,0,1:0:0:0:
364,13,58842,2,0,L|326:42,2,47.5,2|0|8,3:2|3:0|3:1,0:0:0:0:
340,136,59175,1,2,3:2:0:0:
200,92,59342,5,0,1:0:0:0:
148,0,59509,1,2,3:2:0:0:
71,70,59675,1,8,3:1:0:0:
123,162,59842,1,2,3:2:0:0:
22,255,60009,101,2,1:0:0:0:
89,373,60175,1,2,3:1:0:0:
190,282,60342,1,10,3:1:0:0:
123,162,60509,1,2,3:1:0:0:
200,0,60675,5,6,1:0:0:0:
200,0,60759,1,0,3:0:0:0:
200,0,60842,1,2,3:2:0:0:
345,53,61009,2,0,L|407:45,2,47.5,8|0|2,3:1|3:0|3:2,0:0:0:0:
278,177,61342,2,0,L|216:169,2,47.5,0|0|2,1:0|3:0|3:2,0:0:0:0:
401,268,61675,1,8,3:1:0:0:
401,268,61759,1,0,3:0:0:0:
401,268,61842,1,2,3:2:0:0:
503,176,62009,101,0,1:0:0:0:
503,176,62092,1,0,3:0:0:0:
503,176,62175,2,0,P|444:167|397:181,1,95,2|8,3:2|3:1,0:0:0:0:
318,261,62509,1,2,3:2:0:0:
232,357,62675,2,0,P|166:350|122:322,1,95,0|2,1:0|3:2,0:0:0:0:
0,384,63009,2,0,P|39:330|85:306,1,95,10|2,3:1|3:1,0:0:0:0:
92,169,63342,6,0,P|118:229|116:281,1,95,6|2,1:0|3:2,0:0:0:0:
0,114,63675,1,8,3:1:0:0:
0,114,63759,1,0,3:0:0:0:
0,114,63842,2,0,P|5:67|28:25,2,95,2|0|2,3:2|1:0|3:2,0:0:0:0:
153,83,64342,2,0,L|255:92,1,95,8|2,3:1|1:2,0:0:0:0:
349,28,64675,101,4,1:0:0:0:
372,24,64759,1,0,3:0:0:0:
395,20,64842,1,2,3:2:0:0:
512,121,65009,5,4,1:1:0:0:
489,125,65092,1,0,3:0:0:0:
466,129,65175,1,2,3:2:0:0:
350,241,65342,5,6,1:1:0:0:
373,237,65425,1,0,3:0:0:0:
396,233,65509,1,2,3:2:0:0:
512,329,65675,5,6,1:0:0:0:
489,333,65759,1,0,3:0:0:0:
466,337,65842,1,2,3:2:0:0:
317,384,66009,102,0,P|266:365|197:370,1,95,6|2,1:0|0:0,0:0:0:0:
95,349,66342,2,0,P|136:314|167:252,1,95,10|2,0:1|0:0,0:0:0:0:
236,174,66675,2,0,P|245:227|283:284,1,95,2|2,1:0|0:0,0:0:0:0:
264,262,66925,1,0,0:0:0:0:
264,262,67009,1,8,0:1:0:0:
102,162,67175,1,2,0:0:0:0:
102,162,67342,6,0,P|45:156|-16:193,1,95,2|2,1:0|0:1,0:0:0:0:
3,356,67675,2,0,P|49:363|94:348,1,95,10|2,0:1|0:1,0:0:0:0:
287,367,68009,2,0,L|341:382,2,47.5,0|0|2,1:0|0:0|0:0,0:0:0:0:
512,290,68342,2,0,L|458:305,2,47.5,8|0|2,0:1|0:0|0:0,0:0:0:0:
383,165,68675,102,0,P|367:91|437:-8,1,190,2|10,1:0|0:1,0:0:0:0:
484,102,69175,1,2,0:0:0:0:
336,64,69342,1,0,1:0:0:0:
192,122,69509,1,2,0:1:0:0:
297,170,69675,1,8,0:1:0:0:
239,26,69842,1,2,0:1:0:0:
93,148,70009,6,0,L|0:164,1,95,2|2,1:0|0:0,0:0:0:0:
134,318,70342,2,0,L|166:228,1,95,10|2,0:1|0:0,0:0:0:0:
166,228,70592,1,2,0:0:0:0:
166,228,70675,1,2,1:0:0:0:
31,277,70842,1,2,0:0:0:0:
223,384,71009,2,0,L|277:377,2,47.5,10|0|2,0:1|0:0|0:0,0:0:0:0:
435,384,71342,102,0,P|418:336|424:265,1,95,2|2,1:0|0:0,0:0:0:0:
265,279,71675,2,0,P|302:248|346:232,1,95,10|2,0:1|0:0,0:0:0:0:
312,84,72009,2,0,P|352:111|380:149,1,95,2|2,1:0|0:0,0:0:0:0:
512,68,72342,2,0,P|498:114|471:152,1,95,8|2,0:1|0:0,0:0:0:0:
471,152,72592,1,0,0:0:0:0:
471,152,72675,5,2,1:0:0:0:
345,232,72842,1,2,0:1:0:0:
186,164,73009,1,10,0:1:0:0:
312,84,73175,1,2,0:1:0:0:
417,292,73342,1,2,1:0:0:0:
417,292,73425,1,0,0:0:0:0:
417,292,73509,2,0,L|409:390,1,95,2|8,0:0|0:1,0:0:0:0:
169,353,73842,1,2,0:0:0:0:
169,353,74009,102,0,L|187:145,1,190,2|10,1:0|0:1,0:0:0:0:
185,163,74425,1,0,0:0:0:0:
185,163,74509,1,2,0:0:0:0:
150,69,74675,1,2,1:0:0:0:
50,74,74842,1,2,0:0:0:0:
23,170,75009,1,10,0:1:0:0:
106,224,75175,1,2,0:0:0:0:
261,91,75342,2,0,B|331:97|331:97|370:130|370:130|454:137,1,190,2|10,1:0|0:1,0:0:0:0:
438,135,75759,1,0,0:0:0:0:
438,135,75842,1,2,0:0:0:0:
512,304,76009,5,2,1:0:0:0:
344,268,76175,1,2,0:0:0:0:
136,344,76342,1,14,0:1:0:0:
304,380,76509,1,2,1:2:0:0:
461,192,76675,102,0,P|462:140|434:77,1,95,6|2,1:0|0:0,0:0:0:0:
322,12,77009,1,10,0:1:0:0:
299,20,77092,1,0,0:0:0:0:
276,27,77175,1,2,0:0:0:0:
126,0,77342,1,2,1:1:0:0:
126,0,77509,1,2,0:0:0:0:
223,124,77675,1,8,0:1:0:0:
246,132,77759,1,0,0:0:0:0:
269,139,77842,1,2,0:0:0:0:
132,234,78009,6,0,P|82:229|37:190,1,95,2|2,1:0|0:1,0:0:0:0:
154,384,78342,2,0,P|192:357|239:353,1,95,10|2,0:1|0:1,0:0:0:0:
403,384,78675,2,0,L|466:372,2,47.5,0|0|2,1:0|0:0|0:0,0:0:0:0:
512,207,79009,2,0,L|449:195,2,47.5,8|0|2,0:1|0:0|0:0,0:0:0:0:
317,227,79342,102,0,P|223:213|131:234,1,190,2|14,1:0|0:1,0:0:0:0:
20,384,79842,2,0,P|40:337|38:281,1,95,2|2,0:0|1:0,0:0:0:0:
0,109,80175,1,2,0:1:0:0:
83,76,80342,1,10,0:1:0:0:
33,192,80509,1,2,0:1:0:0:
116,159,80675,2,0,P|176:141|317:147,1,190,2|8,1:0|0:1,0:0:0:0:
302,143,81092,1,0,0:0:0:0:
302,143,81175,1,2,0:0:0:0:
437,35,81342,6,0,L|423:114,2,47.5,2|0|2,1:0|0:0|0:0,0:0:0:0:
504,230,81675,2,0,L|518:309,2,47.5,10|0|2,0:1|0:0|0:0,0:0:0:0:
329,369,82009,101,2,1:0:0:0:
329,369,82175,1,2,0:0:0:0:
193,317,82342,1,10,0:1:0:0:
169,320,82425,1,0,0:0:0:0:
145,324,82509,1,2,0:0:0:0:
0,215,82675,1,2,1:0:0:0:
24,218,82759,1,0,0:0:0:0:
48,222,82842,1,2,0:0:0:0:
200,113,83009,1,8,0:1:0:0:
176,116,83092,1,0,0:0:0:0:
152,120,83175,1,2,0:0:0:0:
7,13,83342,5,2,1:0:0:0:
7,13,83509,2,0,P|61:4|134:10,2,95,2|10|2,0:1|0:1|0:1,0:0:0:0:
115,187,84009,1,0,1:0:0:0:
115,187,84092,1,0,0:0:0:0:
115,187,84175,1,2,0:0:0:0:
257,50,84342,2,0,L|229:-3,2,47.5,8|0|2,0:1|0:0|0:0,0:0:0:0:
279,87,84592,1,0,0:0:0:0:
301,123,84675,101,2,1:0:0:0:
449,108,84842,1,2,1:2:0:0:
464,256,85009,1,2,1:1:0:0:
316,271,85175,1,2,1:2:0:0:
211,123,85342,5,0,1:0:0:0:
63,108,85509,1,2,1:0:0:0:
48,256,85675,1,2,1:0:0:0:
196,271,85842,1,2,1:0:0:0:
301,123,86009,102,0,L|396:142,1,95,6|0,1:0|1:0,0:0:0:0:
468,130,86259,2,0,L|479:226,1,95,4|0,1:0|1:0,0:0:0:0:
512,290,86509,2,0,L|425:328,1,95,4|2,1:0|1:0,0:0:0:0:
372,382,86759,2,0,L|306:310,1,95,4|0,1:0|1:0,0:0:0:0:
244,278,87009,6,0,L|291:193,2,95,6|2|14,1:0|1:0|1:0,0:0:0:0:
256,192,87425,12,6,88675,1:0:0:0:
197,67,88842,5,2,0:0:0:0:
168,63,88925,1,0,0:0:0:0:
139,59,89009,1,8,0:1:0:0:
0,0,89175,1,2,0:0:0:0:
49,182,89342,1,2,1:0:0:0:
49,182,89509,2,0,L|37:247,2,56.9999982604981,2|2|8,0:0|0:0|0:1,0:0:0:0:
145,314,89842,1,2,0:0:0:0:
174,310,89925,1,0,0:0:0:0:
203,306,90009,6,0,P|267:305|326:321,1,113.999996520996,0|2,1:0|0:0,0:0:0:0:
470,377,90342,1,10,0:1:0:0:
474,348,90425,1,0,0:0:0:0:
478,319,90509,1,2,0:1:0:0:
482,291,90592,1,0,0:0:0:0:
487,263,90675,1,2,1:0:0:0:
315,216,90842,2,0,L|304:155,2,56.9999982604981,2|2|10,0:0|0:1|0:1,0:0:0:0:
433,68,91175,1,2,0:0:0:0:
433,68,91259,1,2,0:0:0:0:
433,68,91342,6,0,B|346:52|346:52|302:69|302:69|200:51,1,227.999993041992,0|8,1:0|0:1,0:0:0:0:
0,192,91842,2,0,B|86:176|86:176|130:193|130:193|232:175,1,227.999993041992,2|2,0:1|0:0,0:0:0:0:
250,172,92259,1,2,0:0:0:0:
278,170,92342,1,8,0:1:0:0:
305,175,92425,1,2,0:0:0:0:
330,189,92509,2,0,L|351:308,1,113.999996520996,2|2,0:1|1:0,0:0:0:0:
181,384,92842,5,2,0:0:0:0:
186,355,92925,1,0,0:0:0:0:
191,326,93009,1,8,0:1:0:0:
196,297,93092,1,0,0:0:0:0:
201,268,93175,1,2,0:0:0:0:
136,114,93342,2,0,L|199:102,3,56.9999982604981,2|2|2|2,1:0|0:0|0:0|0:0,0:0:0:0:
75,64,93675,2,0,L|11:52,3,56.9999982604981,10|2|2|2,0:1|0:0|0:1|0:0,0:0:0:0:
133,9,94009,70,0,P|207:2|313:57,1,170.999994781494,2|2,1:0|0:0,0:0:0:0:
311,61,94342,2,0,L|436:48,1,113.999996520996,8|2,0:1|0:1,0:0:0:0:
512,212,94675,2,0,L|387:199,1,113.999996520996,0|2,1:0|0:1,0:0:0:0:
289,374,95009,1,8,0:1:0:0:
317,371,95092,1,2,0:0:0:0:
345,368,95175,1,2,0:0:0:0:
374,365,95259,1,2,0:0:0:0:
402,362,95342,6,0,P|477:369|548:412,1,113.999996520996,2|2,1:0|0:0,0:0:0:0:
292,275,95675,2,0,P|238:295|182:297,1,113.999996520996,10|2,0:1|0:0,0:0:0:0:
0,384,96009,1,2,1:0:0:0:
7,344,96092,1,2,0:0:0:0:
14,305,96175,1,2,0:1:0:0:
22,266,96259,1,2,0:0:0:0:
29,227,96342,1,10,0:1:0:0:
37,187,96425,1,2,0:0:0:0:
44,148,96509,1,2,0:1:0:0:
52,109,96592,1,2,0:0:0:0:
59,70,96675,6,0,L|127:58,3,56.9999982604981,2|2|2|2,1:0|0:0|0:0|0:0,0:0:0:0:
163,0,97009,2,0,L|225:29,3,56.9999982604981,10|2|2|2,0:1|0:0|0:0|0:0,0:0:0:0:
288,2,97342,2,0,L|322:61,3,56.9999982604981,0|0|0|0,1:0|0:0|0:0|0:0,0:0:0:0:
389,75,97675,2,0,L|382:143,3,56.9999982604981,10|2|2|2,0:1|0:0|0:0|0:0,0:0:0:0:
448,192,98009,6,0,L|403:243,1,56.9999982604981,2|0,1:0|0:0,0:0:0:0:
512,246,98175,2,0,L|467:297,1,56.9999982604981,2|0,0:0|0:0,0:0:0:0:
360,287,98342,2,0,L|315:338,1,56.9999982604981,8|0,0:1|0:0,0:0:0:0:
424,341,98509,2,0,L|379:392,1,56.9999982604981,2|0,0:0|0:0,0:0:0:0:
125,383,98675,70,0,L|88:341,1,56.9999982604981,2|2,1:0|0:0,0:0:0:0:
189,329,98842,2,0,L|152:287,1,56.9999982604981,2|2,0:1|0:0,0:0:0:0:
37,288,99009,2,0,L|0:246,1,56.9999982604981,10|2,0:1|0:0,0:0:0:0:
101,234,99175,2,0,L|64:192,1,56.9999982604981,2|2,0:1|0:0,0:0:0:0:
256,191,99342,6,0,P|217:90|285:4,1,227.999993041992,6|8,1:0|0:1,0:0:0:0:
512,134,99842,2,0,P|411:173|325:105,1,227.999993041992,2|2,0:1|0:0,0:0:0:0:
468,249,100342,1,10,0:1:0:0:
463,282,100425,1,0,0:0:0:0:
458,316,100509,1,2,0:1:0:0:
454,349,100592,1,0,0:0:0:0:
451,382,100675,6,0,L|320:360,1,113.999996520996,2|2,1:0|0:0,0:0:0:0:
61,382,101009,2,0,L|192:360,1,113.999996520996,8|2,0:1|0:0,0:0:0:0:
372,265,101342,2,0,P|387:201|355:140,1,113.999996520996,2|2,1:0|0:0,0:0:0:0:
140,265,101675,2,0,P|125:201|157:140,1,113.999996520996,10|2,0:1|0:0,0:0:0:0:
164,131,101925,1,0,0:0:0:0:
194,114,102009,6,0,L|311:99,1,113.999996520996,2|2,1:0|0:0,0:0:0:0:
85,52,102342,1,8,0:1:0:0:
51,48,102425,1,0,0:0:0:0:
17,44,102509,2,0,P|-23:121|33:255,1,227.999993041992,2|2,0:1|0:0,0:0:0:0:
56,253,102925,1,2,0:0:0:0:
89,258,103009,1,8,0:1:0:0:
122,263,103092,1,2,0:0:0:0:
155,268,103175,1,2,0:1:0:0:
188,273,103259,1,2,0:0:0:0:
221,279,103342,69,2,1:0:0:0:
384,384,103509,1,2,0:0:0:0:
409,353,103592,1,2,0:0:0:0:
427,318,103675,1,8,0:1:0:0:
436,279,103759,1,2,0:0:0:0:
436,239,103842,1,2,0:0:0:0:
426,201,103925,1,2,0:0:0:0:
408,165,104009,2,0,L|417:87,3,56.9999982604981,2|0|2|2,1:0|0:0|0:0|0:0,0:0:0:0:
348,56,104342,2,0,L|339:-22,3,56.9999982604981,10|0|2|2,0:1|0:0|0:0|0:0,0:0:0:0:
256,0,104675,5,2,1:0:0:0:
216,6,104759,1,0,0:0:0:0:
176,12,104842,1,2,0:0:0:0:
136,18,104925,1,2,0:0:0:0:
96,25,105009,1,8,0:1:0:0:
56,31,105092,1,0,0:0:0:0:
16,38,105175,2,0,L|11:126,1,56.9999982604981,2|0,0:1|0:0,0:0:0:0:
0,225,105342,6,0,B|86:240|86:240|136:232|136:232|239:250,1,227.999993041992,2|10,1:0|0:1,0:0:0:0:
263,258,105759,1,2,0:0:0:0:
301,267,105842,1,2,0:0:0:0:
339,276,105925,1,2,0:0:0:0:
378,285,106009,6,0,P|405:230|387:170,1,113.999996520996,2|2,1:0|0:0,0:0:0:0:
185,241,106342,2,0,P|158:296|176:356,1,113.999996520996,10|2,0:1|0:0,0:0:0:0:
372,146,106675,1,2,1:2:0:0:
342,118,106759,1,0,0:0:0:0:
305,101,106842,1,2,0:0:0:0:
265,98,106925,1,2,0:0:0:0:
225,104,107009,1,8,0:1:0:0:
186,115,107092,1,0,0:0:0:0:
146,115,107175,1,2,0:1:0:0:
108,100,107259,1,0,0:0:0:0:
81,70,107342,70,0,L|74:9,3,56.9999982604981,2|0|2|0,1:0|0:0|0:0|0:0,0:0:0:0:
6,142,107675,2,0,L|-1:203,3,56.9999982604981,8|0|2|0,0:1|0:0|0:0|0:0,0:0:0:0:
47,292,108009,5,2,1:2:0:0:
77,305,108092,1,2,0:0:0:0:
112,318,108175,1,2,0:0:0:0:
153,327,108259,1,2,0:0:0:0:
196,330,108342,1,8,0:1:0:0:
243,327,108425,1,2,0:0:0:0:
294,312,108509,1,2,0:0:0:0:
346,286,108592,1,2,0:0:0:0:
396,242,108675,6,0,L|384:171,1,56.9999982604981,6|0,1:0|0:0,0:0:0:0:
428,59,108842,2,0,L|357:70,1,56.9999982604981,2|0,1:0|0:0,0:0:0:0:
245,27,109009,2,0,L|256:97,1,56.9999982604981,2|2,1:0|0:1,0:0:0:0:
213,209,109175,2,0,L|283:197,1,56.9999982604981,2|0,1:0|0:0,0:0:0:0:
512,160,109342,5,2,1:0:0:0:
480,156,109425,1,0,1:0:0:0:
440,151,109509,1,0,1:0:0:0:
392,145,109592,1,0,1:0:0:0:
337,138,109675,1,10,1:0:0:0:
273,130,109759,1,2,1:0:0:0:
202,121,109842,1,2,1:0:0:0:
122,112,109925,1,2,1:0:0:0:
35,101,110009,1,6,1:0:0:0:
