osu file format v14

[General]
AudioFilename: audio.ogg
AudioLeadIn: 0
PreviewTime: 65925
Countdown: 0
SampleSet: Soft
StackLeniency: 0.7
Mode: 0
LetterboxInBreaks: 0
EpilepsyWarning: 1
WidescreenStoryboard: 1

[Editor]
Bookmarks: 2092,2342,3009,3675,4342,5009,5675,6342,7009,7342,7675,8342,9009,9675,10342,11009,11342,11509,12009,12342,12509,12675
DistanceSpacing: 1
BeatDivisor: 2
GridSize: 8
TimelineZoom: 2

[Metadata]
Title:Crystal World ~Fracture~
TitleUnicode:水晶世界 ~Fracture~
Artist:Mio Akiyama
ArtistUnicode:秋山 澪
Creator:ent
Version:Renumi's Normal
Source:THE BMS OF FIGHTERS 2010 - The Evolution of War -
Tags:けいおん!! k-on!! keion!! No.44 wa. wa remixed remix by celas bms bof2010 Suishou Sekai Hard NRG deadblue238 琴吹 紬 Tsumugi Kotobuki electronic instrumental pewdekz vitas2222 renumi hewwo ralsei fsjallink fanzhen0019
BeatmapID:3829215
BeatmapSetID:1851073

[Difficulty]
HPDrainRate:3
CircleSize:3.3
OverallDifficulty:3
ApproachRate:5
SliderMultiplier:1.1
SliderTickRate:1

[Events]
//Background and Video events
0,0,"jonatan-pie-VlH2eHyE_50-unsplash.jpg",0,0
Video,300,"Crystal World Fracture noaudio 360.mp4"
//Break Periods
//Storyboard Layer 0 (Background)
//Storyboard Layer 1 (Fail)
//Storyboard Layer 2 (Pass)
//Storyboard Layer 3 (Foreground)
//Storyboard Layer 4 (Overlay)
//Storyboard Sound Samples

[TimingPoints]
676,333.333333333333,4,2,0,30,1,0
2009,-100,4,2,0,40,0,0
2676,-100,4,2,0,30,0,0
11342,-100,4,2,0,45,0,1
12675,-100,4,2,0,50,0,0
22009,-100,4,2,0,55,0,1
23342,-100,4,2,0,60,0,0
43342,-100,4,2,0,60,0,1
44675,-100,4,2,0,50,0,0
55342,-100,4,2,0,60,0,1
65925,-100,4,2,0,66,0,0
66009,-100,4,2,0,70,0,1
67342,-100,4,2,0,70,0,0
69342,-100,4,2,0,70,0,1
70009,-100,4,2,0,70,0,0
76675,-100,4,2,0,75,0,1
86009,-100,4,2,0,80,0,1
87342,-100,4,2,0,80,0,0
88675,-100,4,2,0,90,0,1
108675,-100,4,2,0,95,0,1
109675,-100,4,2,0,100,0,1
110009,-100,4,2,0,100,0,0
110092,-100,4,2,0,5,0,0
115342,-100,4,2,0,25,0,0

[Colours]
Combo1 : 255,255,0
Combo2 : 58,75,231
Combo3 : 102,155,255
Combo4 : 255,199,51
Combo5 : 255,219,125
Combo6 : 230,230,230
Combo7 : 0,255,255
Combo8 : 255,128,255

[HitObjects]
373,370,2009,5,4,1:0:0:0:
373,370,2175,2,0,B|387:318|387:318|389:244,1,110,2|2,0:0|0:0,0:0:0:0:
440,164,2842,2,0,B|388:150|388:150|314:148,1,110,2|2,0:0|0:0,0:0:0:0:
240,87,3509,2,0,B|226:139|226:139|224:213,1,110,2|2,0:0|0:0,0:0:0:0:
281,308,4175,2,0,B|225:307|225:307|173:293,1,110,2|2,0:0|0:0,0:0:0:0:
108,204,4842,6,0,L|-11:226,1,110,2|2,0:0|0:0,0:0:0:0:
23,116,5509,2,0,L|33:6,1,110,2|2,0:0|0:0,0:0:0:0:
143,0,6175,2,0,L|160:109,1,110,2|2,0:0|0:0,0:0:0:0:
227,195,6842,1,2,0:0:0:0:
327,150,7175,1,2,0:0:0:0:
394,236,7509,102,0,B|447:237|447:237|511:223,1,110,2|2,0:0|0:0,0:0:0:0:
438,135,8175,2,0,B|439:82|439:82|425:18,1,110,2|2,0:0|0:0,0:0:0:0:
330,80,8842,2,0,B|277:79|277:79|213:93,1,110,2|2,0:0|0:0,0:0:0:0:
286,181,9509,2,0,B|285:234|285:234|299:298,1,110,2|2,0:0|0:0,0:0:0:0:
239,383,10175,6,0,B|187:373|187:373|121:372,1,110,2|2,0:0|0:0,0:0:0:0:
19,377,10842,2,0,B|32:324|32:324|59:262,1,110,2|2,0:0|0:0,0:0:0:0:
96,240,11342,1,2,0:1:0:0:
96,240,11509,2,0,L|73:117,1,110,2|2,0:1|0:0,0:0:0:0:
35,93,12009,1,2,0:1:0:0:
111,14,12342,1,10,0:1:0:0:
224,20,12675,101,6,1:0:0:0:
224,20,12842,2,0,B|243:76|243:76|252:144,1,110,2|2,0:0|0:0,0:0:0:0:
230,235,13509,2,0,B|286:216|286:216|354:207,1,110,2|2,0:0|0:0,0:0:0:0:
445,195,14175,1,2,0:0:0:0:
509,283,14509,1,2,0:0:0:0:
453,378,14842,1,2,0:0:0:0:
352,333,15175,1,2,0:0:0:0:
247,363,15509,6,0,B|190:352|190:352|141:332,1,110,2|2,0:0|0:0,0:0:0:0:
32,341,16175,2,0,B|42:284|42:284|62:235,1,110,2|2,0:0|0:0,0:0:0:0:
47,127,16842,2,0,B|103:137|103:137|152:157,1,110,2|2,0:0|0:0,0:0:0:0:
236,229,17509,2,0,B|292:218|292:218|341:198,1,110,2|2,0:0|0:0,0:0:0:0:
386,167,18009,101,4,0:1:0:0:
386,167,18175,2,0,B|381:111|381:111|359:52,1,110,2|2,0:0|0:0,0:0:0:0:
264,9,18842,2,0,B|245:59|245:59|240:115,1,110,2|2,0:0|0:0,0:0:0:0:
245,225,19509,1,2,0:0:0:0:
169,304,19842,1,2,0:0:0:0:
61,278,20175,2,0,B|37:234|37:234|26:172,1,110,2|2,0:0|0:0,0:0:0:0:
45,125,20675,5,6,1:1:0:0:
45,125,20842,2,0,L|156:107,1,110,2|2,0:0|0:0,0:0:0:0:
199,76,21342,1,0,0:0:0:0:
308,70,21675,1,8,0:1:0:0:
398,132,22009,102,0,P|414:181|430:249,1,110,2|2,1:0|1:0,0:0:0:0:
454,291,22509,1,2,0:0:0:0:
454,291,22675,2,0,L|395:321,1,55,0|0,1:0|0:0,0:0:0:0:
371,360,23009,2,0,L|291:349,1,55,0|0,1:0|0:0,0:0:0:0:
270,321,23342,6,0,L|157:333,1,110,6|10,1:0|0:1,0:0:0:0:
51,314,24009,1,0,1:0:0:0:
19,208,24342,1,8,0:1:0:0:
80,117,24675,2,0,P|134:131|187:152,1,110,2|10,1:0|0:1,0:0:0:0:
267,222,25342,1,0,1:0:0:0:
375,204,25675,1,8,0:1:0:0:
436,112,26009,102,0,L|410:-17,2,110,2|10|2,1:0|0:1|1:1,0:0:0:0:
474,215,27009,1,8,0:1:0:0:
414,310,27342,2,0,L|355:298,1,55,2|2,1:0|0:0,0:0:0:0:
325,255,27675,2,0,P|297:259|255:271,1,55,14|2,0:1|0:0,0:0:0:0:
228,300,28009,2,0,P|184:293|117:277,1,110,6|14,1:0|0:1,0:0:0:0:
25,222,28675,6,0,B|41:182|41:182|58:97,1,110,2|8,1:0|0:1,0:0:0:0:
142,50,29342,2,0,B|158:90|158:90|175:175,1,110,0|8,1:0|0:1,0:0:0:0:
210,194,29842,1,2,0:1:0:0:
210,194,30009,2,0,L|321:181,1,110,2|10,1:1|0:1,0:0:0:0:
387,94,30675,2,0,L|496:106,1,110,0|8,1:0|0:1,0:0:0:0:
499,161,31175,1,2,0:1:0:0:
499,161,31342,102,0,B|490:214|490:214|492:293,2,110,2|8|0,1:0|0:1|1:0,0:0:0:0:
451,61,32342,1,8,0:1:0:0:
342,43,32675,2,0,L|274:52,1,55,2|2,1:0|0:0,0:0:0:0:
260,98,33009,2,0,P|222:94|185:88,1,55,8|2,0:1|0:0,0:0:0:0:
153,71,33342,2,0,P|111:104|63:160,1,110,2|10,1:0|0:1,0:0:0:0:
57,201,33842,1,2,1:2:0:0:
57,201,34009,6,0,L|67:317,1,110,6|10,1:0|0:1,0:0:0:0:
172,339,34675,1,0,1:0:0:0:
258,270,35009,1,8,0:1:0:0:
357,317,35342,2,0,L|476:301,1,110,2|10,1:0|0:1,0:0:0:0:
512,200,36009,1,0,1:0:0:0:
480,94,36342,2,0,P|456:79|431:68,1,55,10|2,0:1|0:0,0:0:0:0:
376,68,36675,102,0,B|362:123|362:123|356:175,2,110,2|10|0,1:0|0:1|1:0,0:0:0:0:
283,7,37675,1,10,0:1:0:0:
204,84,38009,2,0,L|139:90,1,55,2|0,1:0|0:0,0:0:0:0:
111,49,38342,2,0,P|84:55|58:65,1,55,10|0,0:1|0:0,0:0:0:0:
13,96,38675,2,0,B|27:151|27:151|32:203,1,110,2|10,1:0|0:1,0:0:0:0:
17,313,39342,6,0,B|70:321|70:321|146:323,2,110,2|10|0,1:0|0:1|1:0,0:0:0:0:
32,203,40342,1,10,0:1:0:0:
29,95,40675,2,0,B|82:87|82:87|158:85,2,110,2|10|0,1:0|0:1|1:0,0:0:0:0:
32,203,41675,2,0,L|98:212,1,55,10|2,0:1|0:1,0:0:0:0:
127,248,42009,102,0,B|181:236|181:236|241:235,1,110,2|10,1:0|0:1,0:0:0:0:
269,278,42509,1,2,0:1:0:0:
377,294,42842,2,0,B|389:240|389:240|389:185,1,110,2|2,0:1|0:1,0:0:0:0:
369,133,43342,2,0,P|388:108|416:90,1,55,4|2,1:2|1:2,0:0:0:0:
461,85,43675,2,0,P|491:92|516:103,1,55,0|2,1:0|1:2,0:0:0:0:
510,156,44009,1,0,1:0:0:0:
481,262,44342,1,2,1:0:0:0:
377,294,44675,6,0,L|257:289,1,110,6|8,1:0|0:1,0:0:0:0:
213,300,45175,1,2,0:0:0:0:
109,260,45509,2,0,L|114:140,1,110,2|2,0:0|0:0,0:0:0:0:
91,99,46009,2,0,B|146:108|146:108|206:97,1,110,0|8,1:0|0:1,0:0:0:0:
232,54,46509,1,2,0:0:0:0:
338,26,46842,2,0,B|391:16|391:16|446:25,1,110,2|2,0:0|0:0,0:0:0:0:
486,63,47342,102,0,P|476:91|439:164,1,110,0|8,1:0|0:1,0:0:0:0:
399,199,47842,1,2,0:0:0:0:
374,306,48175,2,0,P|325:279|274:259,1,110,2|2,0:0|0:0,0:0:0:0:
219,263,48675,2,0,L|204:384,1,110,0|8,1:0|0:1,0:0:0:0:
150,379,49175,1,2,0:0:0:0:
50,345,49509,1,2,0:0:0:0:
50,345,49675,2,0,L|37:276,1,55,8|2,0:1|0:0,0:0:0:0:
14,241,50009,6,0,P|24:197|46:137,1,110,4|8,1:0|0:1,0:0:0:0:
71,87,50509,1,2,0:0:0:0:
165,31,50842,2,0,L|224:39,1,55,2|8,0:0|0:1,0:0:0:0:
303,109,51342,2,0,P|361:105|427:93,1,110,0|8,1:0|0:1,0:0:0:0:
456,61,51842,1,2,0:0:0:0:
500,161,52175,2,0,L|512:231,1,55,2|8,0:0|0:1,0:0:0:0:
469,315,52675,102,0,B|416:298|416:298|354:291,1,110,0|8,1:0|0:1,0:0:0:0:
321,329,53175,1,2,0:0:0:0:
210,329,53509,2,0,L|157:342,1,55,2|8,0:0|0:1,0:0:0:0:
49,314,54009,2,0,P|68:245|90:194,1,110,0|8,1:0|0:1,0:0:0:0:
125,174,54509,1,2,0:0:0:0:
125,174,54675,2,0,L|112:109,1,55,0|2,1:0|0:0,0:0:0:0:
103,65,55009,2,0,L|168:52,1,55,10|10,0:1|0:1,0:0:0:0:
199,19,55342,6,0,P|254:27|319:49,1,110,6|8,1:0|3:1,0:0:0:0:
408,97,56009,1,0,1:0:0:0:
408,97,56175,2,0,L|475:83,1,55,2|8,3:2|3:1,0:0:0:0:
447,197,56675,2,0,P|392:189|327:167,1,110,0|8,1:0|3:1,0:0:0:0:
238,119,57342,1,0,1:0:0:0:
238,119,57509,2,0,L|171:133,1,55,2|10,3:2|3:1,0:0:0:0:
86,182,58009,102,0,P|77:237|66:300,1,110,6|8,1:0|3:1,0:0:0:0:
161,358,58675,1,0,1:0:0:0:
161,358,58842,2,0,B|213:344|213:344|279:339,1,110,2|2,3:2|3:2,0:0:0:0:
319,362,59342,2,0,L|430:368,1,110,0|8,1:0|3:1,0:0:0:0:
508,291,60009,2,0,L|498:232,1,55,2|2,1:0|3:1,0:0:0:0:
453,205,60342,2,0,L|461:133,1,55,10|2,3:1|3:1,0:0:0:0:
487,103,60675,6,0,B|432:85|432:85|367:81,1,110,6|8,1:0|3:1,0:0:0:0:
275,116,61342,1,0,1:0:0:0:
275,116,61509,2,0,L|252:45,1,55,2|8,3:2|3:1,0:0:0:0:
151,37,62009,2,0,B|145:83|145:83|124:155,1,110,0|8,1:0|3:1,0:0:0:0:
92,248,62675,2,0,L|156:260,1,55,0|2,1:0|3:2,0:0:0:0:
176,304,63009,2,0,L|242:290,1,55,10|2,3:1|3:1,0:0:0:0:
275,324,63342,102,0,B|319:306|319:306|395:296,1,110,6|8,1:0|3:1,0:0:0:0:
484,259,64009,2,0,L|464:186,1,55,0|2,1:0|3:2,0:0:0:0:
428,169,64342,2,0,L|431:103,1,55,8|2,3:1|1:2,0:0:0:0:
425,59,64675,1,4,1:0:0:0:
330,2,65009,1,4,1:1:0:0:
237,60,65342,2,0,B|193:78|193:78|117:88,1,110,6|6,1:1|1:0,0:0:0:0:
76,84,65842,1,2,3:2:0:0:
76,84,66009,22,0,B|63:140|63:140|58:207,2,110,6|10|2,1:0|0:1|1:0,0:0:0:0:
183,59,67009,1,8,0:1:0:0:
267,129,67342,2,0,B|305:142|305:142|392:146,2,110,2|10|0,1:0|0:1|1:0,0:0:0:0:
165,170,68342,1,8,0:1:0:0:
59,192,68675,6,0,B|45:240|45:240|41:299,1,110,2|10,1:0|0:1,0:0:0:0:
137,363,69342,1,0,1:0:0:0:
137,363,69509,2,0,B|193:348|193:348|258:347,1,110,2|2,0:1|0:1,0:0:0:0:
290,376,70009,2,0,P|320:334|354:274,1,110,2|10,1:0|0:1,0:0:0:0:
360,229,70509,1,2,0:0:0:0:
360,229,70675,2,0,P|332:181|300:136,1,110,2|10,1:0|0:1,0:0:0:0:
195,103,71342,102,0,L|80:116,2,110,2|10|2,1:0|0:1|1:0,0:0:0:0:
256,11,72342,1,8,0:1:0:0:
317,103,72675,2,0,L|426:115,2,110,2|10|2,1:0|0:1|1:0,0:0:0:0:
256,192,73675,1,8,0:1:0:0:
149,221,74009,6,0,B|116:263|116:263|89:317,1,110,2|10,1:0|0:1,0:0:0:0:
190,359,74675,1,2,1:0:0:0:
260,274,75009,1,10,0:1:0:0:
367,296,75342,2,0,B|420:310|420:310|476:340,1,110,2|10,1:0|0:1,0:0:0:0:
512,303,75842,1,2,0:0:0:0:
512,303,76009,2,0,L|498:242,1,55,2|2,1:0|0:0,0:0:0:0:
468,204,76342,2,0,L|482:142,1,55,14|2,0:1|1:2,0:0:0:0:
504,101,76675,102,0,P|493:52|469:-8,1,110,6|10,1:0|0:1,0:0:0:0:
367,22,77342,1,2,1:1:0:0:
367,22,77509,2,0,P|346:73|334:126,1,110,2|2,0:0|0:0,0:0:0:0:
325,180,78009,2,0,P|271:190|223:155,1,110,2|10,1:0|0:1,0:0:0:0:
171,66,78675,2,0,L|98:71,1,55,0|2,1:0|0:0,0:0:0:0:
62,56,79009,2,0,P|46:83|33:113,1,55,8|2,0:1|0:0,0:0:0:0:
22,157,79342,6,0,P|35:203|56:263,1,110,2|14,1:0|0:1,0:0:0:0:
159,312,80009,1,2,1:0:0:0:
159,312,80175,2,0,B|148:381,2,55,2|10|2,0:1|0:1|0:1,0:0:0:0:
199,275,80675,2,0,P|254:285|329:309,1,110,2|8,1:0|0:1,0:0:0:0:
404,348,81342,2,0,L|418:219,1,110,2|10,1:0|0:1,0:0:0:0:
466,212,81842,1,2,0:0:0:0:
466,212,82009,102,0,L|444:85,2,110,2|10|2,1:0|0:1|1:0,0:0:0:0:
509,313,83009,1,8,0:1:0:0:
404,348,83342,2,0,B|348:350|348:350|287:364,1,110,2|10,1:0|0:1,0:0:0:0:
189,331,84009,2,0,P|146:302|81:276,1,110,0|8,1:0|0:1,0:0:0:0:
47,258,84509,1,2,0:0:0:0:
47,258,84675,6,0,L|58:195,1,55,2|2,1:0|1:2,0:0:0:0:
19,162,85009,2,0,P|33:134|51:105,1,55,2|2,1:1|1:2,0:0:0:0:
92,85,85342,1,0,1:0:0:0:
201,96,85675,1,2,1:0:0:0:
267,184,86009,2,0,B|314:182|314:182|375:168,1,110,6|0,1:0|1:0,0:0:0:0:
424,139,86509,1,4,1:0:0:0:
424,139,86675,2,0,L|486:151,2,55,2|4|6,1:0|1:0|1:0,0:0:0:0:
256,192,87175,12,6,88675,1:0:0:0:
256,192,89342,6,0,P|206:172|127:155,1,110,2|8,1:0|0:1,0:0:0:0:
100,161,89842,1,2,0:0:0:0:
100,161,90009,2,0,L|-20:183,1,110,0|10,1:0|0:1,0:0:0:0:
3,290,90675,2,0,P|40:326|86:363,1,110,2|10,1:0|0:1,0:0:0:0:
144,371,91175,1,2,0:0:0:0:
144,371,91342,6,0,L|262:352,1,110,0|8,1:0|0:1,0:0:0:0:
284,308,91842,2,0,P|340:315|415:329,1,110,2|2,0:1|0:0,0:0:0:0:
499,289,92509,1,2,0:1:0:0:
499,289,92675,2,0,B|515:239|515:239|498:169,1,110,2|8,1:0|0:1,0:0:0:0:
411,119,93342,2,0,B|395:169|395:169|412:239,1,110,2|10,1:0|0:1,0:0:0:0:
364,255,93842,1,2,0:1:0:0:
364,255,94009,6,0,P|312:232|262:199,1,110,2|8,1:0|0:1,0:0:0:0:
242,154,94509,2,0,L|130:143,1,110,2|2,0:1|0:1,0:0:0:0:
29,172,95175,1,2,0:0:0:0:
29,172,95342,2,0,P|24:119|50:60,1,110,2|10,1:0|0:1,0:0:0:0:
140,12,96009,2,0,L|193:36,1,55,2|2,1:0|0:1,0:0:0:0:
232,70,96342,2,0,P|261:66|299:59,1,55,10|2,0:1|0:1,0:0:0:0:
334,35,96675,5,2,1:0:0:0:
375,137,97009,2,0,P|367:191|355:245,1,110,10|0,0:1|1:0,0:0:0:0:
266,309,97675,1,10,0:1:0:0:
358,368,98009,2,0,P|389:364|414:358,1,55,2|2,1:0|0:0,0:0:0:0:
465,370,98342,2,0,P|481:342|489:299,1,55,8|2,0:1|0:0,0:0:0:0:
500,266,98675,2,0,P|488:212|480:158,1,110,2|10,1:0|0:1,0:0:0:0:
474,107,99175,1,2,0:1:0:0:
474,107,99342,70,0,L|347:97,1,110,6|8,1:0|0:1,0:0:0:0:
271,39,100009,1,0,1:0:0:0:
194,117,100342,2,0,L|124:96,1,55,10|2,0:1|0:1,0:0:0:0:
107,58,100675,2,0,P|52:68|-6:86,1,110,2|8,1:0|0:1,0:0:0:0:
0,194,101342,1,2,1:0:0:0:
68,279,101675,1,10,0:1:0:0:
178,281,102009,6,0,P|230:264|281:243,1,110,2|8,1:0|0:1,0:0:0:0:
313,198,102509,1,2,0:1:0:0:
375,107,102842,1,2,0:0:0:0:
484,140,103175,1,2,0:1:0:0:
484,140,103342,2,0,B|497:192|497:192|502:267,1,110,2|8,1:0|0:1,0:0:0:0:
443,342,104009,2,0,B|387:355|387:355|335:359,1,110,2|10,1:0|0:1,0:0:0:0:
236,310,104675,6,0,B|219:202,1,110,2|8,1:0|0:1,0:0:0:0:
173,170,105175,2,0,P|113:174|54:193,1,110,2|0,0:1|0:0,0:0:0:0:
53,241,105675,1,10,0:1:0:0:
128,328,106009,2,0,P|183:325|236:310,1,110,2|10,1:0|0:1,0:0:0:0:
303,223,106675,1,2,1:2:0:0:
390,290,107009,2,0,L|455:299,1,55,8|2,0:1|0:1,0:0:0:0:
480,256,107342,6,0,P|493:202|502:148,1,110,2|8,1:0|0:1,0:0:0:0:
472,108,107842,1,2,0:0:0:0:
472,108,108009,2,0,P|464:76|459:43,2,55,2|2|8,1:2|0:0|0:1,0:0:0:0:
372,153,108675,2,0,L|380:226,1,55,6|2,1:0|1:0,0:0:0:0:
331,237,109009,2,0,L|320:305,1,55,2|2,1:0|1:0,0:0:0:0:
276,322,109342,1,2,1:0:0:0:
167,306,109675,1,10,1:0:0:0:
73,246,110009,5,6,1:0:0:0:
256,192,110175,12,2,115342,0:0:0:0:
