osu file format v14

[General]
AudioFilename: audio.ogg
AudioLeadIn: 0
PreviewTime: 65925
Countdown: 0
SampleSet: Soft
StackLeniency: 0.7
Mode: 0
LetterboxInBreaks: 0
EpilepsyWarning: 1
WidescreenStoryboard: 1

[Editor]
DistanceSpacing: 0.7
BeatDivisor: 4
GridSize: 8
TimelineZoom: 2

[Metadata]
Title:Crystal World ~Fracture~
TitleUnicode:水晶世界 ~Fracture~
Artist:Mio Akiyama
ArtistUnicode:秋山 澪
Creator:ent
Version:Fsjallink's Another
Source:THE BMS OF FIGHTERS 2010 - The Evolution of War -
Tags:けいおん!! k-on!! keion!! No.44 wa. wa remixed remix by celas bms bof2010 Suishou Sekai Hard NRG deadblue238 琴吹 紬 Tsumugi Kotobuki electronic instrumental pewdekz vitas2222 renumi hewwo ralsei fsjallink fanzhen0019
BeatmapID:3925775
BeatmapSetID:1851073

[Difficulty]
HPDrainRate:5
CircleSize:4
OverallDifficulty:8
ApproachRate:9
SliderMultiplier:1.6
SliderTickRate:1

[Events]
//Background and Video events
0,0,"jonatan-pie-VlH2eHyE_50-unsplash.jpg",0,0
Video,300,"Crystal World Fracture noaudio 360.mp4"
//Break Periods
2,44875,49409
2,50209,53409
//Storyboard Layer 0 (Background)
//Storyboard Layer 1 (Fail)
//Storyboard Layer 2 (Pass)
//Storyboard Layer 3 (Foreground)
//Storyboard Layer 4 (Overlay)
//Storyboard Sound Samples

[TimingPoints]
676,333.333333333333,4,2,0,30,1,0
2009,-100,4,2,0,40,0,0
9342,-100,4,2,0,40,0,0
10675,-100,4,2,0,40,0,0
11342,-100,4,2,0,45,0,1
12675,-100,4,2,0,50,0,0
20009,-100,4,2,0,50,0,0
21342,-100,4,2,0,50,0,0
22009,-100,4,2,0,55,0,1
23342,-100,4,2,0,60,0,0
26175,-100,4,2,0,5,0,0
26259,-100,4,2,0,60,0,0
38175,-100,4,2,0,5,0,0
38342,-100,4,2,0,60,0,0
38508,-100,4,2,0,5,0,0
38675,-100,4,2,0,60,0,0
38841,-100,4,2,0,5,0,0
39009,-100,4,2,0,60,0,0
42675,-100,4,2,0,60,0,0
43342,-100,4,2,0,60,0,1
44675,-100,4,2,0,50,0,0
53342,-100,4,2,0,50,0,0
55342,-100,4,2,0,60,0,1
55508,-100,4,2,0,5,0,1
55675,-100,4,2,0,60,0,1
63925,-100,4,2,0,60,0,1
64009,-100,4,2,0,60,0,1
65925,-100,4,2,0,66,0,0
66009,-100,4,2,0,70,0,1
67342,-100,4,2,0,70,0,0
69342,-83.3333333333333,4,2,0,70,0,1
70009,-100,4,2,0,70,0,0
74675,-100,4,2,0,70,0,0
76675,-83.3333333333333,4,2,0,75,0,1
84009,-83.3333333333333,4,2,0,75,0,1
86009,-76.9230769230769,4,2,0,80,0,1
86675,-76.9230769230769,4,2,0,80,0,1
87342,-100,4,2,0,80,0,0
88675,-83.3333333333333,4,2,0,90,0,1
106675,-83.3333333333333,4,2,0,90,0,1
108092,-83.3333333333333,4,2,0,90,0,1
108675,-76.9230769230769,4,2,0,95,0,1
109675,-76.9230769230769,4,2,0,100,0,1
110009,-100,4,2,0,100,0,0

[Colours]
Combo1 : 255,255,0
Combo2 : 58,75,231
Combo3 : 102,155,255
Combo4 : 255,199,51
Combo5 : 255,219,125
Combo6 : 230,230,230
Combo7 : 0,255,255
Combo8 : 255,128,255

[HitObjects]
256,192,676,12,4,2009,1:0:0:0:
138,301,2342,6,0,L|31:315,1,80,8|2,0:1|0:0,0:0:0:0:
380,301,2842,2,0,L|487:315,2,80,2|8|2,0:0|0:1|0:0,0:0:0:0:
132,212,3509,2,0,L|25:226,2,80,2|8|2,0:0|0:1|0:0,0:0:0:0:
391,218,4175,2,0,L|498:232,2,80,2|8|2,0:0|0:1|0:0,0:0:0:0:
125,123,4842,6,0,L|18:137,2,80,2|8|2,0:0|0:1|0:0,0:0:0:0:
402,125,5509,2,0,L|509:139,2,80,2|8|2,0:0|0:1|0:0,0:0:0:0:
117,38,6175,2,0,L|10:52,2,80,2|8|2,0:0|0:1|0:0,0:0:0:0:
408,42,6842,2,0,L|515:56,2,80,2|8|2,0:0|0:1|0:0,0:0:0:0:
342,324,7509,102,0,L|355:227,1,80,2|8,0:0|0:1,0:0:0:0:
366,142,7842,1,2,0:0:0:0:
487,52,8175,2,0,L|474:149,1,80,2|8,0:0|0:1,0:0:0:0:
463,234,8509,1,2,0:0:0:0:
231,334,8842,2,0,L|244:237,1,80,2|8,0:0|0:1,0:0:0:0:
255,152,9175,1,2,0:0:0:0:
376,62,9509,2,0,L|363:159,1,80,2|8,0:0|0:1,0:0:0:0:
352,244,9842,1,2,0:0:0:0:
120,344,10175,6,0,L|133:247,1,80,2|8,0:0|0:1,0:0:0:0:
144,162,10509,1,2,0:0:0:0:
265,72,10842,2,0,L|252:169,1,80,2|8,0:0|0:1,0:0:0:0:
241,254,11175,1,2,0:0:0:0:
9,354,11509,2,0,L|22:257,1,80,2|8,0:2|0:1,0:0:0:0:
33,172,11842,1,2,0:0:0:0:
154,82,12175,2,0,L|141:179,1,80,2|8,0:2|0:1,0:0:0:0:
130,264,12509,1,0,1:1:0:0:
253,23,12675,102,0,P|314:30|360:45,1,80,6|2,1:0|0:0,0:0:0:0:
472,71,13009,1,8,0:1:0:0:
332,35,13175,1,2,0:0:0:0:
174,78,13509,1,2,0:0:0:0:
32,104,13675,1,8,0:1:0:0:
174,78,13842,1,2,0:0:0:0:
340,135,14175,5,2,0:0:0:0:
482,161,14342,1,8,0:1:0:0:
340,135,14509,1,2,0:0:0:0:
181,172,14842,1,2,0:0:0:0:
39,198,15009,1,8,0:1:0:0:
181,172,15175,1,2,0:0:0:0:
340,234,15509,101,2,0:0:0:0:
482,260,15675,1,8,0:1:0:0:
340,234,15842,1,2,0:0:0:0:
185,270,16175,1,2,0:0:0:0:
43,296,16342,1,8,0:1:0:0:
185,270,16509,1,2,0:0:0:0:
337,323,16842,5,2,0:0:0:0:
479,349,17009,1,8,0:1:0:0:
337,323,17175,1,2,0:0:0:0:
192,356,17509,1,2,0:0:0:0:
50,382,17675,1,8,0:1:0:0:
192,356,17842,1,2,0:0:0:0:
62,258,18009,102,0,P|50:198|48:142,1,80,4|2,0:1|0:0,0:0:0:0:
51,151,18259,1,0,0:0:0:0:
75,110,18342,2,0,P|71:40|63:0,1,80,8|2,0:1|0:0,0:0:0:0:
157,177,18842,1,2,0:0:0:0:
157,177,18925,1,0,0:0:0:0:
157,177,19009,2,0,P|235:167|268:168,1,80,8|2,0:1|0:0,0:0:0:0:
437,244,19509,5,2,0:0:0:0:
437,244,19592,1,0,0:0:0:0:
437,244,19675,2,0,P|359:234|326:235,1,80,8|2,0:1|0:0,0:0:0:0:
246,346,20175,1,2,0:0:0:0:
246,346,20259,1,0,0:0:0:0:
246,346,20342,2,0,P|256:268|255:235,1,80,8|2,0:1|0:0,0:0:0:0:
236,167,20675,102,0,P|176:170|127:177,1,80,6|2,1:1|0:0,0:0:0:0:
129,178,20925,1,0,0:0:0:0:
129,178,21009,1,8,0:1:0:0:
43,102,21175,1,2,0:0:0:0:
123,30,21342,1,0,0:0:0:0:
203,91,21509,1,2,0:0:0:0:
288,163,21675,1,8,0:1:0:0:
365,87,21842,1,2,0:0:0:0:
281,19,22009,5,2,1:0:0:0:
208,296,22342,1,2,1:0:0:0:
475,200,22675,1,0,1:0:0:0:
217,135,22925,1,0,1:0:0:0:
217,135,23009,1,0,1:0:0:0:
352,226,23175,1,0,0:0:0:0:
208,296,23342,102,0,P|137:285|100:274,1,80,6|2,1:0|0:1,0:0:0:0:
22,152,23675,2,0,P|93:163|130:174,1,80,10|2,0:1|0:1,0:0:0:0:
305,206,24009,2,0,P|376:195|413:184,1,80,0|2,1:0|0:0,0:0:0:0:
477,61,24342,2,0,P|406:72|369:83,1,80,8|2,0:1|0:0,0:0:0:0:
270,101,24675,5,2,1:0:0:0:
270,101,24842,1,2,0:0:0:0:
175,38,25009,2,0,P|164:89|168:139,1,80,10|2,0:1|0:0,0:0:0:0:
137,246,25342,1,0,1:0:0:0:
137,246,25509,1,2,0:0:0:0:
232,183,25675,2,0,P|243:234|239:284,1,80,8|2,0:1|0:0,0:0:0:0:
340,358,26009,102,0,L|332:262,1,80,2|0,1:0|0:0,0:0:0:0:
333,278,26259,1,0,0:0:0:0:
333,278,26342,1,10,0:1:0:0:
446,270,26509,1,0,0:0:0:0:
386,193,26675,2,0,L|394:97,1,80,2|2,1:1|0:0,0:0:0:0:
392,113,26925,1,0,0:0:0:0:
392,113,27009,1,8,0:1:0:0:
281,103,27175,1,2,0:0:0:0:
222,206,27342,5,2,1:0:0:0:
93,183,27509,1,2,0:0:0:0:
164,79,27675,1,14,0:1:0:0:
281,103,27842,1,2,0:0:0:0:
233,232,28009,1,6,1:0:0:0:
71,194,28175,1,2,0:0:0:0:
155,55,28342,1,14,0:1:0:0:
296,98,28509,1,2,0:0:0:0:
240,250,28675,102,0,P|236:304|240:348,1,80,2|2,1:0|0:1,0:0:0:0:
401,228,29009,2,0,P|405:174|401:130,1,80,8|2,0:1|0:0,0:0:0:0:
326,203,29342,2,0,P|322:257|326:301,1,80,0|2,1:0|0:0,0:0:0:0:
486,187,29675,2,0,P|490:133|486:89,1,80,8|2,0:1|0:1,0:0:0:0:
386,25,30009,5,2,1:1:0:0:
305,103,30175,2,0,P|240:88|206:66,1,80,2|10,0:1|0:1,0:0:0:0:
66,151,30509,1,2,0:1:0:0:
147,231,30675,2,0,P|183:215|223:210,1,80,0|2,1:0|0:0,0:0:0:0:
395,218,31009,1,8,0:1:0:0:
221,211,31175,1,2,0:1:0:0:
302,352,31342,101,2,1:0:0:0:
395,218,31509,2,0,P|358:202|318:197,1,80,2|8,0:0|0:1,0:0:0:0:
138,176,31842,1,2,0:0:0:0:
315,196,32009,1,0,1:0:0:0:
247,45,32175,1,2,0:0:0:0:
138,176,32342,2,0,P|140:242|147:277,1,80,8|2,0:1|0:0,0:0:0:0:
365,316,32675,6,0,L|285:324,1,80,2|2,1:0|0:0,0:0:0:0:
58,184,33009,2,0,L|137:175,1,80,8|2,0:1|0:0,0:0:0:0:
366,18,33342,2,0,L|286:26,1,80,2|2,1:0|0:0,0:0:0:0:
137,174,33675,1,10,0:1:0:0:
286,25,33842,1,2,1:2:0:0:
359,222,34009,102,0,P|372:288|378:319,1,80,6|2,1:0|0:1,0:0:0:0:
152,252,34342,2,0,P|139:186|133:155,1,80,10|2,0:1|0:1,0:0:0:0:
250,205,34675,2,0,P|263:271|269:302,1,80,0|2,1:0|0:0,0:0:0:0:
48,238,35009,2,0,P|35:172|29:141,1,80,8|2,0:1|0:0,0:0:0:0:
94,18,35342,5,2,1:0:0:0:
119,152,35509,1,0,0:0:0:0:
119,152,35592,1,0,0:0:0:0:
119,152,35675,2,0,P|178:143|219:134,1,80,10|2,0:1|0:0,0:0:0:0:
379,144,36009,1,0,1:0:0:0:
354,278,36175,1,0,0:0:0:0:
354,278,36259,1,0,0:0:0:0:
354,278,36342,2,0,P|295:269|254:260,1,80,10|2,0:1|0:0,0:0:0:0:
210,127,36675,102,0,P|227:66|242:27,1,80,2|2,1:0|0:1,0:0:0:0:
450,81,37009,1,10,0:1:0:0:
310,33,37175,1,2,0:1:0:0:
450,81,37342,2,0,P|459:146|465:179,1,80,0|2,1:0|0:0,0:0:0:0:
301,256,37675,1,10,0:1:0:0:
422,233,37842,1,0,0:0:0:0:
301,256,38009,6,0,P|294:215|296:157,1,80,2|0,1:0|0:0,0:0:0:0:
163,16,38342,2,0,P|154:65|153:109,1,80,10|0,0:1|0:0,0:0:0:0:
40,286,38675,2,0,P|68:244|90:198,1,80,2|0,1:0|0:0,0:0:0:0:
73,54,39009,1,10,0:1:0:0:
188,181,39175,1,0,0:0:0:0:
258,48,39342,102,0,P|303:39|357:37,1,80,2|2,1:0|0:0,0:0:0:0:
470,153,39675,2,0,L|481:262,1,80,10|2,0:1|0:0,0:0:0:0:
327,325,40009,2,0,P|282:334|228:336,1,80,0|2,1:0|0:0,0:0:0:0:
110,238,40342,2,0,L|99:129,1,80,10|2,0:1|0:0,0:0:0:0:
258,48,40675,5,2,1:0:0:0:
195,180,40842,1,0,0:0:0:0:
81,76,41009,1,10,0:1:0:0:
169,11,41175,2,0,P|175:51|177:91,1,80,2|0,0:0|1:0,0:0:0:0:
62,258,41509,1,2,0:0:0:0:
119,154,41675,1,10,0:1:0:0:
216,218,41842,1,2,0:1:0:0:
264,108,42009,102,0,P|324:94|370:93,1,80,2|2,1:0|0:1,0:0:0:0:
362,250,42342,2,0,P|302:264|256:265,1,80,10|2,0:1|0:1,0:0:0:0:
143,132,42675,2,0,P|103:136|64:147,1,80,0|2,1:0|0:1,0:0:0:0:
84,304,43009,2,0,P|123:299|162:288,1,80,10|2,0:1|0:1,0:0:0:0:
310,178,43342,5,4,1:2:0:0:
287,303,43509,1,2,1:2:0:0:
419,328,43675,1,0,1:0:0:0:
441,203,43842,1,2,1:2:0:0:
310,178,44009,1,0,1:0:0:0:
282,183,44092,1,0,1:0:0:0:
256,195,44175,1,0,1:0:0:0:
233,211,44259,1,0,1:0:0:0:
213,231,44342,2,0,L|228:284,3,40,2|2|2|2,1:0|1:0|1:0|1:0,0:0:0:0:
170,141,44675,101,6,1:0:0:0:
256,192,50009,5,4,1:0:0:0:
256,192,54009,12,10,55175,0:1:0:0:
440,250,55342,102,0,L|460:172,1,80,6|0,1:0|0:0,0:0:0:0:
357,172,55675,2,0,L|335:94,1,80,8|2,3:1|3:2,0:0:0:0:
249,163,56009,2,0,L|192:106,1,80,0|2,1:0|3:2,0:0:0:0:
159,205,56342,2,0,L|80:185,1,80,8|2,3:1|3:2,0:0:0:0:
289,246,56675,5,0,1:0:0:0:
147,312,56842,1,2,3:2:0:0:
270,339,57009,2,0,P|332:329|374:318,1,80,8|2,3:1|3:2,0:0:0:0:
454,136,57342,1,0,1:0:0:0:
305,242,57509,1,2,3:2:0:0:
482,263,57675,1,10,3:1:0:0:
346,132,57842,1,2,3:1:0:0:
212,275,58009,102,0,P|195:214|197:170,1,80,6|2,1:0|3:2,0:0:0:0:
120,49,58342,2,0,P|103:110|105:154,1,80,8|2,3:1|3:2,0:0:0:0:
74,275,58675,1,0,1:0:0:0:
61,238,58842,1,2,3:2:0:0:
208,189,59009,1,8,3:1:0:0:
209,153,59175,1,2,3:2:0:0:
372,234,59342,6,0,P|394:177|412:142,1,80,0|2,1:0|3:2,0:0:0:0:
402,160,59592,1,0,3:0:0:0:
402,160,59675,2,0,P|451:180|485:187,1,80,8|2,3:1|3:2,0:0:0:0:
393,26,60009,1,2,1:0:0:0:
294,199,60175,1,2,3:1:0:0:
272,43,60342,1,10,3:1:0:0:
333,108,60509,1,2,3:1:0:0:
207,165,60675,102,0,P|211:224|226:270,1,80,6|2,1:0|3:2,0:0:0:0:
51,61,61009,2,0,P|16:108|-1:153,1,80,8|2,3:1|3:2,0:0:0:0:
92,223,61342,2,0,P|99:183|114:146,1,80,0|2,1:0|3:2,0:0:0:0:
310,139,61675,2,0,P|334:189|347:239,1,80,8|2,3:1|3:2,0:0:0:0:
341,212,61925,1,0,3:0:0:0:
341,212,62009,5,0,1:0:0:0:
461,333,62175,1,2,3:2:0:0:
349,317,62342,1,8,3:1:0:0:
458,222,62509,2,0,P|468:177|483:132,1,80,2|0,3:2|1:0,0:0:0:0:
370,24,62842,1,2,3:2:0:0:
389,145,63009,1,10,3:1:0:0:
289,88,63175,1,2,3:1:0:0:
314,220,63342,102,0,P|264:242|215:247,1,80,6|2,1:0|3:2,0:0:0:0:
142,360,63675,2,0,P|121:307|115:258,1,80,8|2,3:1|3:2,0:0:0:0:
17,154,64009,2,0,P|73:174|114:192,1,80,0|2,1:0|3:2,0:0:0:0:
241,159,64342,2,0,P|230:107|229:67,1,80,8|2,3:1|1:2,0:0:0:0:
299,14,64675,6,0,L|362:20,3,40,4|0|2|0,1:0|3:0|3:2|3:0,0:0:0:0:
194,79,65009,2,0,L|131:85,3,40,4|0|2|0,1:1|3:0|3:2|3:0,0:0:0:0:
273,163,65342,1,6,1:1:0:0:
284,162,65425,1,0,3:0:0:0:
296,161,65509,1,2,3:2:0:0:
307,160,65592,1,0,3:0:0:0:
318,159,65675,1,6,1:0:0:0:
330,159,65759,1,0,3:0:0:0:
341,159,65842,1,2,3:2:0:0:
352,160,65925,1,0,3:0:0:0:
361,161,66009,5,6,1:0:0:0:
319,251,66175,1,2,0:0:0:0:
456,207,66342,2,0,P|451:139|456:106,1,80,10|2,0:1|0:0,0:0:0:0:
264,20,66675,2,0,P|267:67|261:114,1,80,2|2,1:0|0:0,0:0:0:0:
118,205,67009,1,8,0:1:0:0:
261,117,67175,1,2,0:0:0:0:
123,17,67342,6,0,P|56:53|25:152,1,160,2|10,1:0|0:1,0:0:0:0:
181,78,67842,1,2,0:1:0:0:
186,255,68009,1,0,1:0:0:0:
275,155,68175,2,0,P|337:145|372:142,1,80,2|8,0:0|0:1,0:0:0:0:
494,224,68509,1,2,0:0:0:0:
347,230,68675,102,0,P|350:299|360:343,1,80,2|2,1:0|0:0,0:0:0:0:
157,309,69009,2,0,P|165:261|164:221,1,80,10|2,0:1|0:0,0:0:0:0:
91,168,69342,1,0,1:0:0:0:
266,113,69453,5,2,0:1:0:0:
266,113,69509,102,0,P|260:172|260:227,1,95.9999970703126,2|8,0:1|0:1,0:0:0:0:
248,352,69842,1,2,0:1:0:0:
181,131,70009,2,0,P|143:83|29:85,2,160,2|10|2,1:0|0:1|1:0,0:0:0:0:
72,205,70842,1,2,0:0:0:0:
238,230,71009,1,10,0:1:0:0:
130,296,71175,1,2,0:0:0:0:
256,218,71342,6,0,P|339:237|365:250,1,80,2|2,1:0|0:0,0:0:0:0:
401,148,71675,1,10,0:1:0:0:
436,157,71842,1,2,0:0:0:0:
369,37,72009,1,2,1:0:0:0:
401,29,72175,1,2,0:0:0:0:
321,149,72342,1,8,0:1:0:0:
356,143,72509,1,2,0:0:0:0:
224,34,72675,102,0,P|242:92|238:140,1,80,2|2,1:0|0:1,0:0:0:0:
94,277,73009,1,10,0:1:0:0:
102,250,73175,1,2,0:1:0:0:
229,262,73342,1,2,1:0:0:0:
222,233,73509,1,2,0:0:0:0:
347,202,73675,1,8,0:1:0:0:
332,178,73842,1,2,0:0:0:0:
400,48,74009,6,0,P|436:114|506:188,2,160,2|10|2,1:0|0:1|1:0,0:0:0:0:
263,20,74842,1,2,0:0:0:0:
263,20,74925,1,0,0:0:0:0:
263,20,75009,2,0,P|290:68|302:122,1,80,10|2,0:1|0:0,0:0:0:0:
69,195,75342,102,0,P|79:148|99:109,1,80,2|2,1:0|0:0,0:0:0:0:
225,160,75675,2,0,P|214:206|191:250,1,80,10|2,0:1|0:0,0:0:0:0:
297,91,76009,1,2,1:0:0:0:
328,239,76175,1,2,0:0:0:0:
410,58,76342,1,14,0:1:0:0:
451,217,76509,1,2,1:2:0:0:
367,161,76675,6,0,L|348:259,1,95.9999970703126,6|2,1:0|0:0,0:0:0:0:
207,307,77009,2,0,L|226:209,1,95.9999970703126,10|2,0:1|0:0,0:0:0:0:
122,112,77342,2,0,L|103:210,1,95.9999970703126,2|2,1:1|0:0,0:0:0:0:
103,206,77592,1,0,0:0:0:0:
103,206,77675,1,8,0:1:0:0:
23,120,77842,1,2,0:0:0:0:
172,16,78009,102,0,P|231:21|294:44,1,95.9999970703126,2|2,1:0|0:1,0:0:0:0:
366,179,78342,1,10,0:1:0:0:
255,120,78509,1,2,0:1:0:0:
401,34,78675,1,0,1:0:0:0:
480,135,78842,2,0,P|490:194|445:319,1,191.999994140625,2|2,0:0|0:0,0:0:0:0:
253,322,79342,6,0,P|308:291|366:298,1,95.9999970703126,2|2,1:0|0:0,0:0:0:0:
189,218,79675,2,0,P|134:187|76:194,1,95.9999970703126,14|2,0:1|0:0,0:0:0:0:
102,186,79925,1,0,0:0:0:0:
102,186,80009,1,2,1:0:0:0:
202,112,80175,1,2,0:1:0:0:
36,86,80342,1,10,0:1:0:0:
10,262,80509,1,2,0:1:0:0:
174,280,80675,102,0,P|240:268|279:246,1,95.9999970703126,2|2,1:0|0:0,0:0:0:0:
353,79,81009,2,0,P|330:142|329:186,1,95.9999970703126,8|2,0:1|0:0,0:0:0:0:
443,328,81342,2,0,P|399:276|361:254,1,95.9999970703126,2|2,1:0|0:0,0:0:0:0:
227,177,81675,1,10,0:1:0:0:
81,187,81842,1,2,0:0:0:0:
227,177,82009,6,0,P|221:111|211:61,1,95.9999970703126,2|2,1:0|0:0,0:0:0:0:
306,235,82342,2,0,P|329:173|342:123,1,95.9999970703126,10|2,0:1|0:0,0:0:0:0:
344,321,82675,2,0,P|393:277|428:239,1,95.9999970703126,2|2,1:0|0:0,0:0:0:0:
414,255,82925,1,0,0:0:0:0:
414,255,83009,1,8,0:1:0:0:
305,345,83175,1,2,0:0:0:0:
219,244,83342,102,0,P|190:288|172:359,1,95.9999970703126,2|2,1:0|0:1,0:0:0:0:
141,124,83675,2,0,P|136:176|153:247,1,95.9999970703126,10|2,0:1|0:1,0:0:0:0:
2,91,84009,2,0,P|24:138|76:190,1,95.9999970703126,0|2,1:0|0:0,0:0:0:0:
258,172,84342,1,8,0:1:0:0:
90,303,84509,1,2,0:0:0:0:
90,303,84592,1,0,0:0:0:0:
90,303,84675,6,0,L|213:294,1,95.9999970703126,2|2,1:0|1:2,0:0:0:0:
455,186,85009,2,0,L|332:177,1,95.9999970703126,2|2,1:1|1:2,0:0:0:0:
82,72,85342,2,0,L|205:63,1,95.9999970703126,0|2,1:0|1:0,0:0:0:0:
356,154,85675,1,2,1:0:0:0:
192,270,85842,1,2,1:0:0:0:
333,248,86009,102,0,L|395:238,3,51.999997619629,6|0|0|4,1:0|1:0|1:0|1:0,0:0:0:0:
214,181,86342,2,0,L|152:191,3,51.999997619629,0|0|4|0,1:0|1:0|1:0|1:0,0:0:0:0:
284,93,86675,1,2,1:0:0:0:
303,76,86759,1,4,1:0:0:0:
325,62,86842,1,4,1:0:0:0:
348,50,86925,1,0,1:0:0:0:
373,41,87009,1,6,1:0:0:0:
398,35,87092,1,0,1:0:0:0:
424,31,87175,1,2,1:0:0:0:
450,31,87259,1,0,1:0:0:0:
476,34,87342,1,14,1:0:0:0:
256,192,87425,12,2,88509,1:0:0:0:
97,107,88675,22,0,L|148:114,3,47.9999985351563,6|0|2|0,1:0|0:0|0:0|0:0,0:0:0:0:
190,199,89009,2,0,L|237:192,3,47.9999985351563,8|0|2|0,0:1|0:0|0:0|0:0,0:0:0:0:
273,116,89342,1,2,1:0:0:0:
296,113,89425,1,0,0:0:0:0:
319,108,89509,1,2,0:0:0:0:
342,105,89592,1,2,0:0:0:0:
365,102,89675,2,0,L|352:33,3,47.9999985351563,8|0|2|0,0:1|0:0|0:0|0:0,0:0:0:0:
441,159,90009,6,0,L|429:272,1,95.9999970703126,0|2,1:0|0:0,0:0:0:0:
312,347,90342,2,0,L|301:251,1,95.9999970703126,10|2,0:1|0:1,0:0:0:0:
273,116,90675,2,0,L|177:126,1,95.9999970703126,2|2,1:0|0:0,0:0:0:0:
177,126,90925,1,2,0:1:0:0:
177,126,91009,1,10,0:1:0:0:
50,247,91175,1,2,0:0:0:0:
212,310,91342,6,0,L|217:382,3,47.9999985351563,0|0|2|0,1:0|0:0|0:0|0:0,0:0:0:0:
308,228,91675,2,0,L|303:300,3,47.9999985351563,8|0|2|0,0:1|0:0|0:1|0:0,0:0:0:0:
196,165,92009,2,0,L|201:237,3,47.9999985351563,0|0|2|2,1:0|0:0|0:0|0:0,0:0:0:0:
296,90,92342,1,8,0:1:0:0:
327,78,92425,1,2,0:0:0:0:
360,78,92509,1,2,0:1:0:0:
392,85,92592,1,0,0:0:0:0:
419,104,92675,6,0,L|541:88,1,95.9999970703126,2|2,1:0|0:0,0:0:0:0:
278,173,93009,2,0,L|373:185,1,95.9999970703126,8|2,0:1|0:0,0:0:0:0:
397,208,93259,1,0,0:0:0:0:
421,231,93342,2,0,P|413:293|423:358,1,95.9999970703126,2|2,1:0|0:0,0:0:0:0:
247,297,93675,2,0,P|255:235|245:170,1,95.9999970703126,10|2,0:1|0:1,0:0:0:0:
162,94,94009,69,2,1:0:0:0:
143,97,94092,1,0,0:0:0:0:
124,100,94175,1,2,0:0:0:0:
104,103,94259,1,2,0:0:0:0:
85,107,94342,2,0,L|95:39,3,47.9999985351563,8|0|2|0,0:1|0:0|0:1|0:0,0:0:0:0:
53,191,94675,2,0,L|-10:216,3,47.9999985351563,0|0|2|0,1:0|0:0|0:1|0:0,0:0:0:0:
135,178,95009,2,0,L|188:220,3,47.9999985351563,8|2|2|2,0:1|0:0|0:0|0:0,0:0:0:0:
103,262,95342,6,0,L|4:305,1,95.9999970703126,2|2,1:0|0:0,0:0:0:0:
265,270,95675,2,0,L|364:313,1,95.9999970703126,10|2,0:1|0:0,0:0:0:0:
197,134,96009,2,0,L|208:8,1,95.9999970703126,2|2,1:0|0:1,0:0:0:0:
304,172,96342,1,10,0:1:0:0:
312,14,96509,1,2,0:1:0:0:
408,85,96675,6,0,L|458:75,3,47.9999985351563,2|2|2|2,1:0|0:0|0:0|0:0,0:0:0:0:
487,159,97009,2,0,L|497:209,3,47.9999985351563,10|2|2|2,0:1|0:0|0:0|0:0,0:0:0:0:
413,236,97342,2,0,L|363:246,3,47.9999985351563,0|0|0|0,1:0|0:0|0:0|0:0,0:0:0:0:
335,160,97675,2,0,L|325:110,3,47.9999985351563,10|2|2|2,0:1|0:0|0:0|0:0,0:0:0:0:
279,233,98009,5,2,1:0:0:0:
250,207,98092,1,0,0:0:0:0:
214,192,98175,1,2,0:0:0:0:
175,190,98259,1,0,0:0:0:0:
137,198,98342,2,0,L|69:219,3,47.9999985351563,8|0|2|0,0:1|0:0|0:0|0:0,0:0:0:0:
187,294,98675,2,0,P|241:331|306:330,1,95.9999970703126,2|2,1:0|0:1,0:0:0:0:
400,226,99009,1,10,0:1:0:0:
359,360,99175,1,2,0:1:0:0:
306,229,99342,69,6,1:0:0:0:
301,195,99425,1,0,0:0:0:0:
304,161,99509,1,2,0:0:0:0:
312,128,99592,1,0,0:0:0:0:
324,97,99675,2,0,L|316:35,3,47.9999985351563,8|0|2|0,0:1|0:0|0:1|0:0,0:0:0:0:
391,179,100009,1,0,1:0:0:0:
410,177,100092,1,0,0:0:0:0:
429,174,100175,1,2,0:0:0:0:
448,171,100259,1,0,0:0:0:0:
466,168,100342,2,0,L|455:90,3,47.9999985351563,10|0|2|0,0:1|0:0|0:1|0:0,0:0:0:0:
479,263,100675,6,0,L|362:278,1,95.9999970703126,2|2,1:0|0:0,0:0:0:0:
253,174,101009,2,0,L|370:159,1,95.9999970703126,8|2,0:1|0:0,0:0:0:0:
225,96,101342,1,2,1:0:0:0:
205,249,101509,1,2,0:0:0:0:
108,82,101675,1,10,0:1:0:0:
80,231,101842,1,2,0:0:0:0:
253,174,102009,6,0,L|316:167,3,47.9999985351563,2|0|2|0,1:0|0:0|0:0|0:0,0:0:0:0:
278,280,102342,2,0,L|285:343,3,47.9999985351563,8|0|2|2,0:1|0:0|0:1|0:0,0:0:0:0:
174,316,102675,2,0,L|111:323,3,47.9999985351563,0|2|2|2,1:0|0:0|0:0|0:0,0:0:0:0:
150,208,103009,1,8,0:1:0:0:
152,179,103092,1,2,0:0:0:0:
151,150,103175,1,2,0:1:0:0:
143,121,103259,1,2,0:0:0:0:
131,94,103342,6,0,L|123:-12,1,95.9999970703126,2|2,1:0|0:0,0:0:0:0:
57,164,103675,1,8,0:1:0:0:
246,139,103842,1,2,0:0:0:0:
200,308,104009,2,0,P|135:281|71:274,1,95.9999970703126,2|2,1:0|0:0,0:0:0:0:
221,91,104342,2,0,P|286:118|350:125,1,95.9999970703126,10|2,0:1|0:0,0:0:0:0:
479,107,104675,70,0,L|484:46,3,47.9999985351563,2|0|2|2,1:0|0:0|0:0|0:0,0:0:0:0:
408,186,105009,2,0,L|403:247,3,47.9999985351563,8|0|2|0,0:1|0:0|0:1|0:0,0:0:0:0:
347,91,105342,2,0,L|352:30,3,47.9999985351563,2|0|0|0,1:0|0:0|0:0|0:0,0:0:0:0:
252,157,105675,1,10,0:1:0:0:
209,149,105759,1,2,0:0:0:0:
167,159,105842,1,2,0:0:0:0:
132,184,105925,1,2,0:0:0:0:
111,222,106009,6,0,L|129:343,1,95.9999970703126,2|2,1:0|0:0,0:0:0:0:
328,361,106342,2,0,L|310:240,1,95.9999970703126,10|2,0:1|0:0,0:0:0:0:
174,125,106675,2,0,L|192:246,1,95.9999970703126,2|2,1:2|0:0,0:0:0:0:
391,264,107009,2,0,L|373:143,1,95.9999970703126,8|2,0:1|0:1,0:0:0:0:
426,69,107342,6,0,L|479:61,3,47.9999985351563,2|0|2|0,1:0|0:0|0:0|0:0,0:0:0:0:
320,74,107675,2,0,L|312:21,3,47.9999985351563,8|0|2|0,0:1|0:0|0:0|0:0,0:0:0:0:
275,168,108009,2,0,L|283:221,3,47.9999985351563,2|2|2|2,1:2|0:0|0:0|0:0,0:0:0:0:
202,102,108342,1,8,0:1:0:0:
172,71,108425,1,2,0:0:0:0:
131,54,108509,1,2,0:0:0:0:
88,46,108592,1,2,0:0:0:0:
38,56,108675,6,0,P|35:117|46:172,1,103.999995239258,6|2,1:0|1:0,0:0:0:0:
214,237,109009,1,2,1:0:0:0:
68,299,109175,1,2,1:0:0:0:
202,102,109342,1,2,1:0:0:0:
227,101,109425,1,0,1:0:0:0:
253,106,109508,1,0,1:0:0:0:
277,116,109591,1,0,1:0:0:0:
298,131,109675,1,10,1:0:0:0:
317,149,109758,1,2,1:0:0:0:
331,171,109841,1,2,1:0:0:0:
341,195,109925,1,2,1:0:0:0:
345,220,110008,1,6,1:0:0:0:
