osu file format v14

[General]
AudioFilename: Minzu - Long wu.mp3
AudioLeadIn: 0
PreviewTime: 54441
Countdown: 1
SampleSet: Soft
StackLeniency: 0.7
Mode: 1
LetterboxInBreaks: 0
WidescreenStoryboard: 1

[Editor]
Bookmarks: 24886
DistanceSpacing: 0.8
BeatDivisor: 4
GridSize: 32
TimelineZoom: 1

[Metadata]
Title:Long Wu
TitleUnicode:龍舞
Artist:Minzu
ArtistUnicode:Minzu
Creator:Numbers 596108
Version:Ura Oni
Source:Dynamix
Tags:
BeatmapID:848656
BeatmapSetID:389121

[Difficulty]
HPDrainRate:7
CircleSize:5
OverallDifficulty:5
ApproachRate:5
SliderMultiplier:1.4
SliderTickRate:1

[Events]
//Background and Video events
0,0,"Sakamoto.Himemi.full.1683579.jpg",0,0
//Break Periods
//Storyboard Layer 0 (Background)
//Storyboard Layer 1 (Fail)
//Storyboard Layer 2 (Pass)
//Storyboard Layer 3 (Foreground)
//Storyboard Sound Samples

[TimingPoints]
1775,888.888888888889,4,2,0,100,1,0
8886,444.444444444444,4,2,0,100,1,0
37330,-50,4,2,0,100,0,0
39108,-200,4,2,0,100,0,0
46219,-100,4,2,0,100,0,0
51552,-50,4,2,0,100,0,0
53330,-100,4,2,0,100,0,0
55108,-83.3333333333333,4,2,0,100,0,1
69329,-100,4,2,0,100,0,0
83552,-90.9090909090909,4,2,0,100,0,1
97774,-100,4,2,0,100,0,0

[HitObjects]
320,224,1330,5,0,0:0:0:0:
320,224,1552,1,0,0:0:0:0:
256,320,1775,1,0,0:0:0:0:
256,192,2219,1,2,0:0:0:0:
224,128,2663,1,0,0:0:0:0:
224,128,3108,1,2,0:0:0:0:
224,128,3330,1,2,0:0:0:0:
224,160,3552,1,0,0:0:0:0:
224,64,3997,1,0,0:0:0:0:
256,192,4441,1,2,0:0:0:0:
224,160,4886,1,2,0:0:0:0:
224,160,5108,1,2,0:0:0:0:
224,160,5330,1,0,0:0:0:0:
256,192,7108,12,0,8886,0:0:0:0:
320,128,10219,5,2,0:0:0:0:
320,128,10330,1,2,0:0:0:0:
320,128,10441,1,2,0:0:0:0:
320,128,10552,1,2,0:0:0:0:
320,128,10663,1,0,0:0:0:0:
320,128,10997,1,0,0:0:0:0:
320,128,11108,1,0,0:0:0:0:
320,128,11330,1,2,0:0:0:0:
320,128,11441,1,2,0:0:0:0:
320,128,11552,1,0,0:0:0:0:
320,128,11774,1,0,0:0:0:0:
320,128,11997,1,2,0:0:0:0:
352,128,12330,1,0,0:0:0:0:
352,128,12441,1,2,0:0:0:0:
352,128,12663,1,2,0:0:0:0:
352,128,12885,1,0,0:0:0:0:
352,128,12997,1,0,0:0:0:0:
352,128,13108,1,2,0:0:0:0:
352,128,13330,1,0,0:0:0:0:
352,128,13997,1,2,0:0:0:0:
352,128,14108,1,2,0:0:0:0:
352,128,14219,1,0,0:0:0:0:
352,128,14552,1,0,0:0:0:0:
352,128,14663,1,2,0:0:0:0:
352,128,14885,1,0,0:0:0:0:
352,128,14997,1,0,0:0:0:0:
352,128,15108,1,0,0:0:0:0:
352,128,15441,1,0,0:0:0:0:
352,128,15552,1,2,0:0:0:0:
352,128,15774,1,0,0:0:0:0:
160,160,15997,1,2,0:0:0:0:
160,160,16441,1,2,0:0:0:0:
160,160,16663,1,0,0:0:0:0:
160,160,16774,1,0,0:0:0:0:
160,160,16885,1,2,0:0:0:0:
160,160,17108,1,2,0:0:0:0:
160,160,17330,1,0,0:0:0:0:
160,160,17552,1,2,0:0:0:0:
160,160,17774,1,0,0:0:0:0:
160,160,18108,1,0,0:0:0:0:
160,160,18219,1,0,0:0:0:0:
160,160,18441,1,2,0:0:0:0:
160,160,18552,1,2,0:0:0:0:
160,160,18663,1,0,0:0:0:0:
160,160,18885,1,0,0:0:0:0:
160,160,19108,1,2,0:0:0:0:
256,128,19330,1,0,0:0:0:0:
256,128,19552,1,2,0:0:0:0:
256,128,19774,1,0,0:0:0:0:
256,128,19885,1,0,0:0:0:0:
256,128,19997,1,0,0:0:0:0:
256,128,20219,1,2,0:0:0:0:
256,128,20441,1,0,0:0:0:0:
224,128,21108,1,0,0:0:0:0:
224,128,21219,1,0,0:0:0:0:
224,128,21330,1,2,0:0:0:0:
224,128,21663,1,0,0:0:0:0:
224,128,21774,1,0,0:0:0:0:
224,128,21997,1,0,0:0:0:0:
224,128,22108,1,0,0:0:0:0:
224,128,22219,1,2,0:0:0:0:
224,128,22552,1,0,0:0:0:0:
224,128,22663,1,0,0:0:0:0:
224,128,22885,1,0,0:0:0:0:
224,128,23108,1,2,0:0:0:0:
224,128,23219,1,0,0:0:0:0:
224,128,23330,1,0,0:0:0:0:
224,128,23441,1,0,0:0:0:0:
224,128,23552,1,2,0:0:0:0:
224,128,23663,1,0,0:0:0:0:
224,128,23774,1,0,0:0:0:0:
224,128,23885,1,0,0:0:0:0:
256,192,23997,12,0,24441,0:0:0:0:
256,160,24885,5,2,0:0:0:0:
256,160,25108,1,0,0:0:0:0:
256,160,25219,1,0,0:0:0:0:
256,160,25330,1,2,0:0:0:0:
320,96,25663,1,0,0:0:0:0:
320,96,25774,1,2,0:0:0:0:
320,96,25997,1,0,0:0:0:0:
320,96,26219,1,2,0:0:0:0:
320,96,26441,1,0,0:0:0:0:
320,128,26663,1,2,0:0:0:0:
320,128,26774,1,0,0:0:0:0:
320,128,26885,1,0,0:0:0:0:
320,128,27108,1,2,0:0:0:0:
320,128,27330,1,2,0:0:0:0:
320,128,27552,1,0,0:0:0:0:
320,96,27774,1,2,0:0:0:0:
320,96,27885,1,2,0:0:0:0:
320,96,27997,1,2,0:0:0:0:
320,96,28441,1,0,0:0:0:0:
320,96,28552,1,0,0:0:0:0:
320,96,28663,1,2,0:0:0:0:
320,96,28885,1,2,0:0:0:0:
320,96,29108,1,2,0:0:0:0:
320,96,29330,1,0,0:0:0:0:
320,96,29441,1,0,0:0:0:0:
320,96,29552,1,2,0:0:0:0:
320,96,29774,1,2,0:0:0:0:
320,96,29997,1,2,0:0:0:0:
320,96,30219,1,0,0:0:0:0:
320,96,30441,1,2,0:0:0:0:
320,96,30552,1,2,0:0:0:0:
320,96,30663,1,0,0:0:0:0:
320,96,30885,1,2,0:0:0:0:
224,160,31108,1,0,0:0:0:0:
224,160,31182,1,0,0:0:0:0:
224,160,31256,1,0,0:0:0:0:
224,128,31552,1,2,0:0:0:0:
224,128,31626,1,2,0:0:0:0:
224,128,31700,1,2,0:0:0:0:
288,160,31997,1,2,0:0:0:0:
352,224,32330,1,0,0:0:0:0:
352,224,32441,1,2,0:0:0:0:
352,192,32663,1,2,0:0:0:0:
288,160,32885,1,2,0:0:0:0:
288,160,32997,1,0,0:0:0:0:
288,160,33108,1,0,0:0:0:0:
288,160,33330,1,2,0:0:0:0:
288,160,33552,1,0,0:0:0:0:
416,32,33626,1,0,0:0:0:0:
416,32,33700,1,0,0:0:0:0:
448,32,33774,1,2,0:0:0:0:
352,96,33997,1,2,0:0:0:0:
352,96,34219,1,0,0:0:0:0:
352,128,34441,1,2,0:0:0:0:
352,128,34552,1,2,0:0:0:0:
352,128,34663,1,0,0:0:0:0:
288,192,34885,1,0,0:0:0:0:
288,192,35108,1,2,0:0:0:0:
96,192,35552,1,0,0:0:0:0:
96,192,35774,1,0,0:0:0:0:
96,192,35885,1,0,0:0:0:0:
96,192,35997,1,2,0:0:0:0:
96,192,36219,1,0,0:0:0:0:
128,128,36663,1,0,0:0:0:0:
128,128,36774,1,0,0:0:0:0:
128,128,36885,1,2,0:0:0:0:
128,128,37108,1,0,0:0:0:0:
320,128,37330,1,2,0:0:0:0:
320,128,37478,1,2,0:0:0:0:
320,128,37626,1,0,0:0:0:0:
320,128,37774,1,2,0:0:0:0:
320,128,37923,1,0,0:0:0:0:
320,128,38071,1,0,0:0:0:0:
320,128,38219,1,2,0:0:0:0:
320,128,38367,1,2,0:0:0:0:
320,128,38515,1,0,0:0:0:0:
320,128,38663,1,2,0:0:0:0:
320,128,38811,1,0,0:0:0:0:
320,128,38960,1,0,0:0:0:0:
320,128,39108,1,0,0:0:0:0:
192,96,39552,1,0,0:0:0:0:
192,96,39997,1,2,0:0:0:0:
192,96,40441,1,0,0:0:0:0:
192,96,40552,1,0,0:0:0:0:
192,96,40663,1,0,0:0:0:0:
288,128,40885,1,2,0:0:0:0:
288,128,41108,1,0,0:0:0:0:
288,128,41330,1,0,0:0:0:0:
288,128,41552,1,2,0:0:0:0:
288,128,41774,1,0,0:0:0:0:
288,128,41997,1,2,0:0:0:0:
288,128,42108,1,2,0:0:0:0:
288,128,42219,1,2,0:0:0:0:
288,128,42441,1,2,0:0:0:0:
288,128,42663,1,0,0:0:0:0:
224,96,43108,1,0,0:0:0:0:
224,96,43552,1,2,0:0:0:0:
224,96,43663,1,2,0:0:0:0:
224,96,43774,1,0,0:0:0:0:
224,96,43997,1,2,0:0:0:0:
224,96,44219,1,0,0:0:0:0:
288,96,44441,1,2,0:0:0:0:
288,96,44552,1,2,0:0:0:0:
288,96,44663,1,0,0:0:0:0:
288,96,44774,1,0,0:0:0:0:
288,96,44885,1,2,0:0:0:0:
288,96,44997,1,2,0:0:0:0:
288,96,45108,1,0,0:0:0:0:
288,96,45219,1,0,0:0:0:0:
288,96,45330,1,2,0:0:0:0:
288,96,45552,1,2,0:0:0:0:
288,96,45774,1,0,0:0:0:0:
288,96,45997,1,2,0:0:0:0:
192,256,46219,1,0,0:0:0:0:
256,160,46552,1,2,0:0:0:0:
256,160,46663,1,0,0:0:0:0:
256,160,46885,1,2,0:0:0:0:
256,160,47108,1,0,0:0:0:0:
256,160,47219,1,2,0:0:0:0:
256,160,47330,1,2,0:0:0:0:
256,160,47552,1,2,0:0:0:0:
256,160,47774,1,2,0:0:0:0:
256,160,47997,1,0,0:0:0:0:
256,160,48219,1,2,0:0:0:0:
256,160,48330,1,2,0:0:0:0:
256,160,48441,1,0,0:0:0:0:
256,160,48663,1,2,0:0:0:0:
256,160,48885,1,2,0:0:0:0:
256,160,49330,1,0,0:0:0:0:
256,160,49552,1,0,0:0:0:0:
256,160,49774,1,2,0:0:0:0:
288,128,50108,1,0,0:0:0:0:
288,128,50219,1,0,0:0:0:0:
288,128,50441,1,0,0:0:0:0:
288,128,50663,1,2,0:0:0:0:
288,128,50997,1,0,0:0:0:0:
288,128,51108,1,0,0:0:0:0:
288,128,51330,1,0,0:0:0:0:
256,160,51552,1,2,0:0:0:0:
256,160,51700,1,2,0:0:0:0:
256,160,51848,1,0,0:0:0:0:
256,160,51997,1,2,0:0:0:0:
256,160,52145,1,2,0:0:0:0:
256,160,52293,1,0,0:0:0:0:
256,160,52441,1,2,0:0:0:0:
256,160,52589,1,2,0:0:0:0:
256,160,52737,1,0,0:0:0:0:
256,160,52885,1,2,0:0:0:0:
256,160,53034,1,2,0:0:0:0:
192,128,53182,1,6,0:0:0:0:
192,160,54663,1,0,0:0:0:0:
192,160,54885,1,2,0:0:0:0:
160,192,55108,1,0,0:0:0:0:
288,160,55330,1,0,0:0:0:0:
160,192,55441,1,2,0:0:0:0:
160,192,55552,1,2,0:0:0:0:
192,32,55774,1,2,0:0:0:0:
224,160,55997,1,0,0:0:0:0:
224,160,56219,1,0,0:0:0:0:
224,160,56330,1,2,0:0:0:0:
224,128,56441,1,0,0:0:0:0:
256,192,56663,1,2,0:0:0:0:
320,128,56885,1,0,0:0:0:0:
320,128,57108,1,2,0:0:0:0:
224,128,57219,1,2,0:0:0:0:
320,128,57330,1,2,0:0:0:0:
320,128,57552,1,0,0:0:0:0:
320,128,57774,1,2,0:0:0:0:
288,160,58219,1,0,0:0:0:0:
288,160,58441,1,0,0:0:0:0:
288,160,58663,1,0,0:0:0:0:
288,160,58997,1,0,0:0:0:0:
288,160,59108,1,2,0:0:0:0:
224,128,59330,1,2,0:0:0:0:
224,128,59552,1,0,0:0:0:0:
224,128,59774,1,2,0:0:0:0:
224,128,59885,1,0,0:0:0:0:
224,128,59997,1,2,0:0:0:0:
224,128,60219,1,2,0:0:0:0:
224,96,60441,1,4,0:0:0:0:
192,160,60663,1,6,0:0:0:0:
224,128,60885,1,4,0:0:0:0:
224,128,61108,1,6,0:0:0:0:
224,128,61330,1,4,0:0:0:0:
352,224,61774,1,0,0:0:0:0:
352,224,61997,1,0,0:0:0:0:
352,224,62219,1,2,0:0:0:0:
352,224,62441,1,0,0:0:0:0:
352,224,62552,1,2,0:0:0:0:
352,224,62663,1,0,0:0:0:0:
352,224,62885,1,2,0:0:0:0:
288,160,63108,1,2,0:0:0:0:
288,160,63330,1,0,0:0:0:0:
288,160,63441,1,2,0:0:0:0:
288,160,63552,1,0,0:0:0:0:
288,160,63774,1,2,0:0:0:0:
224,160,63997,1,0,0:0:0:0:
224,160,64219,1,2,0:0:0:0:
224,160,64330,1,2,0:0:0:0:
224,160,64441,1,0,0:0:0:0:
224,160,64663,1,2,0:0:0:0:
224,160,64885,1,2,0:0:0:0:
224,192,65330,1,0,0:0:0:0:
224,192,65552,1,0,0:0:0:0:
224,192,65774,1,2,0:0:0:0:
224,192,65885,1,2,0:0:0:0:
224,192,65997,1,0,0:0:0:0:
224,192,66219,1,2,0:0:0:0:
224,192,66663,1,2,0:0:0:0:
224,192,66774,1,2,0:0:0:0:
224,192,66885,1,0,0:0:0:0:
224,192,67108,1,2,0:0:0:0:
288,192,67330,1,0,0:0:0:0:
256,192,67552,12,0,68885,0:0:0:0:
224,64,69330,5,0,0:0:0:0:
160,160,69552,1,0,0:0:0:0:
160,160,69663,1,0,0:0:0:0:
160,160,69774,1,2,0:0:0:0:
160,160,69997,1,2,0:0:0:0:
224,64,70219,1,0,0:0:0:0:
224,96,70552,1,2,0:0:0:0:
224,96,70663,1,2,0:0:0:0:
224,96,70885,1,2,0:0:0:0:
192,64,71108,1,0,0:0:0:0:
192,64,71330,1,2,0:0:0:0:
192,64,71441,1,2,0:0:0:0:
192,64,71552,1,0,0:0:0:0:
192,64,71774,1,2,0:0:0:0:
192,64,71997,1,2,0:0:0:0:
160,160,72441,1,0,0:0:0:0:
160,160,72552,1,0,0:0:0:0:
160,160,72663,1,0,0:0:0:0:
160,160,72774,1,0,0:0:0:0:
160,160,72885,1,2,0:0:0:0:
160,160,73219,1,2,0:0:0:0:
160,160,73330,1,0,0:0:0:0:
160,160,73552,1,2,0:0:0:0:
160,160,73774,1,2,0:0:0:0:
160,160,74108,1,2,0:0:0:0:
160,160,74219,1,0,0:0:0:0:
160,160,74441,1,2,0:0:0:0:
256,192,74663,12,0,75997,0:0:0:0:
160,128,76441,5,0,0:0:0:0:
160,128,76663,1,0,0:0:0:0:
192,128,76774,1,2,0:0:0:0:
160,128,76885,1,2,0:0:0:0:
160,128,77108,1,2,0:0:0:0:
192,128,77330,1,0,0:0:0:0:
192,128,77552,1,0,0:0:0:0:
192,128,77663,1,2,0:0:0:0:
192,128,77774,1,2,0:0:0:0:
192,128,77997,1,2,0:0:0:0:
192,128,78219,1,0,0:0:0:0:
192,128,78441,1,2,0:0:0:0:
192,128,78552,1,2,0:0:0:0:
192,128,78663,1,0,0:0:0:0:
192,128,78885,1,2,0:0:0:0:
192,128,79108,1,2,0:0:0:0:
224,160,79552,1,0,0:0:0:0:
224,160,79774,1,0,0:0:0:0:
224,160,79997,1,2,0:0:0:0:
224,160,80108,1,2,0:0:0:0:
224,160,80219,1,0,0:0:0:0:
224,160,80441,1,2,0:0:0:0:
224,96,80663,1,2,0:0:0:0:
224,96,80885,1,2,0:0:0:0:
224,96,80997,1,2,0:0:0:0:
224,96,81108,1,0,0:0:0:0:
224,96,81330,1,2,0:0:0:0:
224,96,81552,1,2,0:0:0:0:
256,160,81774,1,2,0:0:0:0:
256,160,81997,1,0,0:0:0:0:
256,160,82219,1,2,0:0:0:0:
256,160,82441,1,0,0:0:0:0:
256,160,82663,1,2,0:0:0:0:
256,160,82774,1,2,0:0:0:0:
256,160,82885,1,2,0:0:0:0:
256,160,82997,1,2,0:0:0:0:
256,160,83108,1,2,0:0:0:0:
256,160,83219,1,2,0:0:0:0:
256,160,83330,1,2,0:0:0:0:
256,160,83441,1,2,0:0:0:0:
256,160,83552,1,0,0:0:0:0:
256,128,83885,1,0,0:0:0:0:
256,128,83997,1,0,0:0:0:0:
256,128,84219,1,2,0:0:0:0:
256,128,84330,1,2,0:0:0:0:
256,128,84441,1,0,0:0:0:0:
256,128,84663,1,0,0:0:0:0:
256,128,84885,1,2,0:0:0:0:
256,128,85219,1,0,0:0:0:0:
256,128,85330,1,2,0:0:0:0:
256,128,85552,1,2,0:0:0:0:
256,128,85774,1,0,0:0:0:0:
256,128,85997,1,2,0:0:0:0:
256,128,86108,1,2,0:0:0:0:
256,128,86219,1,0,0:0:0:0:
256,128,86552,1,0,0:0:0:0:
256,128,86663,1,2,0:0:0:0:
256,128,86885,1,2,0:0:0:0:
256,128,87108,1,0,0:0:0:0:
256,128,87219,1,0,0:0:0:0:
256,128,87330,1,2,0:0:0:0:
256,128,87552,1,2,0:0:0:0:
256,128,87663,1,2,0:0:0:0:
256,128,87885,1,2,0:0:0:0:
256,128,87997,1,0,0:0:0:0:
256,128,88108,1,0,0:0:0:0:
256,128,88219,1,2,0:0:0:0:
256,128,88441,1,2,0:0:0:0:
256,128,88552,1,2,0:0:0:0:
224,96,88774,1,2,0:0:0:0:
224,64,88885,1,0,0:0:0:0:
192,64,89108,1,2,0:0:0:0:
192,64,89219,1,2,0:0:0:0:
192,64,89330,1,0,0:0:0:0:
192,64,89552,1,2,0:0:0:0:
352,64,89774,1,0,0:0:0:0:
352,64,89848,1,0,0:0:0:0:
352,64,89923,1,0,0:0:0:0:
352,64,90219,1,2,0:0:0:0:
352,64,90293,1,2,0:0:0:0:
352,64,90367,1,2,0:0:0:0:
192,128,90663,1,0,0:0:0:0:
192,128,90997,1,0,0:0:0:0:
192,128,91108,1,2,0:0:0:0:
192,128,91330,1,2,0:0:0:0:
192,128,91552,1,0,0:0:0:0:
192,128,91663,1,0,0:0:0:0:
192,128,91774,1,2,0:0:0:0:
192,128,91997,1,2,0:0:0:0:
256,192,92441,1,2,0:0:0:0:
256,192,92663,1,2,0:0:0:0:
256,192,92774,1,2,0:0:0:0:
256,192,92885,1,0,0:0:0:0:
256,192,93108,1,2,0:0:0:0:
256,192,93330,1,2,0:0:0:0:
320,128,93663,1,0,0:0:0:0:
320,128,93774,1,2,0:0:0:0:
320,128,93997,1,2,0:0:0:0:
320,128,94219,1,0,0:0:0:0:
320,128,94441,1,2,0:0:0:0:
320,128,94663,1,0,0:0:0:0:
320,128,94774,1,2,0:0:0:0:
320,128,94997,1,2,0:0:0:0:
320,128,95108,1,0,0:0:0:0:
320,128,95219,1,0,0:0:0:0:
320,128,95330,1,2,0:0:0:0:
320,128,95552,1,2,0:0:0:0:
320,128,95774,1,2,0:0:0:0:
256,192,95997,12,0,97330,0:0:0:0:
352,128,97774,5,0,0:0:0:0:
352,128,97997,1,2,0:0:0:0:
352,128,98219,1,0,0:0:0:0:
352,128,98330,1,0,0:0:0:0:
352,128,98441,1,2,0:0:0:0:
352,128,98663,1,0,0:0:0:0:
352,128,98774,1,0,0:0:0:0:
352,128,98885,1,2,0:0:0:0:
352,128,99108,1,0,0:0:0:0:
352,128,99219,1,0,0:0:0:0:
352,128,99330,1,2,0:0:0:0:
352,128,99441,1,2,0:0:0:0:
64,160,99552,2,0,L|352:160,1,280
224,128,101330,1,0,0:0:0:0:
224,128,101552,1,2,0:0:0:0:
224,128,101774,1,0,0:0:0:0:
224,128,101885,1,0,0:0:0:0:
224,128,101997,1,2,0:0:0:0:
224,128,102219,1,0,0:0:0:0:
224,128,102330,1,2,0:0:0:0:
224,128,102441,1,2,0:0:0:0:
224,128,102663,1,0,0:0:0:0:
224,128,102774,1,2,0:0:0:0:
224,128,102885,1,2,0:0:0:0:
224,128,102997,1,2,0:0:0:0:
96,160,103108,2,0,L|384:160,1,280
352,160,104441,1,6,0:0:0:0:
352,160,104885,1,6,0:0:0:0:
352,128,105108,1,2,0:0:0:0:
352,128,105330,1,0,0:0:0:0:
352,128,105441,1,2,0:0:0:0:
352,128,105552,1,2,0:0:0:0:
352,128,105774,1,2,0:0:0:0:
352,128,105885,1,2,0:0:0:0:
352,128,105997,1,2,0:0:0:0:
352,128,106219,1,0,0:0:0:0:
352,128,106330,1,2,0:0:0:0:
352,128,106441,1,2,0:0:0:0:
352,128,106552,1,2,0:0:0:0:
256,192,106663,12,0,107552,0:0:0:0:
160,192,108441,5,0,0:0:0:0:
160,192,108663,1,2,0:0:0:0:
160,192,108885,1,2,0:0:0:0:
160,192,108997,1,2,0:0:0:0:
160,192,109108,1,2,0:0:0:0:
160,192,109330,1,2,0:0:0:0:
160,192,109441,1,2,0:0:0:0:
160,192,109552,1,2,0:0:0:0:
160,192,109774,1,2,0:0:0:0:
160,192,109885,1,2,0:0:0:0:
160,192,109997,1,2,0:0:0:0:
160,192,110108,1,2,0:0:0:0:
256,192,110219,12,0,111108,0:0:0:0:
