osu file format v14

[General]
AudioFilename: Minzu - Long wu.mp3
AudioLeadIn: 0
PreviewTime: 54441
Countdown: 1
SampleSet: Soft
StackLeniency: 0.7
Mode: 1
LetterboxInBreaks: 0
WidescreenStoryboard: 1

[Editor]
Bookmarks: 24886
DistanceSpacing: 0.8
BeatDivisor: 1
GridSize: 32
TimelineZoom: 0.4999999

[Metadata]
Title:Long Wu
TitleUnicode:龍舞
Artist:Minzu
ArtistUnicode:Minzu
Creator:Numbers 596108
Version:Kantan
Source:Dynamix
Tags:
BeatmapID:848633
BeatmapSetID:389121

[Difficulty]
HPDrainRate:2
CircleSize:5
OverallDifficulty:3
ApproachRate:5
SliderMultiplier:1.4
SliderTickRate:1

[Events]
//Background and Video events
0,0,"Sakamoto.Himemi.full.1683579.jpg",0,0
//Break Periods
//Storyboard Layer 0 (Background)
//Storyboard Layer 1 (Fail)
//Storyboard Layer 2 (Pass)
//Storyboard Layer 3 (Foreground)
//Storyboard Sound Samples

[TimingPoints]
1775,888.888888888889,4,2,0,100,1,0
8886,444.444444444444,4,2,0,100,1,0
55108,-100,4,2,0,100,0,1
69329,-100,4,2,0,100,0,0
83552,-100,4,2,0,100,0,1
97774,-100,4,2,0,100,0,0

[HitObjects]
160,192,1775,5,0,0:0:0:0:
160,192,2663,1,0,0:0:0:0:
160,192,3552,1,0,0:0:0:0:
288,192,5330,1,0,0:0:0:0:
256,192,7108,12,0,8886,0:0:0:0:
192,160,10663,5,0,0:0:0:0:
192,160,11108,1,0,0:0:0:0:
192,160,11552,1,2,0:0:0:0:
192,192,12441,1,0,0:0:0:0:
192,192,12885,1,0,0:0:0:0:
192,192,13330,1,0,0:0:0:0:
320,192,14219,1,2,0:0:0:0:
320,192,15108,1,2,0:0:0:0:
256,160,15997,1,0,0:0:0:0:
224,160,16441,1,0,0:0:0:0:
224,160,16885,1,2,0:0:0:0:
192,160,17330,1,0,0:0:0:0:
192,160,17774,1,0,0:0:0:0:
160,64,18663,1,0,0:0:0:0:
160,64,19108,1,0,0:0:0:0:
160,64,19552,1,2,0:0:0:0:
256,128,19997,1,0,0:0:0:0:
256,128,20441,1,0,0:0:0:0:
256,128,21330,1,2,0:0:0:0:
256,128,21774,1,0,0:0:0:0:
256,128,22219,1,2,0:0:0:0:
256,128,22663,1,0,0:0:0:0:
192,160,23108,2,0,L|384:128,2,140
192,96,24885,1,0,0:0:0:0:
192,96,25330,1,0,0:0:0:0:
192,96,25774,1,2,0:0:0:0:
224,160,26663,1,0,0:0:0:0:
224,160,27108,1,0,0:0:0:0:
224,160,27552,1,0,0:0:0:0:
224,160,28441,1,2,0:0:0:0:
224,160,29330,1,2,0:0:0:0:
288,160,30219,1,0,0:0:0:0:
288,160,30663,1,0,0:0:0:0:
288,160,31108,1,2,0:0:0:0:
288,160,31552,1,2,0:0:0:0:
288,160,31997,1,0,0:0:0:0:
256,128,32441,1,0,0:0:0:0:
192,64,32885,1,2,0:0:0:0:
224,96,33774,1,0,0:0:0:0:
224,96,34219,1,0,0:0:0:0:
224,96,34663,1,0,0:0:0:0:
224,96,35552,1,0,0:0:0:0:
224,96,36441,1,0,0:0:0:0:
256,192,37330,12,0,38663,0:0:0:0:
224,128,39108,5,0,0:0:0:0:
224,128,39997,1,2,0:0:0:0:
224,128,40441,1,2,0:0:0:0:
224,128,40885,1,0,0:0:0:0:
224,128,41774,1,2,0:0:0:0:
224,128,42219,1,2,0:0:0:0:
224,128,42663,1,0,0:0:0:0:
224,96,43108,1,0,0:0:0:0:
224,96,43552,1,2,0:0:0:0:
224,96,44441,1,2,0:0:0:0:
224,96,44885,1,0,0:0:0:0:
224,96,45330,1,0,0:0:0:0:
224,96,46219,1,0,0:0:0:0:
224,96,46663,1,2,0:0:0:0:
224,96,47108,1,0,0:0:0:0:
224,96,47552,1,2,0:0:0:0:
64,160,47997,2,0,L|384:160,1,280
192,192,49774,1,0,0:0:0:0:
192,192,50219,1,0,0:0:0:0:
192,192,50663,1,0,0:0:0:0:
192,192,51108,1,0,0:0:0:0:
256,192,51552,12,0,53330,0:0:0:0:
128,192,54663,5,0,0:0:0:0:
128,192,55108,1,2,0:0:0:0:
128,192,55997,1,2,0:0:0:0:
128,160,56885,1,2,0:0:0:0:
128,160,57330,1,2,0:0:0:0:
128,160,57774,1,0,0:0:0:0:
128,160,58663,1,0,0:0:0:0:
128,160,59552,1,0,0:0:0:0:
192,192,60441,5,2,0:0:0:0:
192,192,60885,1,2,0:0:0:0:
192,192,61330,1,0,0:0:0:0:
192,192,61774,1,0,0:0:0:0:
192,192,62219,1,0,0:0:0:0:
192,192,63108,1,0,0:0:0:0:
224,128,63997,1,0,0:0:0:0:
224,128,64441,1,2,0:0:0:0:
224,128,64885,1,0,0:0:0:0:
224,96,65774,1,0,0:0:0:0:
192,128,66663,1,2,0:0:0:0:
256,192,67552,12,0,68885,0:0:0:0:
320,128,69330,5,0,0:0:0:0:
320,128,70219,1,2,0:0:0:0:
64,160,71108,2,0,L|384:160,1,280
224,160,72885,1,0,0:0:0:0:
224,160,73330,1,0,0:0:0:0:
224,160,73774,1,0,0:0:0:0:
192,160,74663,2,0,L|480:160,1,280
160,96,76441,1,2,0:0:0:0:
160,96,77330,1,2,0:0:0:0:
64,160,78219,2,0,L|384:160,1,280
224,160,79997,1,0,0:0:0:0:
224,160,80441,1,0,0:0:0:0:
224,160,80885,1,0,0:0:0:0:
224,160,81330,1,0,0:0:0:0:
256,192,81774,12,0,83108,0:0:0:0:
96,192,83552,5,2,0:0:0:0:
96,192,84441,1,0,0:0:0:0:
96,192,84885,1,0,0:0:0:0:
96,192,85330,1,2,0:0:0:0:
256,128,86219,1,0,0:0:0:0:
256,128,87108,1,0,0:0:0:0:
256,128,87552,1,0,0:0:0:0:
256,128,87997,1,2,0:0:0:0:
256,128,88885,1,0,0:0:0:0:
256,128,89774,1,2,0:0:0:0:
256,128,90219,1,0,0:0:0:0:
256,128,90663,1,0,0:0:0:0:
256,128,91552,1,0,0:0:0:0:
256,160,91997,1,0,0:0:0:0:
256,160,92441,1,2,0:0:0:0:
224,160,93330,1,0,0:0:0:0:
224,160,94219,1,2,0:0:0:0:
256,128,94663,1,2,0:0:0:0:
256,128,95108,1,0,0:0:0:0:
256,128,95552,1,0,0:0:0:0:
256,192,95997,12,0,97330,0:0:0:0:
224,160,97774,5,0,0:0:0:0:
224,160,98663,1,0,0:0:0:0:
64,128,99552,2,0,L|384:128,1,280
128,160,101330,1,0,0:0:0:0:
256,160,101774,1,0,0:0:0:0:
256,160,102219,1,0,0:0:0:0:
32,192,103108,2,0,L|416:192,1,280
192,192,104885,1,4,0:0:0:0:
192,224,105774,1,0,0:0:0:0:
64,160,106663,2,0,L|352:192,1,280
224,128,108441,1,0,0:0:0:0:
224,128,109330,1,0,0:0:0:0:
256,192,110219,12,0,111108,0:0:0:0:
