osu file format v14

[General]
AudioFilename: audio.mp3
AudioLeadIn: 0
PreviewTime: 32562
Countdown: 1
SampleSet: None
StackLeniency: 0.6
Mode: 0
LetterboxInBreaks: 0
WidescreenStoryboard: 1

[Editor]
Bookmarks: 6351,7403,7897,11299,11921,12403,13774,14392,16248,26145,45935,46866,47781,60784,63253,65732,83052,85526
DistanceSpacing: 0.7
BeatDivisor: 4
GridSize: 4
TimelineZoom: 2

[Metadata]
Title:Gospel Of The Throttle REMIX ver.(tv size)
TitleUnicode:Gospel Of The Throttle 狂奔REMIX ver.(tv size)
Artist:Minutes Til Midnight
ArtistUnicode:Minutes Til Midnight
Creator:Peruro
Version:Insane
Source:Drifters
Tags:
BeatmapID:1147379
BeatmapSetID:534767

[Difficulty]
HPDrainRate:6
CircleSize:4
OverallDifficulty:6.6
ApproachRate:9
SliderMultiplier:1.4
SliderTickRate:1

[Events]
//Background and Video events
0,0,"toyohisa_shimazu-drifters-samurai-anime-(214).jpg",0,0
//Break Periods
//Storyboard Layer 0 (Background)
//Storyboard Layer 1 (Fail)
//Storyboard Layer 2 (Pass)
//Storyboard Layer 3 (Foreground)
//Storyboard Sound Samples

[TimingPoints]
1402,309.278350515464,4,3,0,30,1,0
26067,-133.333333333333,4,3,0,30,0,0
34727,-100,4,3,0,30,0,0
65654,-133.333333333333,4,3,0,30,0,0
74933,-100,4,3,0,30,0,0

[HitObjects]
160,84,1402,6,0,P|152:148|176:224,1,140
308,212,1865,1,0,0:0:0:0:
175,187,2020,2,0,P|147:227|139:263,1,70
256,332,2329,2,0,P|300:336|328:324,1,70
402,198,2639,1,0,0:0:0:0:
324,100,2793,1,0,0:0:0:0:
324,100,2948,2,0,P|300:44|300:28,1,70
196,156,3257,2,0,P|196:204|184:240,2,70
328,192,3876,6,0,L|344:40,1,140
201,93,4340,1,0,0:0:0:0:
201,93,4494,2,0,P|169:137|133:165,1,70
155,198,4726,1,0,0:0:0:0:
155,198,4804,2,0,P|207:214|255:210,1,70
352,212,5113,2,0,L|352:132,2,70
364,324,5577,5,0,0:0:0:0:
364,324,5654,1,0,0:0:0:0:
364,324,5731,1,0,0:0:0:0:
256,292,5886,1,0,0:0:0:0:
256,292,6041,2,0,P|196:324|172:328,1,70
92,280,6350,6,0,L|68:128,1,140
152,72,6814,1,0,0:0:0:0:
232,140,6969,2,0,P|268:176|292:184,1,70
324,84,7278,2,0,P|288:56|256:52,1,70
232,140,7587,2,0,L|248:300,1,140
448,228,8206,6,0,L|452:148,2,70
348,164,8670,1,0,0:0:0:0:
348,164,8824,2,0,P|321:122|227:123,1,140
119,98,9288,1,0,0:0:0:0:
119,98,9443,2,0,P|147:58|186:32,1,70
207,155,9752,2,0,P|177:179|126:195,1,70
50,122,10061,6,0,P|36:194|48:262,2,140
155,178,10834,1,0,0:0:0:0:
260,234,10989,1,0,0:0:0:0:
365,290,11144,1,0,0:0:0:0:
365,290,11298,6,0,L|392:144,1,140
324,64,11762,1,0,0:0:0:0:
284,168,11917,2,0,P|220:192|188:188,1,70
140,116,12226,1,0,0:0:0:0:
140,116,12381,2,0,P|112:200|124:264,2,140
216,232,13154,1,0,0:0:0:0:
216,232,13309,1,0,0:0:0:0:
216,232,13463,6,0,P|207:263|192:300,1,70
216,232,13773,2,0,P|312:224|372:244,1,140
452,184,14237,1,0,0:0:0:0:
353,235,14391,2,0,L|345:311,1,70
256,236,14700,1,0,0:0:0:0:
256,236,14855,2,0,P|236:280|224:320,1,70
100,300,15164,5,0,0:0:0:0:
140,187,15319,2,0,L|134:147,4,35
230,264,15783,1,0,0:0:0:0:
356,212,15938,1,0,0:0:0:0:
356,212,16092,1,0,0:0:0:0:
356,212,16247,6,0,P|352:280|300:340,1,140
228,200,16711,1,0,0:0:0:0:
228,200,16865,2,0,L|244:48,1,140
88,104,17329,1,0,0:0:0:0:
140,204,17484,6,0,P|180:228|212:232,1,70
148,320,17793,2,0,P|104:336|72:360,1,70
256,304,18103,2,0,P|351:312|409:281,1,140
248,112,18721,6,0,P|244:64|252:40,1,70
404,104,19030,2,0,P|392:152|372:176,1,70
264,198,19340,1,0,0:0:0:0:
264,198,19494,1,0,0:0:0:0:
264,198,19649,2,0,P|197:197|176:187,1,70
252,76,19958,6,0,P|328:64|404:96,1,140
392,196,20422,1,0,0:0:0:0:
316,276,20577,2,0,P|280:232|256:196,1,70
164,244,20886,2,0,P|152:304|144:332,1,70
80,192,21195,6,0,L|96:48,1,140
180,136,21659,1,0,0:0:0:0:
168,248,21814,2,0,P|161:313|157:337,2,70
264,178,22278,2,0,P|317:216|398:200,1,140
324,105,22742,2,0,L|336:29,1,70
419,120,23051,2,0,L|394:273,1,140
158,281,23670,5,0,0:0:0:0:
158,281,23824,1,0,0:0:0:0:
223,181,23979,2,0,P|239:138|254:109,1,70
130,111,24288,2,0,P|108:157|79:180,1,70
201,222,24597,2,0,P|256:215|298:220,1,70
329,227,24829,1,0,0:0:0:0:
329,227,24907,1,0,0:0:0:0:
416,168,25061,5,0,0:0:0:0:
416,168,25139,1,0,0:0:0:0:
416,168,25216,1,0,0:0:0:0:
319,98,25371,1,0,0:0:0:0:
319,98,25525,2,0,L|332:18,1,70
216,66,25834,2,0,L|202:158,1,70
219,307,26144,5,0,0:0:0:0:
216,304,26762,1,0,0:0:0:0:
216,304,27381,6,0,L|212:192,2,105.000004005432
88,124,28309,2,0,P|120:104|144:100,1,52.5000020027161
252,204,28618,6,0,L|372:220,1,105.000004005432
264,52,29237,2,0,L|168:116,1,105.000004005432
159,235,29855,5,0,0:0:0:0:
159,235,30164,1,0,0:0:0:0:
159,235,30474,1,0,0:0:0:0:
161,233,30783,1,0,0:0:0:0:
252,204,31092,2,0,P|192:216|136:204,1,105.000004005432
280,284,31711,5,0,0:0:0:0:
280,284,32020,1,0,0:0:0:0:
280,284,32329,1,0,0:0:0:0:
280,284,32948,6,0,P|276:228|280:164,1,105.000004005432
104,304,33566,5,0,0:0:0:0:
104,304,33876,1,0,0:0:0:0:
104,304,34185,1,0,0:0:0:0:
104,304,34494,1,0,0:0:0:0:
236,240,34804,1,0,0:0:0:0:
236,216,34881,1,0,0:0:0:0:
236,192,34958,1,0,0:0:0:0:
236,168,35036,1,0,0:0:0:0:
236,144,35113,6,0,L|232:64,1,70
340,76,35422,2,0,P|384:88|412:92,1,70
348,188,35731,2,0,P|316:236|312:260,1,70
216,300,36041,6,0,P|160:320|84:288,1,140
132,188,36505,1,0,0:0:0:0:
228,132,36659,2,0,P|272:136|304:148,1,70
260,260,36969,1,0,0:0:0:0:
260,260,37123,2,0,P|228:292|188:316,1,70
92,272,37432,2,0,L|88:176,1,70
136,108,37742,1,0,0:0:0:0:
136,108,37819,1,0,0:0:0:0:
136,108,37896,6,0,P|176:92|216:92,1,70
300,152,38206,2,0,B|300:148|327:159|332:156|372:156,1,70
300,152,38515,6,0,B|280:120|280:120|264:192|288:228,1,140
420,204,38979,1,0,0:0:0:0:
400,80,39133,2,0,P|376:52|335:35,1,70
220,88,39443,1,0,0:0:0:0:
220,88,39597,1,0,0:0:0:0:
220,88,39752,6,0,P|144:76|68:104,1,140
88,236,40216,1,0,0:0:0:0:
88,236,40293,1,0,0:0:0:0:
88,236,40371,1,0,0:0:0:0:
164,308,40525,1,0,0:0:0:0:
268,300,40680,1,0,0:0:0:0:
344,228,40834,5,0,0:0:0:0:
344,228,40989,2,0,P|368:156|336:88,1,140
244,68,41453,1,0,0:0:0:0:
232,188,41608,2,0,P|288:200|312:188,1,70
352,88,41917,2,0,P|400:84|428:100,1,70
458,205,42226,6,0,P|447:263|369:318,1,140
271,296,42690,1,0,0:0:0:0:
271,296,42845,2,0,P|198:307|182:298,1,70
104,245,43154,2,0,P|73:278|63:313,1,70
96,160,43463,6,0,L|68:320,1,140
200,212,43927,1,0,0:0:0:0:
356,208,44082,2,0,P|364:260|300:320,1,140
200,212,44546,1,0,0:0:0:0:
220,80,44700,2,0,P|292:64|372:104,1,140
356,116,45087,1,0,0:0:0:0:
352,144,45164,1,0,0:0:0:0:
348,172,45242,1,0,0:0:0:0:
344,200,45319,6,0,P|372:236|404:260,1,70
300,304,45628,2,0,P|272:272|252:248,1,70
180,76,45938,6,0,L|192:224,1,140
396,260,46556,2,0,L|416:176,1,70
364,84,46865,1,0,0:0:0:0:
364,84,47020,1,0,0:0:0:0:
364,84,47175,6,0,P|284:116|204:100,1,140
231,110,47793,1,0,0:0:0:0:
283,217,47948,1,0,0:0:0:0:
283,217,48103,2,0,P|292:251|332:291,1,70
436,204,48412,2,0,P|464:144|456:60,1,140
348,108,48876,1,0,0:0:0:0:
348,108,49030,6,0,P|288:124|200:112,1,140
100,164,49494,2,0,L|80:240,1,70
164,320,49804,2,0,L|232:304,1,70
164,208,50113,1,0,0:0:0:0:
164,208,50190,1,0,0:0:0:0:
164,208,50267,2,0,L|176:120,1,70
272,72,50577,1,0,0:0:0:0:
272,72,50731,1,0,0:0:0:0:
272,72,50886,6,0,P|352:48|424:80,1,140
396,296,51505,1,0,0:0:0:0:
396,296,51659,2,0,P|380:240|372:216,1,70
292,308,51969,1,0,0:0:0:0:
292,308,52123,2,0,P|200:324|148:296,1,140
72,196,52587,5,0,0:0:0:0:
72,196,52664,1,0,0:0:0:0:
72,196,52742,2,0,L|72:116,2,70
140,284,53206,1,0,0:0:0:0:
240,236,53360,2,0,P|292:248|376:224,1,140
404,116,53824,1,0,0:0:0:0:
316,44,53979,6,0,P|288:76|264:124,1,70
328,196,54288,2,0,P|328:252|316:292,1,70
220,304,54597,2,0,P|180:316|148:336,2,70
248,196,55061,5,0,0:0:0:0:
248,196,55139,1,0,0:0:0:0:
248,196,55216,2,0,L|232:136,1,35
216,112,55371,1,0,0:0:0:0:
352,160,55525,1,0,0:0:0:0:
275,275,55680,1,0,0:0:0:0:
152,288,55834,6,0,P|108:240|108:156,1,140
172,72,56298,1,0,0:0:0:0:
272,136,56453,2,0,L|276:288,1,140
380,332,56917,1,0,0:0:0:0:
448,232,57072,2,0,P|460:180|452:156,1,70
368,84,57381,2,0,P|324:56|308:28,1,70
228,124,57690,2,0,P|192:148|88:132,1,140
156,36,58154,5,0,0:0:0:0:
156,36,58231,1,0,0:0:0:0:
156,36,58309,1,0,0:0:0:0:
196,148,58463,1,0,0:0:0:0:
196,148,58618,6,0,P|188:204|164:244,1,70
80,152,58927,2,0,P|96:112|124:84,1,70
228,56,59237,2,0,P|260:76|288:112,1,70
348,188,59546,2,0,L|320:348,1,140
220,284,60010,1,0,0:0:0:0:
236,120,60164,1,0,0:0:0:0:
348,188,60319,1,0,0:0:0:0:
220,284,60474,2,0,L|152:304,1,70
236,120,60783,6,0,P|288:100|380:124,1,140
389,262,61247,1,0,0:0:0:0:
264,316,61402,2,0,P|208:336|180:332,1,70
92,280,61711,2,0,P|128:224|156:216,1,70
240,180,62020,2,0,P|232:96|260:40,1,140
364,88,62484,1,0,0:0:0:0:
364,88,62561,1,0,0:0:0:0:
364,88,62639,5,0,0:0:0:0:
423,197,62793,1,0,0:0:0:0:
348,304,62948,2,0,P|296:328|264:332,1,70
236,232,63257,5,0,0:0:0:0:
236,232,63876,5,0,0:0:0:0:
120,312,64494,5,0,0:0:0:0:
120,312,64572,1,0,0:0:0:0:
120,312,64649,1,0,0:0:0:0:
120,312,64726,1,0,0:0:0:0:
120,312,64804,2,0,L|108:256,2,35
230,233,65113,5,0,0:0:0:0:
338,109,65267,1,0,0:0:0:0:
161,88,65422,1,0,0:0:0:0:
236,236,65577,1,0,0:0:0:0:
236,236,65731,6,0,P|192:252|132:264,1,105.000004005432
68,164,66350,2,0,P|124:192|184:212,1,105.000004005432
138,323,66969,6,0,L|146:271,1,52.5000020027161
276,278,67278,2,0,L|296:334,1,52.5000020027161
399,250,67587,2,0,L|407:142,1,105.000004005432
153,91,68206,6,0,P|220:106|271:100,1,105.000004005432
196,236,68824,2,0,P|220:288|232:352,1,105.000004005432
368,308,69443,6,0,P|368:276|376:244,1,52.5000020027161
340,156,69752,2,0,P|296:148|276:144,1,52.5000020027161
220,256,70061,2,0,P|232:288|240:328,1,52.5000020027161
92,256,70371,2,0,P|104:208|124:192,1,52.5000020027161
236,268,70680,5,0,0:0:0:0:
236,268,70989,1,0,0:0:0:0:
236,268,71298,1,0,0:0:0:0:
236,268,71608,1,0,0:0:0:0:
236,268,71917,6,0,L|248:156,1,105.000004005432
352,196,72381,1,0,0:0:0:0:
328,312,72536,2,0,P|260:332|216:328,1,105.000004005432
100,204,73077,1,0,0:0:0:0:
100,204,73154,5,0,0:0:0:0:
204,124,73463,1,0,0:0:0:0:
204,124,73773,1,0,0:0:0:0:
204,124,74082,1,0,0:0:0:0:
380,160,74391,1,0,0:0:0:0:
376,184,74469,1,0,0:0:0:0:
372,208,74546,1,0,0:0:0:0:
368,232,74623,1,0,0:0:0:0:
364,256,74700,6,0,L|352:300,3,26.2500010013581
368,240,75010,1,0,0:0:0:0:
288,324,75164,1,0,0:0:0:0:
204,248,75319,1,0,0:0:0:0:
120,172,75474,1,0,0:0:0:0:
120,172,75628,6,0,P|56:168|36:240,1,140
132,280,76092,1,0,0:0:0:0:
132,280,76247,1,0,0:0:0:0:
132,280,76402,2,0,P|204:328|208:328,1,70
296,328,76711,1,0,0:0:0:0:
296,328,76788,1,0,0:0:0:0:
296,328,76865,2,0,P|324:288|336:252,1,70
416,192,77175,6,0,L|384:40,1,140
276,80,77639,1,0,0:0:0:0:
276,80,77793,1,0,0:0:0:0:
236,184,77948,1,0,0:0:0:0:
236,184,78025,1,0,0:0:0:0:
236,184,78103,2,0,P|276:240|300:244,1,70
416,192,78412,6,0,P|380:148|352:140,1,70
316,124,78644,1,0,0:0:0:0:
316,124,78721,2,0,P|264:116|228:92,1,70
152,52,79030,1,0,0:0:0:0:
76,136,79185,6,0,P|92:176|96:224,1,70
160,292,79494,2,0,P|200:328|232:344,1,70
232,224,79804,1,0,0:0:0:0:
232,224,79881,1,0,0:0:0:0:
232,224,79958,2,0,P|220:176|220:148,1,70
328,184,80267,5,0,0:0:0:0:
324,220,80345,1,0,0:0:0:0:
320,256,80422,1,0,0:0:0:0:
316,292,80499,1,0,0:0:0:0:
312,328,80577,6,0,L|268:248,1,70
269,161,80886,1,0,0:0:0:0:
396,71,81041,1,0,0:0:0:0:
448,208,81195,2,0,P|405:226|360:223,1,70
264,88,81505,1,0,0:0:0:0:
264,88,81659,5,0,0:0:0:0:
264,88,81814,2,0,P|228:76|192:76,1,70
78,247,82123,2,0,P|121:256|162:247,1,70
209,112,82432,1,0,0:0:0:0:
61,109,82587,1,0,0:0:0:0:
146,252,82742,1,0,0:0:0:0:
220,148,82896,1,0,0:0:0:0:
220,148,83051,6,0,P|268:108|328:40,1,140
404,136,83515,1,0,0:0:0:0:
388,256,83670,2,0,L|248:332,1,140
148,332,84133,1,0,0:0:0:0:
123,326,84211,1,0,0:0:0:0:
99,321,84288,6,0,P|80:271|59:247,1,70
120,152,84597,2,0,P|172:172|212:176,1,70
314,110,84907,1,0,0:0:0:0:
223,265,85061,1,0,0:0:0:0:
382,248,85216,1,0,0:0:0:0:
328,124,85371,1,0,0:0:0:0:
328,124,85525,6,0,L|308:280,1,140
200,312,85989,1,0,0:0:0:0:
228,196,86144,2,0,P|280:188|320:192,1,70
400,248,86453,2,0,P|392:292|384:340,1,70
288,296,86762,5,0,0:0:0:0:
280,260,86840,1,0,0:0:0:0:
272,228,86917,1,0,0:0:0:0:
264,192,86994,1,0,0:0:0:0:
260,156,87072,2,0,L|260:72,1,70
402,76,87381,1,0,0:0:0:0:
283,221,87536,1,0,0:0:0:0:
196,69,87690,1,0,0:0:0:0:
405,216,87845,1,0,0:0:0:0:
405,216,87999,6,0,L|425:296,2,70
