osu file format v14

[General]
AudioFilename: audio.mp3
AudioLeadIn: 0
PreviewTime: 32562
Countdown: 1
SampleSet: None
StackLeniency: 0.6
Mode: 0
LetterboxInBreaks: 0
WidescreenStoryboard: 1

[Editor]
Bookmarks: 6327,7403,7958,11240,11921,12403,13753,14402,45935,46982,47781,63253,65714
DistanceSpacing: 1.7
BeatDivisor: 4
GridSize: 4
TimelineZoom: 2

[Metadata]
Title:Gospel Of The Throttle REMIX ver.(tv size)
TitleUnicode:Gospel Of The Throttle 狂奔REMIX ver.(tv size)
Artist:Minutes Til Midnight
ArtistUnicode:Minutes Til Midnight
Creator:Peruro
Version:Hard
Source:Drifters
Tags:
BeatmapID:1132749
BeatmapSetID:534767

[Difficulty]
HPDrainRate:6
CircleSize:3.6
OverallDifficulty:6.6
ApproachRate:8.7
SliderMultiplier:1.4
SliderTickRate:1

[Events]
//Background and Video events
0,0,"toyohisa_shimazu-drifters-samurai-anime-(214).jpg",0,0
//Break Periods
//Storyboard Layer 0 (Background)
//Storyboard Layer 1 (Fail)
//Storyboard Layer 2 (Pass)
//Storyboard Layer 3 (Foreground)
//Storyboard Sound Samples

[TimingPoints]
1402,309.278350515464,4,3,0,30,1,0
26067,-133.333333333333,4,3,0,30,0,0
34727,-100,4,3,0,30,0,0

[HitObjects]
192,332,1402,6,0,L|176:188,1,140
52,180,1865,1,0,0:0:0:0:
52,180,2020,2,0,L|80:332,1,140
244,332,2484,6,0,P|252:280|244:252,1,70
128,204,2793,2,0,P|124:260|132:288,1,70
248,336,3103,1,0,0:0:0:0:
248,336,3257,2,0,P|348:340|400:304,1,140
364,124,3876,6,0,P|284:108|204:128,1,140
132,190,4340,1,0,0:0:0:0:
132,190,4494,2,0,P|130:238|146:274,1,70
191,282,4726,1,0,0:0:0:0:
191,282,4804,6,0,P|243:291|268:287,1,70
373,252,5113,2,0,P|366:196|380:106,1,140
280,45,5577,1,0,0:0:0:0:
280,45,5731,2,0,P|228:65|204:81,1,70
146,163,6041,1,0,0:0:0:0:
146,163,6195,1,0,0:0:0:0:
146,163,6350,6,0,L|134:307,1,140
243,254,6814,2,0,P|297:265|316:260,1,70
360,328,7278,1,0,0:0:0:0:
360,328,7432,6,0,L|348:240,2,70
260,292,7896,2,0,L|268:216,1,70
340,132,8206,1,0,0:0:0:0:
340,132,8360,1,0,0:0:0:0:
340,132,8515,2,0,L|328:44,1,70
232,92,8824,2,0,P|180:72|96:104,1,140
100,196,9288,1,0,0:0:0:0:
100,196,9443,6,0,P|145:230|239:221,1,140
271,117,9907,1,0,0:0:0:0:
271,117,10061,2,0,P|326:102|350:107,1,70
446,155,10371,2,0,P|444:203|430:231,1,70
284,276,10680,5,0,0:0:0:0:
284,276,10834,1,0,0:0:0:0:
284,276,10989,1,0,0:0:0:0:
284,276,11144,1,0,0:0:0:0:
284,276,11298,6,0,L|256:116,1,140
364,124,11762,1,0,0:0:0:0:
364,124,11917,2,0,L|380:48,2,70
340,228,12381,1,0,0:0:0:0:
248,284,12536,2,0,P|160:288|116:248,1,140
240,51,13154,5,0,0:0:0:0:
240,51,13309,1,0,0:0:0:0:
122,62,13463,2,0,P|90:78|58:114,1,70
153,183,13773,6,0,P|194:233|152:290,1,140
57,222,14237,1,0,0:0:0:0:
57,222,14391,2,0,P|116:202|206:226,1,140
289,150,14855,6,0,P|281:90|397:118,1,210
424,261,15474,6,0,L|420:217,9,35
431,283,16247,6,0,P|367:295|295:335,1,140
261,94,16865,1,0,0:0:0:0:
261,94,17175,1,0,0:0:0:0:
261,94,17329,6,0,P|226:122|199:132,1,70
118,215,17639,2,0,P|112:257|125:287,1,70
296,204,17948,5,0,0:0:0:0:
296,204,18103,2,0,P|384:228|432:196,1,140
220,112,18721,5,0,0:0:0:0:
138,199,19030,1,0,0:0:0:0:
138,199,19340,2,0,L|135:282,2,70
176,86,19804,1,0,0:0:0:0:
176,86,19958,2,0,P|243:62|303:95,1,140
398,160,20422,1,0,0:0:0:0:
398,160,20577,6,0,P|418:116|415:74,1,70
310,46,20886,2,0,P|285:100|286:126,1,70
176,80,21195,6,0,P|240:60|320:80,1,140
236,176,21814,2,0,P|252:236|228:308,1,140
140,304,22278,1,0,0:0:0:0:
100,216,22432,2,0,P|152:204|184:216,1,70
248,272,22742,2,0,P|312:280|336:268,1,70
412,224,23051,2,0,P|424:152|396:84,1,140
224,300,23670,5,0,0:0:0:0:
224,300,23979,1,0,0:0:0:0:
124,200,24288,2,0,L|120:116,2,70
228,320,24752,1,0,0:0:0:0:
228,320,24907,6,0,P|224:272|240:240,1,70
356,220,25216,2,0,P|360:268|340:300,1,70
260,184,25525,5,0,0:0:0:0:
260,184,25680,1,0,0:0:0:0:
260,184,25834,1,0,0:0:0:0:
260,184,25989,1,0,0:0:0:0:
248,288,26144,5,0,0:0:0:0:
248,288,26762,1,0,0:0:0:0:
156,212,27381,1,0,0:0:0:0:
156,212,27999,2,0,L|168:324,1,105.000004005432
300,252,28618,6,0,L|312:136,1,105.000004005432
248,188,29237,1,0,0:0:0:0:
152,312,29855,5,0,0:0:0:0:
152,312,30164,1,0,0:0:0:0:
152,312,30474,1,0,0:0:0:0:
152,312,30783,1,0,0:0:0:0:
152,312,31092,6,0,L|144:192,2,105.000004005432
244,196,32020,1,0,0:0:0:0:
244,196,32329,2,0,P|208:152|152:144,1,105.000004005432
172,288,32948,2,0,P|220:324|272:324,1,105.000004005432
160,144,33566,5,0,0:0:0:0:
160,144,33876,1,0,0:0:0:0:
160,144,34185,1,0,0:0:0:0:
160,144,34494,1,0,0:0:0:0:
352,296,34804,6,0,L|376:360,11,35
356,276,35731,5,0,0:0:0:0:
356,276,35886,1,0,0:0:0:0:
356,276,36041,6,0,L|376:128,1,140
276,172,36505,1,0,0:0:0:0:
204,264,36659,2,0,P|272:276|284:272,1,70
276,172,36969,2,0,P|236:160|140:196,1,140
132,316,37432,1,0,0:0:0:0:
92,236,37587,1,0,0:0:0:0:
52,148,37742,1,0,0:0:0:0:
52,148,37896,2,0,P|120:144|180:92,1,140
368,72,38515,6,0,L|328:220,1,140
276,288,38979,1,0,0:0:0:0:
276,288,39133,2,0,L|252:360,2,70
212,212,39597,1,0,0:0:0:0:
212,212,39752,6,0,P|200:164|204:136,1,70
296,104,40061,2,0,B|332:104|355:107|371:119,1,70
428,216,40371,1,0,0:0:0:0:
428,216,40525,1,0,0:0:0:0:
428,216,40680,2,0,P|360:236|340:232,1,70
256,248,40989,6,0,P|196:264|124:316,1,140
72,208,41453,1,0,0:0:0:0:
124,124,41608,2,0,P|136:80|136:48,1,70
228,92,41917,2,0,P|260:128|280:144,1,70
364,184,42226,6,0,P|376:256|352:340,1,140
240,296,42690,1,0,0:0:0:0:
240,296,42845,2,0,P|188:308|160:300,1,70
108,232,43154,2,0,P|148:208|180:200,1,70
268,180,43463,6,0,L|248:32,1,140
392,188,44082,2,0,L|356:328,1,140
180,236,44700,2,0,L|168:140,1,70
164,116,44932,1,0,0:0:0:0:
164,116,45010,6,0,P|140:160|112:184,1,70
60,244,45319,2,0,P|68:296|80:316,1,70
172,332,45628,2,0,P|216:328|260:336,1,70
308,256,45938,6,0,L|296:164,2,70
128,148,46556,1,0,0:0:0:0:
220,204,46711,1,0,0:0:0:0:
320,176,46865,1,0,0:0:0:0:
400,108,47020,2,0,P|380:168|372:264,1,140
280,204,47793,5,0,0:0:0:0:
280,204,47948,1,0,0:0:0:0:
280,204,48103,1,0,0:0:0:0:
416,200,48412,2,0,P|432:272|404:348,1,140
216,260,49030,2,0,P|172:232|80:264,1,140
156,336,49494,1,0,0:0:0:0:
156,336,49649,6,0,L|144:188,1,140
344,132,50267,2,0,P|296:168|280:200,1,70
360,240,50577,2,0,P|400:256|432:256,1,70
424,152,50886,6,0,P|376:108|296:88,1,140
152,208,51505,2,0,P|108:228|80:224,1,70
112,132,51814,2,0,P|156:96|184:96,1,70
272,100,52123,2,0,L|240:248,1,140
188,316,52587,1,0,0:0:0:0:
188,316,52742,6,0,P|168:272|168:240,1,70
256,212,53051,2,0,P|304:240|336:244,1,70
408,204,53360,2,0,P|420:160|376:60,1,140
248,192,53979,6,0,L|216:336,1,140
148,260,54443,1,0,0:0:0:0:
148,260,54597,2,0,L|143:165,2,70
252,304,55061,5,0,0:0:0:0:
252,304,55216,1,0,0:0:0:0:
252,304,55371,1,0,0:0:0:0:
280,212,55525,2,0,P|284:164|280:120,1,70
352,72,55834,6,0,P|412:72|472:136,1,140
380,196,56298,1,0,0:0:0:0:
280,212,56453,2,0,P|228:204|204:108,1,140
388,244,57072,6,0,L|372:328,1,70
272,268,57381,2,0,L|256:184,1,70
216,96,57690,2,0,P|144:72|80:96,1,140
128,224,58309,6,0,L|100:368,1,140
196,316,58773,1,0,0:0:0:0:
268,240,58927,2,0,P|312:196|336:180,1,70
412,144,59237,2,0,P|400:100|392:64,1,70
292,56,59546,2,0,P|204:40|144:80,1,140
172,196,60010,1,0,0:0:0:0:
300,192,60164,6,0,P|352:200|384:192,1,70
424,56,60474,2,0,P|376:48|336:64,1,70
292,184,60783,5,0,0:0:0:0:
292,184,61402,1,0,0:0:0:0:
216,344,61711,1,0,0:0:0:0:
216,344,61865,2,0,L|216:264,1,70
120,264,62175,2,0,L|120:348,1,70
80,172,62484,5,0,0:0:0:0:
80,172,62561,1,0,0:0:0:0:
80,172,62639,2,0,L|88:92,1,70
248,184,62948,1,0,0:0:0:0:
244,96,63103,1,0,0:0:0:0:
324,48,63257,1,0,0:0:0:0:
112,296,63876,5,0,0:0:0:0:
112,296,64494,5,0,0:0:0:0:
112,296,64572,1,0,0:0:0:0:
112,296,64649,2,0,L|112:360,2,35
215,236,64958,1,0,0:0:0:0:
309,163,65113,1,0,0:0:0:0:
407,98,65267,1,0,0:0:0:0:
407,98,65422,2,0,L|387:182,1,70
352,279,65731,5,0,0:0:0:0:
352,279,66350,1,0,0:0:0:0:
352,279,66969,6,0,P|313:298|210:277,1,140
132,204,67587,2,0,P|187:172|266:200,1,140
388,207,68206,5,0,0:0:0:0:
388,207,68824,1,0,0:0:0:0:
240,312,69443,2,0,P|256:240|228:152,1,140
124,244,70061,1,0,0:0:0:0:
124,244,70371,1,0,0:0:0:0:
124,243,70680,6,0,P|173:232|271:261,1,140
344,174,71298,1,0,0:0:0:0:
344,174,71608,2,0,P|377:98|439:61,1,140
53,136,72536,6,0,P|119:127|193:148,1,140
320,208,73154,5,0,0:0:0:0:
320,208,73463,1,0,0:0:0:0:
320,208,73773,1,0,0:0:0:0:
320,208,74082,1,0,0:0:0:0:
232,239,74391,6,0,L|240:282,11,35
192,312,75319,1,0,0:0:0:0:
192,312,75474,1,0,0:0:0:0:
192,312,75628,6,0,P|136:324|40:292,1,140
68,200,76092,1,0,0:0:0:0:
168,124,76247,2,0,L|160:44,1,70
296,144,76556,1,0,0:0:0:0:
324,268,76711,6,0,P|400:280|452:244,1,140
368,108,77175,2,0,P|284:100|244:136,1,140
220,252,77639,1,0,0:0:0:0:
328,312,77793,1,0,0:0:0:0:
436,252,77948,1,0,0:0:0:0:
220,252,78103,6,0,P|176:280|80:260,1,140
132,160,78566,1,0,0:0:0:0:
252,200,78721,2,0,L|252:288,1,70
388,328,79030,1,0,0:0:0:0:
388,328,79185,6,0,P|412:272|412:240,1,70
348,124,79494,2,0,P|320:160|324:204,1,70
224,136,79804,2,0,P|168:80|84:80,1,140
80,200,80267,1,0,0:0:0:0:
80,200,80422,1,0,0:0:0:0:
80,200,80577,6,0,P|136:224|220:200,1,140
288,112,81041,1,0,0:0:0:0:
152,152,81195,2,0,P|156:216|208:272,1,140
364,312,81659,5,0,0:0:0:0:
364,312,81737,1,0,0:0:0:0:
364,312,81814,2,0,L|280:316,1,70
168,284,82123,2,0,P|104:300|80:288,1,70
48,180,82432,6,0,P|92:168|128:184,1,70
192,265,82742,1,0,0:0:0:0:
295,322,82896,1,0,0:0:0:0:
400,252,83051,6,0,P|400:192|364:100,1,140
220,120,83515,1,0,0:0:0:0:
220,120,83670,2,0,P|204:208|236:276,1,140
96,332,84133,1,0,0:0:0:0:
96,332,84288,2,0,P|108:288|96:184,1,140
188,100,84752,1,0,0:0:0:0:
188,100,84907,6,0,L|175:48,7,35
180,124,85525,6,0,P|188:207|240:266,1,140
320,320,85989,1,0,0:0:0:0:
224,232,86144,2,0,P|184:228|144:240,1,70
221,333,86453,2,0,P|312:334|356:303,1,140
424,215,86917,5,0,0:0:0:0:
362,112,87072,1,0,0:0:0:0:
278,195,87226,1,0,0:0:0:0:
303,78,87381,1,0,0:0:0:0:
205,86,87536,1,0,0:0:0:0:
78,57,87690,1,0,0:0:0:0:
119,168,87845,1,0,0:0:0:0:
205,86,88000,6,0,L|302:105,2,70,0|0|0,0:0|0:0|0:0,0:0:0:0:
