osu file format v14

[General]
AudioFilename: audio.mp3
AudioLeadIn: 0
PreviewTime: 65757
Countdown: 0
SampleSet: Normal
StackLeniency: 0.3
Mode: 0
LetterboxInBreaks: 0
WidescreenStoryboard: 1

[Editor]
Bookmarks: 9835,26085,42023,46085,50023,57960,61960,66085,70023,74023,96210,97960,106085,108023
DistanceSpacing: 0.8
BeatDivisor: 4
GridSize: 4
TimelineZoom: 1.9

[Metadata]
Title:Yotogibanashi no Kamikakushi
TitleUnicode:夜伽話の神隠し
Artist:Minstrel
ArtistUnicode:Minstrel
Creator:Ryuusei Aika
Version:Skubi's Insane
Source:東方萃夢想 ~ Immaterial and Missing Power.
Tags:Kyubey melleganol antigen Hynix Setu Skubi CptSqBany Garden Hey lululu lu^3 Japanese Metal LIQU@。 LIQU@. 東方Project Touhou Doujin 八雲紫 Yakumo Yukari 夜が降りてくる ~ Evening Star A Spiriting Away in the Night’s Fairy Tales yuta 富山の帝王
BeatmapID:3920273
BeatmapSetID:1900605

[Difficulty]
HPDrainRate:5
CircleSize:3.5
OverallDifficulty:7.5
ApproachRate:9
SliderMultiplier:1.8
SliderTickRate:1

[Events]
//Background and Video events
0,0,"30515802_p0.jpg",0,0
//Break Periods
2,42773,43423
2,66773,67423
//Storyboard Layer 0 (Background)
//Storyboard Layer 1 (Fail)
//Storyboard Layer 2 (Pass)
//Storyboard Layer 3 (Foreground)
//Storyboard Layer 4 (Overlay)
//Storyboard Sound Samples

[TimingPoints]
23,250,4,1,1,80,1,0
398,-80,4,1,1,80,0,0
1523,-100,4,1,1,80,0,0
2398,-80,4,1,1,80,0,0
3523,-133.333333333333,4,1,1,80,0,0
4023,-100,4,1,1,80,0,0
4398,-80,4,1,1,80,0,0
5523,-100,4,1,1,80,0,0
6398,-80,4,1,1,80,0,0
7523,-100,4,1,1,80,0,0
9523,-100,4,1,1,80,0,0
9898,-80,4,1,1,80,0,0
26023,-100,4,1,1,90,0,1
40648,-100,4,1,1,90,0,1
42023,-100,4,2,1,70,0,0
46023,-100,4,1,1,70,0,0
48023,-100,4,1,1,80,0,0
50023,-100,4,1,1,70,0,0
57898,-86.9565217391304,4,1,1,70,0,0
58523,-100,4,1,1,70,0,0
59023,-100,4,1,1,70,0,0
61898,-100,4,1,1,80,0,0
70023,-100,4,1,1,80,0,0
72398,-100,4,1,1,80,0,0
73023,-100,4,1,1,80,0,0
74023,-100,4,1,1,90,0,1
96648,-100,4,1,1,90,0,1
98023,-100,4,1,1,80,0,0
98398,-80,4,1,1,80,0,0
99523,-100,4,1,1,80,0,0
100398,-80,4,1,1,80,0,0
101523,-133.333333333333,4,1,1,80,0,0
102023,-100,4,1,1,80,0,0
102398,-80,4,1,1,80,0,0
103523,-100,4,1,1,80,0,0
104398,-80,4,1,1,80,0,0
105523,-100,4,1,1,80,0,0
107523,-100,4,1,1,80,0,0
107898,-80,4,1,1,80,0,0
110210,-100,4,1,1,10,0,0

[Colours]
Combo1 : 128,128,128
Combo2 : 128,0,255
Combo3 : 128,0,128
Combo4 : 128,128,192

[HitObjects]
28,117,23,6,0,P|65:89|86:30,1,90,4|0,0:0|0:0,0:0:0:0:
87,37,210,5,0,0:0:0:0:
88,25,273,1,0,0:0:0:0:
188,51,398,5,12,0:0:0:0:
188,51,523,1,0,0:0:0:0:
211,148,648,5,12,0:0:0:0:
211,148,773,1,0,0:0:0:0:
198,240,898,5,12,0:0:0:0:
198,240,1023,1,0,0:0:0:0:
152,320,1148,5,12,0:0:0:0:
239,344,1273,2,0,P|294:349|350:388,1,112.5,8|0,0:0|0:2,0:0:0:0:
512,384,1523,5,8,0:0:0:0:
512,384,1648,6,0,L|506:326,2,45,0|0|8,0:2|0:0|0:0,0:0:0:0:
512,384,1898,5,0,0:0:0:0:
421,309,2023,6,0,P|397:263|401:207,2,90,4|0|0,0:0|0:2|0:0,0:0:0:0:
464,175,2398,5,12,0:0:0:0:
464,175,2523,1,0,0:0:0:0:
395,108,2648,5,12,0:0:0:0:
395,108,2773,1,0,0:0:0:0:
304,88,2898,5,12,0:0:0:0:
272,0,3023,1,0,0:0:0:0:
220,123,3148,5,12,0:0:0:0:
139,91,3273,2,0,P|94:73|1:77,1,112.5,8|8,0:0|0:0,0:0:0:0:
68,190,3523,5,8,0:0:0:0:
68,190,3585,5,0,0:0:0:0:
68,190,3648,5,0,0:0:0:0:
68,190,3710,5,0,0:0:0:0:
68,190,3773,6,0,L|115:181,3,33.7500012874604
68,190,4023,6,0,P|56:246|56:317,1,90,4|0,0:0|0:0,0:0:0:0:
54,293,4210,5,0,0:0:0:0:
55,306,4273,1,0,0:0:0:0:
144,267,4398,5,12,0:0:0:0:
144,267,4523,1,0,0:0:0:0:
235,276,4648,5,12,0:0:0:0:
235,276,4773,1,0,0:0:0:0:
312,330,4898,5,12,0:0:0:0:
312,330,5023,1,0,0:0:0:0:
396,349,5148,5,12,0:0:0:0:
477,314,5273,2,0,P|487:265|476:185,1,112.5,8|0,0:0|0:0,0:0:0:0:
441,80,5523,6,0,P|443:108|454:132,3,45,8|0|0|0,0:0|0:0|0:0|0:0,0:0:0:0:
389,15,5773,2,0,P|370:37|361:62,3,45,8|0|0|0,0:0|0:0|0:0|0:0,0:0:0:0:
364,138,6023,6,0,P|316:158|259:146,2,90,4|0|0,0:0|0:0|0:0,0:0:0:0:
275,63,6398,5,12,0:0:0:0:
275,63,6523,1,0,0:0:0:0:
200,116,6648,5,12,0:0:0:0:
200,116,6773,1,0,0:0:0:0:
168,200,6898,5,12,0:0:0:0:
77,220,7023,1,0,0:0:0:0:
166,290,7148,5,12,0:0:0:0:
255,315,7273,2,0,P|306:314|363:275,1,112.5,8|8,0:0|0:0,0:0:0:0:
454,365,7523,5,8,0:0:0:0:
454,365,7585,5,0,0:0:0:0:
454,365,7648,5,0,0:0:0:0:
454,365,7710,5,0,0:0:0:0:
454,365,7773,6,0,L|503:371,3,45
443,267,8023,6,0,L|439:219,3,45
360,265,8273,2,0,L|356:217,3,45,8|0|0|0,0:0|0:0|0:0|0:0,0:0:0:0:
275,203,8523,6,0,L|279:155,3,45,8|0|0|0,0:0|0:0|0:0|0:0,0:0:0:0:
358,201,8773,2,0,L|362:153,3,45,8|0|0|0,0:0|0:0|0:0|0:0,0:0:0:0:
443,139,9023,5,0,0:0:0:0:
443,139,9148,2,0,L|439:91,1,45,8|8,0:0|0:0,0:0:0:0:
360,137,9273,5,8,0:0:0:0:
360,137,9398,2,0,L|356:89,1,45,8|0,0:0|0:0,0:0:0:0:
283,54,9523,5,8,0:0:0:0:
283,54,9648,2,0,P|220:32|127:36,1,135,4|0,0:0|2:0,0:0:0:0:
136,36,9898,6,0,B|141:142|31:134|34:252,1,225,4|0,0:0|0:0,0:0:0:0:
34,315,10273,5,10,0:2:0:0:
34,315,10398,1,0,0:0:0:0:
103,378,10523,5,10,0:2:0:0:
103,378,10648,1,0,0:0:0:0:
151,310,10773,5,10,0:2:0:0:
151,310,10898,1,0,0:0:0:0:
89,250,11023,5,10,0:2:0:0:
89,250,11148,1,0,0:0:0:0:
34,315,11273,5,10,0:2:0:0:
34,315,11398,1,0,0:0:0:0:
103,378,11523,5,8,0:0:0:0:
151,310,11648,2,0,P|174:244|165:180,1,112.5,8|8,0:0|0:0,0:0:0:0:
217,366,11898,6,0,B|336:394|311:301|424:304,1,225,4|0,0:2|0:0,0:0:0:0:
512,314,12273,5,10,0:2:0:0:
512,314,12398,1,0,0:0:0:0:
462,384,12523,5,10,0:2:0:0:
462,384,12648,1,0,0:0:0:0:
423,303,12773,5,10,0:2:0:0:
423,303,12898,1,0,0:0:0:0:
470,230,13023,5,10,0:2:0:0:
470,230,13148,1,0,0:0:0:0:
512,314,13273,5,10,0:2:0:0:
512,314,13398,1,0,0:0:0:0:
462,384,13523,5,8,0:0:0:0:
423,303,13648,2,0,P|380:272|301:259,1,112.5,8|8,0:0|0:0,0:0:0:0:
313,164,13898,6,0,P|240:198|184:347,1,225,4|0,0:0|0:0,0:0:0:0:
115,384,14273,5,10,0:2:0:0:
115,384,14398,1,0,0:0:0:0:
76,300,14523,5,10,0:2:0:0:
76,300,14648,1,0,0:0:0:0:
144,243,14773,5,12,0:2:0:0:
133,155,14898,2,0,P|110:108|46:65,1,112.5,12|8,0:2|0:0,0:0:0:0:
200,88,15148,6,0,P|252:91|321:57,1,112.5,0|8,0:0|0:0,0:0:0:0:
224,179,15398,5,0,0:0:0:0:
224,179,15523,2,0,P|194:222|189:299,2,112.5,10|8|10,0:2|0:0|0:2,0:0:0:0:
477,201,15898,6,0,P|425:204|275:297,1,225,0|8,0:0|0:0,0:0:0:0:
269,383,16273,1,8,0:0:0:0:
175,374,16523,5,0,0:0:0:0:
175,374,16648,1,8,0:0:0:0:
269,383,16773,5,8,0:0:0:0:
185,280,17023,5,8,0:0:0:0:
185,280,17148,1,0,0:0:0:0:
269,383,17273,5,8,0:0:0:0:
269,383,17398,1,0,0:0:0:0:
279,290,17523,5,12,0:2:0:0:
185,280,17648,1,12,0:2:0:0:
175,374,17773,5,12,0:2:0:0:
82,359,17898,2,0,B|91:250|-6:257|15:137,1,225,4|0,0:2|0:0,0:0:0:0:
24,67,18273,5,10,0:2:0:0:
24,67,18398,1,0,0:0:0:0:
101,122,18523,5,10,0:2:0:0:
101,122,18648,1,0,0:0:0:0:
159,50,18773,5,10,0:2:0:0:
159,50,18898,1,0,0:0:0:0:
81,2,19023,5,10,0:2:0:0:
81,2,19148,1,0,0:0:0:0:
24,67,19273,5,10,0:2:0:0:
24,67,19398,1,0,0:0:0:0:
101,122,19523,5,8,0:0:0:0:
159,50,19648,2,0,P|211:28|299:38,1,112.5,0|8,0:0|0:0,0:0:0:0:
428,38,19898,6,0,B|330:33|347:145|220:115,1,225,4|0,0:0|0:0,0:0:0:0:
174,188,20273,5,10,0:2:0:0:
174,188,20398,1,0,0:0:0:0:
101,122,20523,5,10,0:2:0:0:
101,122,20648,1,0,0:0:0:0:
159,50,20773,5,10,0:2:0:0:
159,50,20898,1,0,0:0:0:0:
229,116,21023,5,8,0:0:0:0:
229,116,21148,1,0,0:0:0:0:
174,188,21273,5,8,0:0:0:0:
174,188,21398,1,0,0:0:0:0:
101,122,21523,5,8,0:0:0:0:
61,203,21648,2,0,P|65:273|113:343,1,112.5,8|8,0:0|0:0,0:0:0:0:
144,380,21898,6,0,P|238:356|323:191,1,225,4|0,0:0|0:0,0:0:0:0:
333,173,22273,5,10,0:2:0:0:
333,173,22398,1,0,0:0:0:0:
249,200,22523,5,10,0:2:0:0:
249,200,22648,1,0,0:0:0:0:
315,259,22773,5,12,0:2:0:0:
400,242,22898,2,0,P|426:294|445:394,1,112.5,12|12,0:0|0:2,0:0:0:0:
497,232,23148,6,0,P|506:157|465:56,1,112.5,0|8,0:0|0:0,0:0:0:0:
330,88,23398,1,0,0:0:0:0:
330,88,23523,6,0,P|394:123|431:188,1,112.5,8|0,0:0|0:0,0:0:0:0:
448,27,23773,1,8,0:0:0:0:
448,27,23898,6,0,P|331:46|220:133,1,225,4|0,0:0|0:0,0:0:0:0:
234,116,24273,1,8,0:0:0:0:
217,12,24523,5,8,0:0:0:0:
217,12,24648,1,0,0:0:0:0:
234,116,24773,5,8,0:0:0:0:
333,154,25023,5,8,0:0:0:0:
333,154,25148,1,8,0:0:0:0:
234,116,25273,5,8,0:0:0:0:
234,116,25398,1,8,0:0:0:0:
137,152,25523,6,0,P|130:183|132:217,3,56.25,8|0|0|0,0:0|0:0|0:0|0:0,0:0:0:0:
48,233,25773,2,0,P|64:259|90:282,3,56.25,8|0|0|0,0:0|0:0|0:0|0:0,0:0:0:0:
163,283,26023,5,6,0:0:0:0:
107,356,26148,1,8,0:0:0:0:
248,327,26273,6,0,P|290:322|354:351,1,90,0|8,0:0|0:0,0:0:0:0:
417,313,26523,5,0,0:0:0:0:
417,313,26648,1,8,0:0:0:0:
293,220,26773,6,0,P|251:226|196:270,1,90,0|8,0:0|0:0,0:0:0:0:
378,231,27023,6,0,P|392:188|373:116,2,90,2|8|0,0:0|0:0|0:0,0:0:0:0:
475,233,27398,2,0,P|505:299|507:350,1,90,10|0,0:0|0:0,0:0:0:0:
474,148,27648,5,8,0:0:0:0:
474,148,27773,2,0,P|498:103|492:39,1,90,2|8,0:0|0:0,0:0:0:0:
387,0,28023,5,6,0:0:0:0:
409,86,28148,1,8,0:0:0:0:
293,42,28273,6,0,P|255:26|166:25,1,90,0|8,0:0|0:0,0:0:0:0:
105,61,28523,5,2,0:0:0:0:
105,61,28648,1,8,0:0:0:0:
141,142,28773,5,0,0:0:0:0:
141,142,28898,1,8,0:0:0:0:
52,184,29023,6,0,P|30:239|36:293,2,90,2|8|0,0:0|0:0|0:0,0:0:0:0:
176,303,29398,2,0,P|136:323|91:326,1,90,10|0,0:0|0:0,0:0:0:0:
133,160,29648,6,0,P|170:184|195:221,1,90,10|0,0:0|0:0,0:0:0:0:
255,281,29898,1,10,0:0:0:0:
288,178,30023,6,0,B|378:175|357:255|448:245,1,180,6|0,0:0|0:0,0:0:0:0:
494,373,30398,2,0,P|408:357|337:299,1,180,10|8,0:0|0:0,0:0:0:0:
446,245,30773,6,0,P|494:219|510:173,1,90,2|8,0:0|0:0,0:0:0:0:
352,134,31023,2,0,P|350:188|382:225,1,90,2|8,0:0|0:0,0:0:0:0:
499,101,31273,5,0,0:0:0:0:
499,101,31398,2,0,B|409:107|422:30|317:47,2,180,10|10|10,0:0|0:0|0:0,0:0:0:0:
476,9,32023,6,0,P|438:36|409:111,1,90,6|8,0:0|0:0,0:0:0:0:
352,134,32273,5,2,0:0:0:0:
352,134,32398,1,8,0:0:0:0:
475,186,32523,6,0,P|497:233|498:304,1,90,2|8,0:0|0:0,0:0:0:0:
379,337,32773,2,0,P|398:296|405:252,1,90,2|8,0:0|0:0,0:0:0:0:
301,365,33023,6,0,P|248:319|139:293,1,180,2|0,0:0|0:0,0:0:0:0:
19,347,33398,5,10,0:0:0:0:
103,368,33523,1,10,0:0:0:0:
143,292,33648,5,8,0:0:0:0:
62,272,33773,2,0,P|46:263|27:241,3,45,10|0|10|0,0:0|0:0|0:0|0:0,0:0:0:0:
98,198,34023,6,0,P|83:139|95:78,1,90,6|8,0:0|0:0,0:0:0:0:
116,35,34273,5,0,0:0:0:0:
116,35,34398,1,8,0:0:0:0:
173,140,34523,6,0,P|207:179|262:197,1,90,0|8,0:0|0:0,0:0:0:0:
338,97,34773,5,0,0:0:0:0:
255,108,34898,1,8,0:0:0:0:
351,10,35023,6,0,B|429:20|413:108|501:115,1,180,2|0,0:0|0:0,0:0:0:0:
440,240,35398,2,0,P|402:190|393:142,2,90,10|0|8,0:0|0:0|0:0,0:0:0:0:
512,199,35773,5,2,0:0:0:0:
512,199,35898,1,8,0:0:0:0:
512,315,36023,6,0,P|468:320|421:365,1,90,6|8,0:0|0:0,0:0:0:0:
370,288,36273,5,0,0:0:0:0:
424,362,36398,1,8,0:0:0:0:
308,380,36523,6,0,P|268:357|235:312,1,90,2|8,0:0|0:0,0:0:0:0:
293,255,36773,5,0,0:0:0:0:
293,255,36898,1,8,0:0:0:0:
182,218,37023,6,0,P|139:290|131:387,1,180,2|0,0:0|0:0,0:0:0:0:
14,364,37398,2,0,P|28:319|61:270,1,90,10|0,0:0|0:0,0:0:0:0:
50,125,37648,6,0,P|73:163|86:206,1,90,10|0,0:0|0:0,0:0:0:0:
192,211,37898,1,10,0:0:0:0:
279,212,38023,6,0,P|198:123|151:132,1,180,6|0,0:0|0:0,0:0:0:0:
74,24,38398,2,0,P|146:83|240:80,1,180,10|8,0:0|0:0,0:0:0:0:
301,39,38773,5,2,0:0:0:0:
301,39,38898,1,8,0:0:0:0:
332,116,39023,6,0,P|371:160|387:219,2,90,2|8|0,0:0|0:0|0:0,0:0:0:0:
422,24,39398,2,0,P|465:130|463:223,2,180,10|10|10,0:0|0:0|0:0,0:0:0:0:
301,39,40023,6,0,P|276:15|266:0,3,45,4|0|0|0,0:0|0:0|0:0|0:0,0:0:0:0:
229,83,40273,2,0,P|200:91|175:112,3,45,4|0|0|0,0:0|0:0|0:0|0:0,0:0:0:0:
260,164,40523,5,0,0:0:0:0:
332,116,40648,2,0,P|371:160|387:219,1,90,4|0,0:2|0:0,0:0:0:0:
258,313,40898,6,0,P|276:272|308:240,1,90,4|0,0:2|0:0,0:0:0:0:
387,273,41148,1,0,0:0:0:0:
415,383,41273,6,0,P|375:362|330:360,1,90,4|0,0:0|0:0,0:0:0:0:
258,313,41460,1,0,2:0:0:0:
258,313,41523,6,0,P|245:356|246:374,3,45,4|0|0|0,0:0|0:0|0:0|0:0,0:0:0:0:
152,335,41773,2,0,P|166:377|177:391,3,45
74,384,42023,5,4,0:2:0:0:
0,0,44023,5,0,0:0:0:0:
0,0,44523,1,0,0:0:0:0:
59,74,45023,6,0,L|62:125,2,45
5,4,45273,5,0,0:0:0:0:
5,4,45398,1,0,0:0:0:0:
59,74,45523,5,0,1:0:0:0:
164,28,45648,2,0,B|264:29|218:93|352:91,1,180,8|0,1:0|0:0,0:0:0:0:
468,66,46023,5,4,0:0:0:0:
390,34,46148,1,0,0:0:0:0:
327,90,46273,6,0,P|334:134|366:179,1,90
468,153,46523,2,0,P|477:109|467:65,1,90,8|0,0:0|0:0,0:0:0:0:
390,34,46773,5,0,0:0:0:0:
390,34,46898,1,0,0:0:0:0:
358,170,47023,6,0,P|348:214|358:258,1,90,8|0,0:0|0:0,0:0:0:0:
400,330,47273,5,0,0:0:0:0:
481,314,47398,1,0,0:0:0:0:
499,233,47523,6,0,P|491:189|467:152,1,90,8|0,0:0|0:0,0:0:0:0:
403,97,47773,5,8,0:0:0:0:
403,97,47898,1,8,0:0:0:0:
358,170,48023,5,8,0:0:0:0:
345,172,48085,5,0,0:0:0:0:
332,174,48148,6,0,L|287:181,2,45
328,51,48398,6,0,P|274:83|254:109,1,90,4|0,0:2|0:0,0:0:0:0:
185,15,48648,2,0,P|169:75|201:193,1,180,4|0,0:2|0:0,0:0:0:0:
97,215,49023,5,0,0:0:0:0:
110,233,49085,5,0,0:0:0:0:
126,248,49148,5,0,0:0:0:0:
145,260,49210,5,0,0:0:0:0:
166,269,49273,6,0,P|206:276|233:271,3,45,0|0|8|8,0:0|0:0|0:0|1:0,0:0:0:0:
241,356,49523,6,0,P|274:332|289:310,3,45
354,365,49773,6,0,P|361:325|355:297,3,45,8|0|8|0,0:0|0:0|0:0|0:0,0:0:0:0:
451,318,50023,6,0,P|445:296|398:231,1,90,4|0,0:0|0:0,0:0:0:0:
313,236,50273,5,0,0:0:0:0:
313,236,50398,1,0,0:0:0:0:
366,152,50523,6,0,P|428:141|465:149,1,90,8|0,0:0|0:0,0:0:0:0:
512,53,50773,5,0,0:0:0:0:
423,21,50898,1,0,0:0:0:0:
316,64,51023,6,0,P|268:52|230:13,1,90,8|0,0:0|0:0,0:0:0:0:
187,92,51273,5,0,0:0:0:0:
187,92,51398,1,0,0:0:0:0:
78,42,51523,6,0,P|114:16|158:8,1,90,8|0,0:0|0:0,0:0:0:0:
238,25,51773,1,0,0:0:0:0:
107,126,51898,6,0,B|90:206|168:210|136:332,1,180
73,364,52273,5,0,0:0:0:0:
141,315,52398,1,0,0:0:0:0:
203,384,52523,5,8,0:0:0:0:
203,384,52648,1,0,0:0:0:0:
292,338,52773,6,0,P|253:319|223:273,1,90,8|0,0:0|0:0,0:0:0:0:
305,249,53023,6,0,P|306:226|312:205,3,45,8|0|0|0,0:0|0:0|0:0|0:0,0:0:0:0:
392,244,53273,2,0,P|409:229|429:217,3,45,8|0|0|0,0:0|0:0|0:0|0:0,0:0:0:0:
455,300,53523,6,0,L|500:303,1,45,8|0,0:0|0:0,0:0:0:0:
460,310,53648,6,0,L|504:312,1,45,8|0,0:0|0:0,0:0:0:0:
463,318,53773,6,0,L|508:321,1,45,8|0,0:0|0:0,0:0:0:0:
468,328,53898,6,0,L|512:330,1,45,8|0,0:0|0:0,0:0:0:0:
408,384,54023,5,4,0:0:0:0:
408,384,54148,1,0,0:0:0:0:
333,345,54273,6,0,P|289:326|236:323,1,90
179,378,54523,5,8,0:0:0:0:
139,301,54648,1,0,0:0:0:0:
206,242,54773,6,0,P|207:190|174:136,1,90
40,189,55023,6,0,P|96:193|125:217,2,90,8|0|0,0:0|0:0|0:0,0:0:0:0:
26,196,55398,1,0,0:0:0:0:
53,58,55523,6,0,P|101:89|124:122,1,90,8|0,0:0|0:0,0:0:0:0:
191,155,55773,1,0,0:0:0:0:
295,69,55898,6,0,P|207:72|156:0,1,180
307,62,56273,2,0,P|352:42|420:51,1,90
472,74,56523,5,8,0:0:0:0:
472,74,56648,1,0,0:0:0:0:
426,193,56773,6,0,P|376:140|369:103,1,90,8|0,0:0|0:0,0:0:0:0:
507,181,57023,5,8,0:0:0:0:
508,201,57085,5,0,0:0:0:0:
505,216,57148,5,0,0:0:0:0:
500,230,57210,5,0,0:0:0:0:
492,243,57273,6,0,P|464:270|443:278,3,45,8|0|0|0,0:0|0:0|0:0|0:0,0:0:0:0:
447,277,57523,5,8,0:0:0:0:
468,361,57648,1,8,0:0:0:0:
371,125,57898,6,0,B|341:42|179:62|141:153|411:278|408:62,1,414.000007896424,12|0,0:0|0:0,0:0:0:0:
406,63,58460,1,0,0:0:0:0:
397,50,58523,5,4,0:0:0:0:
256,0,58710,5,4,0:0:0:0:
115,50,58898,5,4,0:0:0:0:
91,134,59023,6,0,P|88:166|91:192,3,45
178,181,59273,2,0,P|198:205|219:222,3,45
128,255,59523,6,0,P|122:284|96:318,7,45,8|8|8|8|8|8|8|8,0:0|0:0|0:0|0:0|0:0|0:0|0:0|0:0,0:0:0:0:
106,309,60023,5,4,0:0:0:0:
256,372,60210,5,4,0:0:0:0:
406,309,60398,5,4,0:0:0:0:
424,224,60523,6,0,P|427:192|424:166,3,45,8|0|0|0,0:0|0:0|0:0|0:0,0:0:0:0:
402,100,60773,2,0,P|372:113|351:129,3,45,8|0|0|0,0:0|0:0|0:0|0:0,0:0:0:0:
339,201,61023,5,12,0:0:0:0:
279,140,61148,1,4,0:0:0:0:
224,233,61273,5,12,0:0:0:0:
224,233,61398,1,4,0:0:0:0:
172,112,61523,5,12,0:0:0:0:
157,110,61585,5,0,0:0:0:0:
142,108,61648,6,0,L|97:101,2,45,0|0|8,0:0|0:0|0:0,0:0:0:0:
199,4,61898,6,0,B|76:22|76:22|36:34|18:77,1,180,4|0,0:0|0:2,0:0:0:0:
21,65,62210,5,0,0:0:0:0:
15,79,62273,2,0,P|19:136|59:178,1,90,10|0,0:2|0:0,0:0:0:0:
146,196,62523,6,0,L|268:214,1,90,10|0,0:2|0:0,0:0:0:0:
247,213,62710,5,0,0:0:0:0:
259,218,62773,2,0,P|291:254|296:315,1,90,10|8,0:2|0:0,0:0:0:0:
228,382,63023,5,10,0:2:0:0:
228,382,63148,1,0,0:0:0:0:
216,294,63273,5,10,0:2:0:0:
216,294,63398,1,8,0:0:0:0:
148,346,63523,5,10,0:2:0:0:
78,301,63648,2,0,L|12:305,2,45,8|0|8,0:0|0:0|0:0,0:0:0:0:
140,241,63898,5,0,0:0:0:0:
90,172,64023,5,12,0:0:0:0:
90,172,64148,2,0,L|93:127,1,45
169,81,64273,5,8,0:0:0:0:
169,81,64398,2,0,L|165:33,1,45,4|0,0:2|0:0,0:0:0:0:
233,183,64523,5,0,0:0:0:0:
233,183,64648,2,0,L|237:135,1,45,4|0,0:2|0:0,0:0:0:0:
308,87,64773,5,8,0:0:0:0:
308,87,64898,2,0,L|304:39,1,45,4|0,0:2|0:0,0:0:0:0:
374,145,65023,5,8,0:0:0:0:
389,151,65085,5,0,0:0:0:0:
404,153,65148,5,0,0:0:0:0:
421,151,65210,5,0,0:0:0:0:
432,143,65273,6,0,P|448:118|446:86,3,45,8|0|0|0,0:0|0:0|0:0|0:0,0:0:0:0:
448,91,65523,1,12,0:0:0:0:
256,192,66023,5,4,0:2:0:0:
256,192,68023,12,0,69898,2:0:0:0:
237,103,70023,5,12,0:0:0:0:
237,103,70148,1,0,0:0:0:0:
204,177,70273,5,0,0:0:0:0:
204,177,70398,1,0,0:0:0:0:
278,210,70523,5,8,0:0:0:0:
278,210,70648,1,0,0:0:0:0:
311,136,70773,5,0,0:0:0:0:
311,136,70898,1,0,0:0:0:0:
191,127,71023,5,8,0:0:0:0:
191,127,71148,1,0,0:0:0:0:
228,223,71273,5,0,0:0:0:0:
228,223,71398,1,0,0:0:0:0:
324,186,71523,5,8,0:0:0:0:
324,186,71648,1,0,0:0:0:0:
287,90,71773,5,8,0:0:0:0:
287,90,71898,1,0,0:0:0:0:
177,187,72023,6,0,L|123:192,4,45,12|0|0|0|8,0:0|0:0|0:0|0:0|0:0,0:0:0:0:
69,245,72398,6,0,L|60:341,1,90,4|0,0:2|0:0,0:0:0:0:
181,276,72648,2,0,L|189:186,1,90,4|0,0:2|0:0,0:0:0:0:
82,125,72898,5,0,0:0:0:0:
137,61,73023,5,0,0:0:0:0:
151,52,73085,5,0,0:0:0:0:
165,48,73148,5,0,0:0:0:0:
178,50,73210,5,0,0:0:0:0:
190,58,73273,6,0,P|215:75|260:82,3,45,0|0|4|0,0:0|0:0|0:0|0:0,0:0:0:0:
285,15,73523,6,0,P|314:9|351:-17,3,45,0|0|4|0,0:0|0:0|0:0|0:0,0:0:0:0:
309,96,73773,6,0,P|318:124|314:169,3,45,4|0|4|0,0:0|0:0|0:0|0:0,0:0:0:0:
387,63,74023,5,6,0:0:0:0:
453,9,74148,1,8,0:0:0:0:
437,133,74273,6,0,P|464:190|500:219,1,90,0|8,0:0|0:0,0:0:0:0:
374,217,74523,5,0,0:0:0:0:
374,217,74648,1,8,0:0:0:0:
299,268,74773,5,0,0:0:0:0:
299,268,74898,1,8,0:0:0:0:
251,188,75023,6,0,P|220:149|157:111,1,90,2|8,0:0|0:0,0:0:0:0:
106,97,75273,1,0,0:0:0:0:
85,240,75398,6,0,P|135:224|190:232,1,90,10|0,0:0|0:0,0:0:0:0:
221,307,75648,1,8,0:0:0:0:
100,351,75773,6,0,P|63:324|1:308,1,90,2|8,0:0|0:0,0:0:0:0:
178,383,76023,6,0,P|265:307|352:295,1,180,6|0,0:0|0:0,0:0:0:0:
424,327,76398,1,8,0:0:0:0:
482,268,76523,5,2,0:0:0:0:
482,268,76648,1,8,0:0:0:0:
366,219,76773,6,0,P|368:190|378:167,2,45,0|0|8,0:0|0:0|0:0,0:0:0:0:
284,215,77023,6,0,P|226:167|102:144,1,180,2|0,0:0|0:0,0:0:0:0:
104,302,77398,6,0,P|139:274|164:237,1,90,10|0,0:0|0:0,0:0:0:0:
30,131,77648,2,0,P|35:175|55:215,1,90,10|0,0:0|0:0,0:0:0:0:
144,58,77898,5,10,0:0:0:0:
144,58,78023,2,0,B|231:25|226:110|339:50,1,180,6|0,0:0|0:0,0:0:0:0:
384,5,78398,5,10,0:0:0:0:
395,91,78523,6,0,P|423:134|478:159,1,90,0|8,0:0|0:0,0:0:0:0:
302,232,78773,2,0,P|304:187|325:148,1,90,2|8,0:0|0:0,0:0:0:0:
487,248,79023,6,0,P|402:245|362:330,1,180,2|0,0:0|0:0,0:0:0:0:
229,383,79398,6,0,P|264:352|280:302,1,90,10|0,0:0|0:0,0:0:0:0:
185,297,79648,2,0,P|187:250|163:203,1,90,10|0,0:0|0:0,0:0:0:0:
45,274,79898,5,10,0:0:0:0:
106,338,80023,5,6,0:0:0:0:
106,338,80148,1,8,0:0:0:0:
185,298,80273,5,2,0:0:0:0:
185,298,80398,1,8,0:0:0:0:
170,211,80523,5,2,0:0:0:0:
170,211,80648,1,8,0:0:0:0:
83,195,80773,5,2,0:0:0:0:
83,195,80898,1,8,0:0:0:0:
30,127,81023,6,0,P|26:92|37:57,7,45,0|0|0|0|0|0|8|0,0:0|0:0|0:0|0:0|0:0|0:0|0:0|0:0,0:0:0:0:
106,44,81523,6,0,P|84:16|51:0,3,45,8|0|8|0,0:0|0:0|0:0|0:0,0:0:0:0:
153,119,81773,6,0,P|132:127|113:140,3,45,8|0|8|0,0:0|0:0|0:0|0:0,0:0:0:0:
189,44,82023,6,0,P|234:36|269:8,1,90,6|8,0:0|0:0,0:0:0:0:
347,50,82273,5,8,0:0:0:0:
347,50,82398,1,8,0:0:0:0:
316,158,82523,6,0,P|274:152|219:108,1,90,2|8,0:0|0:0,0:0:0:0:
184,196,82773,5,8,0:0:0:0:
237,262,82898,1,8,0:0:0:0:
126,296,83023,6,0,P|82:310|45:342,2,90,6|8|8,0:0|0:0|0:0,0:0:0:0:
272,384,83398,6,0,P|230:368|197:337,1,90,10|0,0:0|0:0,0:0:0:0:
202,168,83648,5,8,0:0:0:0:
202,168,83773,2,0,P|209:212|199:255,1,90,10|8,0:0|0:0,0:0:0:0:
70,223,84023,5,6,0:0:0:0:
59,135,84148,1,8,0:0:0:0:
17,39,84273,6,0,P|58:55|103:61,1,90,8|8,0:0|0:0,0:0:0:0:
168,5,84523,5,2,0:0:0:0:
168,5,84648,1,8,0:0:0:0:
247,49,84773,5,8,0:0:0:0:
247,49,84898,1,8,0:0:0:0:
332,51,85023,6,0,P|388:33|426:-5,2,90,6|8|8,0:0|0:0|0:0,0:0:0:0:
285,120,85398,6,0,P|272:163|277:208,1,90,14|8,0:0|0:0,0:0:0:0:
442,184,85648,6,0,P|411:151|370:133,1,90,14|8,0:0|0:0,0:0:0:0:
357,218,85898,1,14,0:0:0:0:
437,357,86023,6,0,B|347:360|368:280|277:290,1,180,6|8,0:0|0:0,0:0:0:0:
190,384,86398,2,0,P|276:368|347:310,1,180,14|8,0:0|0:0,0:0:0:0:
223,218,86773,6,0,P|190:270|191:321,1,90,14|8,0:0|0:0,0:0:0:0:
68,269,87023,2,0,P|96:323|146:367,1,90,6|8,0:0|0:0,0:0:0:0:
126,205,87273,5,8,0:0:0:0:
126,205,87398,2,0,B|132:115|55:128|72:23,2,180,14|14|14,0:0|0:0|0:0,0:0:0:0:
161,55,88023,6,0,P|199:82|228:157,1,90,6|8,0:0|0:0,0:0:0:0:
285,180,88273,5,14,0:0:0:0:
285,180,88398,1,8,0:0:0:0:
231,285,88523,6,0,P|209:238|208:167,1,90,6|8,0:0|0:0,0:0:0:0:
353,271,88773,2,0,P|348:322|313:384,1,90,14|8,0:0|0:0,0:0:0:0:
285,180,89023,6,0,P|351:128|473:124,1,180,6|8,0:0|0:0,0:0:0:0:
449,280,89398,5,14,0:0:0:0:
365,259,89523,1,14,0:0:0:0:
318,358,89648,5,14,0:0:0:0:
235,378,89773,2,0,P|215:366|201:349,3,45,8|0|14|0,0:0|0:0|0:0|0:0,0:0:0:0:
189,337,90023,6,0,P|144:336|101:349,1,90,6|8,0:0|0:0,0:0:0:0:
27,384,90273,5,8,0:0:0:0:
27,384,90398,1,8,0:0:0:0:
48,262,90523,6,0,P|90:227|143:208,1,90,2|8,0:0|0:0,0:0:0:0:
225,220,90773,5,8,0:0:0:0:
142,209,90898,1,8,0:0:0:0:
71,118,91023,6,0,P|171:103|242:25,1,180,6|8,0:0|0:0,0:0:0:0:
350,75,91398,2,0,P|312:25|303:-23,2,90,10|0|8,0:0|0:0|0:0,0:0:0:0:
437,73,91773,5,10,0:0:0:0:
437,73,91898,1,8,0:0:0:0:
330,159,92023,6,0,P|286:152|229:183,1,90,6|8,0:0|0:0,0:0:0:0:
169,221,92273,5,8,0:0:0:0:
79,207,92398,1,8,0:0:0:0:
187,313,92523,6,0,P|227:290|260:245,1,90,2|8,0:0|0:0,0:0:0:0:
244,168,92773,5,8,0:0:0:0:
244,168,92898,1,8,0:0:0:0:
342,168,93023,6,0,P|381:251|393:337,1,180,6|8,0:0|0:0,0:0:0:0:
476,384,93398,2,0,P|499:345|512:302,1,90,14|8,0:0|0:0,0:0:0:0:
445,148,93648,6,0,P|459:200|460:250,1,90,14|8,0:0|0:0,0:0:0:0:
381,93,93898,1,14,0:0:0:0:
295,98,94023,5,6,0:0:0:0:
295,98,94148,1,12,0:0:0:0:
190,30,94273,6,0,P|229:9|290:8,1,90,8|10,0:0|0:0,0:0:0:0:
229,155,94523,6,0,P|186:114|141:99,1,90,12|8,0:0|0:0,0:0:0:0:
73,92,94773,1,14,0:0:0:0:
93,239,94898,6,0,P|135:224|180:226,1,90,8|14,0:0|0:0,0:0:0:0:
254,264,95148,1,14,0:0:0:0:
144,355,95273,6,0,P|104:334|59:329,1,90,8|12,0:0|0:0,0:0:0:0:
225,342,95523,6,0,P|237:374|240:392,3,45,8|0|12|0,0:0|0:0|0:0|0:0,0:0:0:0:
306,322,95773,5,8,0:0:0:0:
320,319,95835,5,0,0:0:0:0:
334,313,95898,5,12,0:0:0:0:
345,303,95960,5,0,0:0:0:0:
354,289,96023,6,0,P|373:277|395:273,3,45,12|0|12|0,0:0|0:0|0:0|0:0,0:0:0:0:
459,220,96273,6,0,P|471:238|476:260,3,45,8|0|12|0,0:0|0:0|0:0|0:0,0:0:0:0:
386,171,96523,5,8,0:0:0:0:
317,212,96648,2,0,P|253:185|227:137,1,90,12|8,0:0|0:0,0:0:0:0:
180,301,96898,6,0,P|153:236|163:124,1,180,12|12,0:0|0:0,0:0:0:0:
386,8,97273,6,0,P|346:29|301:31,1,90,8|12,0:0|0:0,0:0:0:0:
229,78,97460,1,0,0:0:0:0:
229,78,97523,6,0,P|216:35|217:17,3,45,12|0|12|8,0:0|0:0|0:0|0:0,0:0:0:0:
123,56,97773,2,0,P|137:14|148:0,3,45,8|8|8|8,0:0|0:0|0:0|0:0,0:0:0:0:
35,48,98023,6,0,P|46:95|82:137,1,90,4|0,0:0|0:0,0:0:0:0:
82,135,98210,5,0,0:0:0:0:
96,135,98273,1,0,0:0:0:0:
174,176,98398,5,12,0:0:0:0:
174,176,98523,1,0,0:0:0:0:
205,262,98648,5,12,0:0:0:0:
205,262,98773,1,0,0:0:0:0:
184,353,98898,5,12,0:0:0:0:
184,353,99023,1,0,0:0:0:0:
100,373,99148,5,12,0:0:0:0:
39,316,99273,2,0,P|44:261|83:205,1,112.5,8|0,0:0|0:0,0:0:0:0:
174,176,99523,5,8,0:0:0:0:
174,176,99648,6,0,L|232:170,2,45,0|0|8,0:0|0:0|0:0,0:0:0:0:
174,176,99898,5,0,0:0:0:0:
94,114,100023,6,0,P|48:90|-8:94,2,90,4|0|0,0:0|0:0|0:0,0:0:0:0:
172,55,100398,5,12,0:0:0:0:
172,55,100523,1,0,0:0:0:0:
249,114,100648,5,12,0:0:0:0:
249,114,100773,1,0,0:0:0:0:
332,141,100898,5,12,0:0:0:0:
311,43,101023,1,0,0:0:0:0:
421,131,101148,5,12,0:0:0:0:
441,229,101273,2,0,P|449:293|446:350,1,112.5,8|0,0:0|0:0,0:0:0:0:
368,362,101523,5,8,0:0:0:0:
368,362,101585,5,0,0:0:0:0:
368,362,101648,5,0,0:0:0:0:
368,362,101710,5,0,0:0:0:0:
368,362,101773,6,0,L|321:353,2,33.7500012874604,8|0|0,0:0|0:0|0:0,0:0:0:0:
343,231,102023,6,0,P|298:255|268:299,1,90,8|8,0:0|0:0,0:0:0:0:
268,297,102210,5,0,0:0:0:0:
266,309,102273,1,8,0:0:0:0:
214,379,102398,5,12,0:0:0:0:
214,379,102523,1,0,0:0:0:0:
131,345,102648,5,12,0:0:0:0:
131,345,102773,1,0,0:0:0:0:
121,257,102898,5,12,0:0:0:0:
121,257,103023,1,0,0:0:0:0:
167,180,103148,5,8,0:0:0:0:
234,127,103273,2,0,P|236:78|208:15,1,112.5,8|8,0:0|0:0,0:0:0:0:
110,87,103523,6,0,P|138:89|162:100,3,45,8|0|8|8,0:0|0:0|0:0|0:0,0:0:0:0:
45,35,103773,2,0,P|67:16|92:7,3,45,8|0|0|0,0:0|0:0|0:0|0:0,0:0:0:0:
29,118,104023,6,0,P|49:166|37:223,2,90,4|0|0,0:0|0:0|0:0,0:0:0:0:
21,287,104398,5,12,0:0:0:0:
21,287,104523,1,0,0:0:0:0:
109,274,104648,5,12,0:0:0:0:
109,274,104773,1,0,0:0:0:0:
185,314,104898,5,12,0:0:0:0:
111,359,105023,1,0,0:0:0:0:
238,384,105148,5,12,0:0:0:0:
314,340,105273,2,0,P|370:353|416:384,1,112.5,8|0,0:0|0:0,0:0:0:0:
507,374,105523,5,8,0:0:0:0:
507,374,105585,5,0,0:0:0:0:
507,374,105648,5,0,0:0:0:0:
507,374,105710,5,0,0:0:0:0:
507,374,105773,6,0,L|513:325,3,45,8|0|0|0,0:0|0:0|0:0|0:0,0:0:0:0:
441,281,106023,6,0,L|396:284,3,45
329,237,106273,2,0,L|325:189,3,45,8|0|0|0,0:0|0:0|0:0|0:0,0:0:0:0:
378,133,106523,6,0,L|422:129,3,45,8|0|0|0,0:0|0:0|0:0|0:0,0:0:0:0:
477,73,106773,2,0,L|473:25,3,45,8|0|0|0,0:0|0:0|0:0|0:0,0:0:0:0:
401,0,107023,5,0,0:0:0:0:
401,0,107148,2,0,L|353:4,1,45,8|8,0:0|0:0,0:0:0:0:
313,77,107273,5,0,0:0:0:0:
313,77,107398,2,0,L|268:80,1,45,8|8,0:0|0:0,0:0:0:0:
235,158,107523,5,0,0:0:0:0:
235,158,107648,2,0,P|171:140|118:94,1,135,12|0,0:0|2:0,0:0:0:0:
188,32,107898,5,4,0:0:0:0:
256,192,107960,12,0,110210,0:0:0:0:
