osu file format v14

[General]
AudioFilename: audio.mp3
AudioLeadIn: 0
PreviewTime: 51923
Countdown: 0
SampleSet: Soft
StackLeniency: 0.7
Mode: 2
LetterboxInBreaks: 0
WidescreenStoryboard: 0

[Editor]
Bookmarks: 118753
DistanceSpacing: 1
BeatDivisor: 4
GridSize: 32
TimelineZoom: 2.799999

[Metadata]
Title:Heian Alien
TitleUnicode:平安エヰリアン
Artist:Minstrel
ArtistUnicode:Minstrel
Creator:-Ken
Version:Mysterious Collab
Source:東方星蓮船 ~ Undefined Fantastic Object.
Tags:th12 touhou vgm japanese rock j-rock jrock nue houjuu 封獣 ぬえ 東方Project Project 平安のエイリアン Ewirian 夜空のユーフォーロマンス YOZORA NO UFO-Romance 妖怪裏参道 Youkai Back Shrine Road LIQU@。 LIQU@. レジ yuta shota Godwood ぎゃぷいち UFO team shanghai alice あの日の蜃気楼 Ano Hi no Shinkirou The Mirage of That Day YTCD-0004 video game osu!catch world cup cwc 2023 CWC2023 Finals NM1 NoMod1 Rocma x_angelkawaii_x Jemzuu AJamez fa featured artist mappers' guild mpg
BeatmapID:4176765
BeatmapSetID:2007941

[Difficulty]
HPDrainRate:3
CircleSize:4.4
OverallDifficulty:9.8
ApproachRate:9.8
SliderMultiplier:2
SliderTickRate:1

[Events]
//Background and Video events
0,0,"bg.png",0,0
//Break Periods
//Storyboard Layer 0 (Background)
//Storyboard Layer 1 (Fail)
//Storyboard Layer 2 (Pass)
//Storyboard Layer 3 (Foreground)
//Storyboard Layer 4 (Overlay)
//Storyboard Sound Samples

[TimingPoints]
832,260.869565217391,4,2,3,60,1,0
832,-133.333333333333,4,2,3,60,0,0
897,-133.333333333333,4,2,1,60,0,0
4484,-133.333333333333,4,2,2,60,0,0
5005,-133.333333333333,4,2,2,80,0,0
5266,-133.333333333333,4,2,2,40,0,0
6049,-133.333333333333,4,2,2,20,0,0
6766,-133.333333333333,4,2,2,5,0,0
7092,-133.333333333333,4,2,1,50,0,0
8918,-133.333333333333,4,2,2,80,0,0
8984,-133.333333333333,4,2,1,50,0,0
9179,-100,4,2,1,60,0,0
13353,-100,4,2,3,60,0,0
13418,-100,4,2,1,60,0,0
34223,-100,4,2,3,70,0,0
34288,-100,4,2,1,60,0,0
35788,-100,4,2,2,70,0,0
35853,-100,4,2,1,60,0,0
36310,-100,4,2,1,70,0,0
36375,-100,4,2,1,60,0,0
37875,-100,4,2,2,70,0,0
38005,-100,4,2,1,60,0,0
38397,-100,4,2,3,60,0,0
38462,-100,4,2,1,60,0,0
39962,-100,4,2,2,70,0,0
40092,-100,4,2,1,60,0,0
42049,-100,4,2,2,70,0,0
42114,-100,4,2,1,60,0,0
42571,-100,4,2,3,80,0,0
42636,-100,4,2,1,60,0,0
51701,-100,4,2,2,80,0,0
51962,-80,4,2,1,70,0,1
72831,-80,4,2,1,60,0,0
77005,-100,4,2,1,60,0,0
81179,-100,4,2,3,60,0,0
81244,-100,4,2,1,60,0,0
102049,-100,4,2,3,70,0,0
102114,-100,4,2,1,60,0,0
103614,-100,4,2,2,70,0,0
103679,-100,4,2,1,60,0,0
104136,-100,4,2,1,70,0,0
104201,-100,4,2,1,60,0,0
105701,-100,4,2,2,70,0,0
105831,-100,4,2,1,60,0,0
106223,-100,4,2,3,60,0,0
106288,-100,4,2,1,60,0,0
107788,-100,4,2,2,70,0,0
107918,-100,4,2,1,60,0,0
109875,-100,4,2,2,70,0,0
109940,-100,4,2,1,60,0,0
118745,-100,4,2,3,60,0,0
118810,-100,4,2,1,60,0,0
127875,-100,4,2,2,60,0,0
128136,-80,4,2,1,70,0,1
152136,-80,4,2,1,60,0,0
154223,-50,4,2,1,60,0,0
156049,-50,4,2,2,70,0,0
156310,-76.9230769230769,4,2,1,60,0,0
157353,-76.9230769230769,4,2,3,60,0,0
157418,-76.9230769230769,4,2,1,60,0,0
159440,-76.9230769230769,4,2,3,60,0,0
159505,-76.9230769230769,4,2,1,60,0,0
161527,-76.9230769230769,4,2,3,60,0,0
161592,-76.9230769230769,4,2,1,60,0,0
165701,-76.9230769230769,4,2,3,60,0,0
165766,-76.9230769230769,4,2,1,60,0,0
167788,-76.9230769230769,4,2,3,60,0,0
167853,-76.9230769230769,4,2,1,60,0,0
169875,-76.9230769230769,4,2,3,60,0,0
169940,-76.9230769230769,4,2,1,60,0,0
173005,-47.6190476190476,4,2,1,60,0,0
173266,-76.9230769230769,4,2,1,60,0,0
174049,-76.9230769230769,4,2,3,60,0,0
174114,-76.9230769230769,4,2,1,60,0,0
176136,-76.9230769230769,4,2,3,60,0,0
176201,-76.9230769230769,4,2,1,60,0,0
178223,-76.9230769230769,4,2,3,60,0,0
178288,-76.9230769230769,4,2,1,60,0,0
189701,-100,4,2,3,70,0,0
189766,-100,4,2,1,60,0,0
191266,-100,4,2,2,70,0,0
191331,-100,4,2,1,60,0,0
191788,-100,4,2,1,70,0,0
191853,-100,4,2,1,60,0,0
193353,-100,4,2,2,70,0,0
193483,-100,4,2,1,60,0,0
193875,-100,4,2,3,60,0,0
193940,-100,4,2,1,60,0,0
195440,-100,4,2,2,70,0,0
195570,-100,4,2,1,60,0,0
197527,-100,4,2,2,70,0,0
197592,-100,4,2,1,60,0,0
198049,-100,4,2,3,80,0,0
198114,-100,4,2,1,60,0,0
206397,-181.818181818181,4,2,1,60,0,0
207440,-100,4,2,2,30,0,0
207962,-100,4,2,2,50,0,0
208679,-100,4,2,1,50,0,0
210571,-76.9230769230769,4,2,3,60,0,0
210636,-76.9230769230769,4,2,1,60,0,0
216831,-80,4,2,2,70,0,1
216897,-80,4,2,1,80,0,1
221005,-80,4,2,3,80,0,1
221071,-80,4,2,1,80,0,1
225179,-80,4,2,3,80,0,1
225245,-80,4,2,1,80,0,1
229353,-80,4,2,3,80,0,1
229418,-80,4,2,1,80,0,1
231440,-80,4,2,3,80,0,1
231505,-80,4,2,1,80,0,1
231962,-80,4,2,3,80,0,1
232027,-80,4,2,1,80,0,1
232484,-80,4,2,4,80,0,1
232549,-80,4,2,1,80,0,1
233527,-80,4,2,2,80,0,1
233658,-80,4,2,1,80,0,1
235614,-80,4,2,2,80,0,1
235679,-80,4,2,1,80,0,1
237701,-80,4,2,2,80,0,1
237766,-80,4,2,1,80,0,1
239788,-80,4,2,2,80,0,1
239853,-80,4,2,1,80,0,1
240831,-80,4,2,1,90,0,0
240962,-80,4,2,1,80,0,0
241158,-80,4,2,1,75,0,0
241288,-80,4,2,1,70,0,0
241484,-80,4,2,1,60,0,0
241679,-80,4,2,1,50,0,0

[Colours]
Combo1 : 218,80,83
Combo2 : 255,170,170
Combo3 : 181,181,181

[HitObjects]
256,318,832,6,0,L|88:319,1,150.000005722046,4|2,0:0|0:0,0:0:0:0:
256,318,1353,2,2,L|424:319,1,150.000005722046
233,258,1875,2,0,P|154:216|259:77,1,300.000011444092,2|0,0:3|0:0,0:0:0:0:
456,58,2658,1,2,0:0:0:0:
114,86,2918,6,2,P|44:134|131:309,2,300.000011444092,2|2|2,0:0|0:0|0:3,0:0:0:0:
369,97,4484,1,4,0:2:0:0:
23,87,5005,5,4,0:1:0:0:
24,74,5038,1,0,0:0:0:0:
256,192,5266,12,0,6766,0:0:0:0:
424,182,7092,6,2,L|259:184,1,150.000005722046,2|2,0:0|0:0,0:0:0:0:
122,290,7614,2,2,L|287:292,1,150.000005722046,2|2,0:2|0:2,0:0:0:0:
109,224,8136,2,0,P|69:196|132:121,1,150.000005722046,2|0,0:3|0:0,0:0:0:0:
445,140,8658,2,0,P|485:112|422:37,1,150.000005722046,2|4,0:3|0:0,0:0:0:0:
328,31,9049,1,0,1:0:0:0:
114,152,9179,6,0,L|196:152,1,50,4|0,1:0|0:0,0:0:0:0:
337,154,9310,1,0,0:0:0:0:
113,252,9440,2,0,L|58:247,1,50,10|0,0:1|0:0,0:0:0:0:
229,158,9701,1,0,0:0:0:0:
314,58,9831,2,0,L|243:53,1,50,2|0,1:0|0:0,0:0:0:0:
114,41,9962,1,8,0:1:0:0:
358,45,10092,6,0,L|458:53,1,100,2|0,1:0|0:0,0:0:0:0:
216,130,10353,1,2,1:0:0:0:
465,215,10484,1,8,0:1:0:0:
364,215,10614,2,0,L|360:102,1,100,2|0,0:1|1:0,0:0:0:0:
148,145,10875,1,2,1:1:0:0:
384,256,11005,1,10,0:1:0:0:
130,330,11136,1,2,0:1:0:0:
413,353,11266,6,0,L|323:358,1,50,0|0,1:0|1:0,0:0:0:0:
215,329,11397,2,0,L|280:329,1,50,0|0,1:0|1:0,0:0:0:0:
116,289,11527,2,0,L|108:210,1,50,10|0,0:1|0:0,0:0:0:0:
306,181,11788,1,0,0:0:0:0:
202,162,11918,1,2,1:1:0:0:
441,130,12049,1,8,0:1:0:0:
201,81,12179,6,0,L|0:81,1,200,2|0,1:0|1:0,0:0:0:0:
228,186,12571,1,8,0:1:0:0:
14,291,12701,2,0,L|127:290,1,100,2|0,0:1|1:0,0:0:0:0:
254,281,12897,1,0,1:0:0:0:
111,222,12962,2,0,L|35:222,1,50,0|0,1:0|1:0,0:0:0:0:
220,145,13092,2,0,L|355:141,1,100,8|0,0:1|0:0,0:0:0:0:
80,319,13353,6,0,L|80:258,1,50,4|0,1:2|1:0,0:0:0:0:
247,260,13484,2,0,L|248:199,1,50,0|0,1:0|1:0,0:0:0:0:
418,205,13614,2,0,L|420:84,1,100,10|0,0:1|0:0,0:0:0:0:
291,93,13875,1,0,0:0:0:0:
60,184,14005,2,0,L|179:183,1,100,2|8,1:0|0:1,0:0:0:0:
395,172,14266,6,0,L|179:171,1,200,2|2,1:0|1:0,0:0:0:0:
422,94,14658,1,8,0:1:0:0:
296,84,14788,1,2,0:1:0:0:
43,201,14918,1,0,1:0:0:0:
169,191,15048,1,0,1:0:0:0:
392,168,15179,1,10,0:1:0:0:
151,108,15310,1,2,0:1:0:0:
403,262,15440,6,0,L|468:264,1,50,2|0,1:0|1:0,0:0:0:0:
281,347,15571,2,0,L|374:347,1,50,0|0,1:0|1:0,0:0:0:0:
181,268,15701,2,0,L|105:266,1,50,10|0,0:1|0:0,0:0:0:0:
287,180,15962,1,0,0:0:0:0:
497,84,16092,2,0,L|365:86,1,100,2|8,1:0|0:1,0:0:0:0:
178,108,16353,2,2,L|393:98,1,200,2|2,1:1|1:1,0:0:0:0:
180,189,16745,1,10,0:1:0:0:
425,237,16875,1,2,0:1:0:0:
167,337,17005,5,10,1:1:0:0:
317,283,17071,1,8,1:0:0:0:
168,216,17136,2,0,L|91:213,1,50,8|8,1:0|1:0,0:0:0:0:
300,153,17266,2,0,L|492:151,1,150,8|0,0:1|0:0,0:0:0:0:
219,82,17527,6,0,L|161:82,2,50,6|0|0,1:2|1:0|1:0,0:0:0:0:
17,186,17788,2,0,L|127:190,1,100,10|0,0:1|1:0,0:0:0:0:
334,243,18049,1,2,0:1:0:0:
128,295,18179,2,0,L|246:305,1,100,0|10,1:0|0:1,0:0:0:0:
20,216,18440,1,0,1:0:0:0:
259,190,18571,6,0,L|264:67,1,100,2|0,0:1|1:0,0:0:0:0:
481,73,18831,1,10,0:1:0:0:
259,42,18962,1,0,1:0:0:0:
371,79,19092,1,2,0:1:0:0:
161,182,19223,2,0,L|230:181,1,50,0|0,1:0|1:0,0:0:0:0:
53,275,19353,2,0,L|47:152,1,100,10|0,0:1|1:0,0:0:0:0:
300,134,19614,6,0,L|234:134,2,50,2|0|0,1:1|1:0|1:0,0:0:0:0:
505,226,19875,2,0,L|384:224,1,100,10|0,0:1|1:0,0:0:0:0:
180,256,20136,1,2,0:1:0:0:
395,318,20266,1,0,1:0:0:0:
105,336,20397,2,0,L|103:227,1,100,10|0,0:1|1:0,0:0:0:0:
491,180,20658,6,0,L|373:178,1,100,2|0,0:1|1:0,0:0:0:0:
142,150,20918,2,0,L|260:148,1,100,10|0,0:1|1:0,0:0:0:0:
475,111,21179,1,2,0:1:0:0:
250,175,21310,2,0,L|243:251,1,50,0|0,1:0|1:0,0:0:0:0:
413,264,21440,1,8,0:1:0:0:
209,325,21571,1,0,1:0:0:0:
462,353,21701,6,0,L|385:352,2,50,6|0|0,1:2|1:0|1:0,0:0:0:0:
261,312,21962,2,0,L|149:312,1,100,10|0,0:1|0:0,0:0:0:0:
388,224,22223,1,2,0:1:0:0:
150,184,22353,2,0,L|266:179,1,100,0|10,1:0|0:1,0:0:0:0:
490,160,22614,1,0,0:0:0:0:
246,58,22745,6,0,L|239:183,1,100,2|0,0:1|1:0,0:0:0:0:
11,197,23005,1,10,0:1:0:0:
236,259,23136,1,0,1:0:0:0:
115,308,23266,1,2,0:1:0:0:
340,320,23397,2,0,L|408:320,1,50,0|0,1:0|1:0,0:0:0:0:
246,191,23527,2,0,L|349:191,1,100,10|0,0:1|1:0,0:0:0:0:
91,103,23788,6,0,L|19:109,2,50,2|0|0,1:0|1:0|1:0,0:0:0:0:
286,149,24049,2,0,L|157:160,1,100,10|0,0:1|1:0,0:0:0:0:
416,205,24310,1,2,0:1:0:0:
190,294,24440,2,0,L|313:287,1,100,0|10,1:0|0:1,0:0:0:0:
78,235,24701,1,0,1:0:0:0:
418,325,24831,5,2,0:1:0:0:
209,237,24962,2,0,L|323:232,2,100,0|8|0,1:0|1:0|1:0,0:0:0:0:
471,209,25353,2,12,L|476:138,1,50,14|12,1:3|1:3,0:0:0:0:
312,128,25484,2,12,L|374:124,1,50,12|12,1:3|1:3,0:0:0:0:
214,153,25614,2,0,L|205:264,1,100,8|0,1:0|1:0,0:0:0:0:
487,341,25875,6,0,L|155:340,1,300,4|0,1:2|1:0,0:0:0:0:
328,281,26331,1,0,1:0:0:0:
176,235,26397,2,0,L|406:228,1,200,8|0,0:1|0:0,0:0:0:0:
283,179,26788,2,4,L|278:107,1,50,4|4,1:3|1:3,0:0:0:0:
71,87,26918,6,0,L|58:207,1,100,10|0,0:1|1:0,0:0:0:0:
293,167,27179,2,8,L|302:269,1,100,8|8,1:3|1:3,0:0:0:0:
71,335,27440,2,0,L|235:334,1,150,8|8,0:1|0:1,0:0:0:0:
356,290,27701,1,8,0:1:0:0:
216,237,27766,1,8,0:1:0:0:
66,216,27831,6,0,P|30:198|85:75,1,200,4|0,1:2|1:0,0:0:0:0:
284,65,28223,2,0,L|145:62,1,100,8|0,0:1|0:0,0:0:0:0:
410,159,28484,1,2,1:0:0:0:
186,204,28614,1,0,1:0:0:0:
426,250,28745,1,8,0:1:0:0:
178,297,28875,1,2,0:1:0:0:
287,262,29005,6,0,L|289:134,1,100,0|0,1:0|1:0,0:0:0:0:
65,106,29266,1,8,0:1:0:0:
291,69,29397,1,0,0:0:0:0:
60,267,29527,2,0,L|169:267,1,100,2|0,1:0|1:0,0:0:0:0:
280,222,29788,2,8,L|220:222,1,50,8|8,1:0|1:0,0:0:0:0:
375,160,29918,2,8,L|433:157,1,50,8|8,1:0|1:0,0:0:0:0:
240,90,30049,6,0,P|137:126|125:238,1,200,4|0,1:2|0:0,0:0:0:0:
236,287,30440,2,0,L|162:289,1,50,0|0,1:0|1:0,0:0:0:0:
360,216,30571,2,0,L|504:210,1,100,8|0,0:1|0:0,0:0:0:0:
241,146,30831,1,0,0:0:0:0:
447,121,30962,2,0,L|458:214,1,50,0|0,1:0|1:0,0:0:0:0:
283,266,31092,6,0,L|425:262,1,100,10|0,0:1|1:0,0:0:0:0:
151,213,31353,2,0,L|14:216,1,100,2|0,1:1|1:0,0:0:0:0:
287,130,31614,1,10,0:1:0:0:
42,99,31745,1,2,0:1:0:0:
285,60,31875,2,8,L|199:59,1,50,8|8,0:1|0:1,0:0:0:0:
25,171,32005,6,0,L|254:166,1,200,4|0,1:2|1:0,0:0:0:0:
454,200,32397,1,8,0:1:0:0:
226,244,32527,1,0,0:0:0:0:
346,273,32658,1,0,1:0:0:0:
118,317,32788,1,0,1:0:0:0:
366,336,32918,2,0,L|489:335,1,100,8|0,0:1|1:0,0:0:0:0:
242,234,33179,5,2,1:0:0:0:
470,212,33310,2,0,L|471:103,1,100,0|8,1:0|0:1,0:0:0:0:
259,91,33571,1,0,1:0:0:0:
27,135,33701,1,10,0:1:0:0:
237,186,33831,2,8,L|239:261,1,50,8|8,0:1|0:1,0:0:0:0:
77,299,33962,1,8,0:1:0:0:
286,331,34092,1,8,0:1:0:0:
27,331,34223,5,4,1:2:0:0:
161,277,34353,2,0,L|102:277,1,50,2|0,1:0|1:0,0:0:0:0:
30,269,34484,1,10,0:1:0:0:
228,177,34614,2,0,L|169:177,1,50,2|0,1:0|1:0,0:0:0:0:
97,169,34745,1,8,0:1:0:0:
292,285,34875,2,0,L|233:285,1,50,2|0,1:0|1:0,0:0:0:0:
70,271,35006,1,10,0:1:0:0:
183,236,35136,1,2,1:0:0:0:
406,180,35266,5,8,0:1:0:0:
171,119,35397,2,2,L|275:123,1,100,2|10,1:0|0:1,0:0:0:0:
27,189,35658,2,0,L|96:189,1,50,2|0,1:0|1:0,0:0:0:0:
273,230,35788,1,6,1:2:0:0:
158,287,35918,2,0,L|224:288,1,50,0|0,1:0|1:0,0:0:0:0:
367,316,36049,2,0,L|254:317,1,100,8|2,0:1|1:0,0:0:0:0:
485,331,36310,5,4,1:2:0:0:
351,277,36440,2,0,L|410:277,1,50,2|0,1:0|1:0,0:0:0:0:
482,269,36571,1,10,0:1:0:0:
284,177,36701,2,0,L|343:177,1,50,2|0,1:0|1:0,0:0:0:0:
415,169,36832,1,10,0:1:0:0:
220,285,36962,2,0,L|279:285,1,50,2|0,1:0|1:0,0:0:0:0:
442,271,37092,1,10,0:1:0:0:
222,223,37223,1,2,1:0:0:0:
487,178,37353,5,8,0:1:0:0:
267,113,37484,2,2,L|163:117,1,100,2|10,1:0|0:1,0:0:0:0:
294,201,37745,2,0,L|225:201,1,50,2|0,1:0|1:0,0:0:0:0:
50,214,37875,1,6,0:2:0:0:
294,270,38005,2,8,L|360:271,1,50,8|8,1:0|1:0,0:0:0:0:
172,351,38136,2,8,L|285:352,1,100,8|8,0:1|0:1,0:0:0:0:
329,348,38331,1,8,0:1:0:0:
142,291,38397,5,4,1:2:0:0:
13,237,38527,2,0,L|73:234,1,50,2|0,1:0|1:0,0:0:0:0:
130,228,38658,1,10,0:1:0:0:
353,187,38788,2,0,L|293:184,1,50,2|0,1:0|1:0,0:0:0:0:
236,178,38919,1,8,0:1:0:0:
13,237,39049,2,0,L|73:234,1,50,2|0,1:0|1:0,0:0:0:0:
231,189,39179,2,2,L|120:187,1,100,10|2,0:1|1:0,0:0:0:0:
362,124,39440,5,8,0:1:0:0:
115,94,39571,2,2,L|228:96,1,100,2|10,1:0|0:1,0:0:0:0:
342,178,39831,2,0,L|263:169,1,50,2|0,1:0|1:0,0:0:0:0:
128,180,39962,1,6,1:2:0:0:
246,230,40092,2,0,L|335:246,1,50,0|0,1:0|1:0,0:0:0:0:
119,328,40223,2,2,L|113:208,1,100,10|2,0:1|1:0,0:0:0:0:
370,291,40484,5,6,1:2:0:0:
499,237,40614,2,0,L|439:234,1,50,2|0,1:0|1:0,0:0:0:0:
382,228,40745,1,10,0:1:0:0:
159,187,40875,2,0,L|219:184,1,50,2|0,1:0|1:0,0:0:0:0:
276,178,41006,1,8,0:1:0:0:
499,237,41136,2,0,L|439:234,1,50,2|0,1:0|1:0,0:0:0:0:
281,189,41266,2,2,L|392:187,1,100,10|2,0:1|1:0,0:0:0:0:
150,124,41527,5,8,0:1:0:0:
397,94,41658,2,2,L|284:96,1,100,2|10,1:0|0:1,0:0:0:0:
170,178,41918,2,0,L|249:169,1,50,2|0,1:0|1:0,0:0:0:0:
384,180,42049,1,6,1:2:0:0:
266,230,42179,2,8,L|177:246,1,50,10|8,1:0|1:0,0:0:0:0:
393,328,42310,2,10,L|399:208,1,100,10|10,0:1|1:0,0:0:0:0:
148,267,42571,6,0,P|99:216|170:173,1,150,4|0,1:2|0:0,0:0:0:0:
314,125,42831,2,0,L|128:125,1,150,8|0,0:1|0:0,0:0:0:0:
329,229,43092,2,0,L|214:230,1,100,0|0,1:0|1:0,0:0:0:0:
439,347,43353,2,0,L|324:349,1,100,10|0,0:1|0:0,0:0:0:0:
103,328,43614,6,0,L|274:324,1,150,0|0,1:0|0:0,0:0:0:0:
76,241,43875,2,0,L|245:237,1,150,8|0,0:1|0:0,0:0:0:0:
421,198,44136,1,2,1:0:0:0:
222,147,44266,1,0,0:0:0:0:
431,106,44397,2,0,L|440:239,1,100,8|0,0:1|0:0,0:0:0:0:
218,315,44658,6,0,L|463:311,1,200,2|8,1:0|0:1,0:0:0:0:
197,222,45049,1,2,0:1:0:0:
412,155,45179,2,0,L|307:158,1,100,0|0,1:0|1:0,0:0:0:0:
91,148,45440,2,0,L|196:151,1,100,10|0,0:1|0:0,0:0:0:0:
420,237,45701,5,2,1:0:0:0:
218,271,45831,1,0,0:0:0:0:
426,342,45962,2,0,L|436:229,1,100,10|0,0:1|0:0,0:0:0:0:
185,105,46223,1,2,1:0:0:0:
387,139,46353,1,0,1:0:0:0:
179,210,46484,2,0,L|169:97,1,100,10|0,0:1|0:0,0:0:0:0:
397,282,46745,6,0,L|161:284,1,200,6|8,1:2|0:1,0:0:0:0:
418,215,47136,1,2,0:1:0:0:
174,193,47266,2,0,L|159:70,1,100,0|0,1:0|1:0,0:0:0:0:
395,68,47527,2,0,L|228:68,1,150,10|0,0:1|0:0,0:0:0:0:
89,145,47788,6,0,L|190:141,1,100,0|0,1:0|0:0,0:0:0:0:
312,205,48049,2,0,L|211:201,1,100,10|0,0:1|0:0,0:0:0:0:
404,139,48310,5,2,1:0:0:0:
199,96,48440,1,0,1:0:0:0:
409,284,48571,2,0,L|520:284,1,100,10|0,0:1|0:0,0:0:0:0:
246,249,48831,6,0,L|69:251,1,150,2|0,1:0|0:0,0:0:0:0:
294,165,49092,2,0,L|436:157,1,100,8|0,0:1|0:0,0:0:0:0:
173,104,49353,1,0,1:0:0:0:
402,248,49484,1,0,1:0:0:0:
166,303,49614,2,2,L|41:302,1,100,10|2,0:1|0:0,0:0:0:0:
283,247,49875,6,0,L|288:72,1,150,8|0,1:2|0:0,0:0:0:0:
480,72,50136,1,8,1:1:0:0:
237,38,50266,1,0,1:0:0:0:
434,145,50397,1,8,1:0:0:0:
191,111,50527,1,0,1:0:0:0:
281,171,50658,1,8,1:0:0:0:
38,137,50788,1,8,1:0:0:0:
402,335,50918,6,0,P|464:292|389:215,1,200,4|0,1:2|0:0,0:0:0:0:
256,208,51310,1,4,1:3:0:0:
381,175,51375,1,4,1:3:0:0:
249,131,51440,2,0,L|126:131,1,100,8|0,0:1|0:0,0:0:0:0:
381,264,51701,2,0,L|499:264,1,100,6|0,1:2|0:0,0:0:0:0:
198,285,51962,6,0,L|37:289,1,125,4|0,1:0|0:0,0:0:0:0:
272,177,52223,2,0,L|125:180,1,125,8|2,0:1|0:1,0:0:0:0:
393,117,52484,1,0,1:0:0:0:
135,69,52614,2,0,L|372:55,1,187.5,2|0,1:0|0:0,0:0:0:0:
138,160,52875,6,0,L|129:292,1,125,2|0,1:1|0:0,0:0:0:0:
317,329,53136,1,0,1:0:0:0:
127,352,53266,2,0,L|267:350,1,125,10|0,0:1|0:0,0:0:0:0:
490,272,53527,2,0,L|313:274,1,125,2|0,1:1|1:0,0:0:0:0:
129,222,53788,1,10,0:1:0:0:
360,175,53918,1,0,0:0:0:0:
118,85,54049,6,0,P|18:128|14:214,1,187.5,2|0,1:0|0:0,0:0:0:0:
238,245,54310,1,10,0:1:0:0:
28,305,54440,1,2,0:1:0:0:
260,329,54571,2,0,L|405:335,1,125,2|0,1:0|1:0,0:0:0:0:
197,204,54831,2,0,L|45:209,1,125,10|0,0:1|1:0,0:0:0:0:
321,60,55092,5,2,1:1:0:0:
79,77,55223,1,0,1:0:0:0:
265,136,55353,2,0,L|97:153,1,125,10|0,0:1|0:0,0:0:0:0:
353,290,55614,2,0,L|359:148,1,125,2|0,1:0|1:0,0:0:0:0:
117,125,55875,2,0,L|264:113,1,125,10|0,0:1|0:0,0:0:0:0:
474,256,56136,6,0,L|188:251,1,250,6|8,1:2|0:1,0:0:0:0:
479,163,56527,1,2,0:1:0:0:
226,108,56658,2,0,L|85:116,1,125,0|2,1:0|1:1,0:0:0:0:
360,171,56918,1,8,0:1:0:0:
106,313,57049,6,0,L|388:305,1,250,2|0,1:0|1:0,0:0:0:0:
148,231,57440,1,10,0:1:0:0:
348,204,57571,1,0,0:0:0:0:
90,143,57701,1,2,1:0:0:0:
285,125,57832,1,0,1:0:0:0:
34,57,57962,1,10,0:1:0:0:
352,36,58093,1,0,0:0:0:0:
20,283,58223,6,0,L|176:279,1,125,2|0,1:0|1:0,0:0:0:0:
364,249,58484,1,8,0:1:0:0:
136,196,58614,1,2,0:1:0:0:
359,86,58745,2,0,L|203:82,1,125,0|0,1:0|1:0,0:0:0:0:
175,137,58940,1,0,1:0:0:0:
233,186,59005,1,10,0:1:0:0:
22,276,59136,1,2,1:0:0:0:
303,315,59266,6,0,L|464:323,1,125,0|0,0:0|1:0,0:0:0:0:
198,194,59527,2,0,L|359:202,1,125,10|0,0:1|0:0,0:0:0:0:
96,84,59788,2,0,L|183:86,1,62.5,2|0,1:0|1:0,0:0:0:0:
429,91,59918,1,0,1:0:0:0:
146,214,60049,1,10,0:1:0:0:
366,214,60179,1,0,1:0:0:0:
82,322,60310,6,0,L|367:335,1,250,6|8,1:2|0:1,0:0:0:0:
75,221,60701,1,2,0:1:0:0:
337,174,60831,2,0,L|213:163,1,125,0|0,1:0|1:0,0:0:0:0:
470,186,61092,2,0,L|475:334,1,125,10|0,0:1|1:0,0:0:0:0:
254,81,61353,5,0,0:0:0:0:
479,64,61484,2,0,L|318:61,1,125,0|8,1:0|0:1,0:0:0:0:
89,62,61745,1,0,0:0:0:0:
311,189,61875,2,0,L|187:178,1,125,2|0,1:0|1:0,0:0:0:0:
415,342,62136,2,0,L|291:331,1,125,10|0,0:1|0:0,0:0:0:0:
67,317,62397,5,2,1:0:0:0:
277,266,62527,1,0,1:0:0:0:
49,182,62658,2,0,L|212:180,1,125,8|2,0:1|0:1,0:0:0:0:
402,279,62918,5,0,1:0:0:0:
192,228,63048,1,0,1:0:0:0:
420,144,63179,1,10,0:1:0:0:
295,99,63310,2,0,L|23:103,1,250,0|0,1:0|1:0,0:0:0:0:
248,203,63701,1,8,0:1:0:0:
37,257,63831,1,0,0:0:0:0:
264,203,63962,1,0,1:0:0:0:
475,257,64092,1,0,1:0:0:0:
189,318,64223,2,0,L|350:318,1,125,8|0,0:1|0:0,0:0:0:0:
85,229,64484,6,0,L|81:80,1,125,4|0,1:2|0:0,0:0:0:0:
288,68,64745,1,8,0:1:0:0:
67,40,64875,2,0,L|224:42,1,125,2|0,0:1|1:0,0:0:0:0:
419,135,65136,2,0,L|259:133,1,125,2|8,1:1|0:1,0:0:0:0:
28,263,65397,6,0,L|296:268,1,250,2|0,1:1|1:0,0:0:0:0:
500,193,65788,2,0,L|365:191,1,125,10|0,0:1|0:0,0:0:0:0:
154,98,66049,2,0,L|316:101,1,125,2|0,1:0|1:0,0:0:0:0:
58,210,66310,1,10,0:1:0:0:
278,272,66440,1,0,1:0:0:0:
47,335,66571,5,4,1:2:0:0:
245,301,66701,2,0,L|351:301,1,62.5,0|0,1:0|1:0,0:0:0:0:
161,234,66831,1,8,1:0:0:0:
375,206,66962,1,0,1:0:0:0:
106,158,67092,1,8,1:0:0:0:
414,126,67223,1,0,1:0:0:0:
57,84,67353,1,8,1:0:0:0:
457,37,67484,2,0,L|363:37,1,62.5,8|8,1:0|1:0,0:0:0:0:
182,96,67614,6,0,L|283:92,1,62.5,10|4,1:1|1:3,0:0:0:0:
403,150,67745,2,0,L|409:240,1,62.5,4|4,1:3|1:3,0:0:0:0:
340,233,67875,2,0,L|336:304,1,62.5,4|4,1:3|1:3,0:0:0:0:
96,170,68005,6,0,L|197:166,1,62.5,10|8,1:1|1:3,0:0:0:0:
317,224,68136,2,0,L|323:314,1,62.5,8|8,1:3|1:3,0:0:0:0:
161,298,68266,2,0,L|157:369,1,62.5,8|8,1:1|1:3,0:0:0:0:
340,358,68397,6,0,L|263:363,1,62.5,10|4,1:1|1:3,0:0:0:0:
22,350,68527,2,0,L|110:349,1,62.5,4|4,1:3|1:3,0:0:0:0:
367,258,68658,6,0,L|295:262,1,62.5,4|0,1:0|1:0,0:0:0:0:
247,263,68788,1,0,1:0:0:0:
473,171,68918,1,8,0:1:0:0:
238,146,69049,2,0,L|311:146,1,62.5,0|0,1:0|1:0,0:0:0:0:
481,95,69179,1,8,0:1:0:0:
251,69,69310,1,0,1:0:0:0:
363,132,69440,1,8,0:1:0:0:
133,106,69571,1,0,1:0:0:0:
481,95,69701,5,8,0:1:0:0:
251,69,69832,1,0,1:0:0:0:
363,132,69962,1,8,0:1:0:0:
133,106,70092,2,0,L|223:108,1,62.5,0|0,1:0|1:0,0:0:0:0:
365,183,70223,1,8,0:1:0:0:
163,236,70353,1,0,1:0:0:0:
435,287,70484,1,8,0:1:0:0:
143,357,70614,1,0,1:0:0:0:
351,364,70745,6,0,L|359:216,1,125,4|0,1:2|1:0,0:0:0:0:
127,102,71005,1,8,0:1:0:0:
324,131,71136,2,0,L|403:89,1,62.5,0|0,1:0|1:0,0:0:0:0:
238,224,71266,1,8,0:1:0:0:
434,253,71397,2,0,L|507:223,1,62.5,0|0,1:0|1:0,0:0:0:0:
302,192,71527,2,0,L|428:132,1,125,8|0,0:1|1:0,0:0:0:0:
165,304,71788,6,0,L|20:306,1,125,8|0,0:1|1:0,0:0:0:0:
273,233,72049,1,8,0:1:0:0:
39,181,72179,2,0,L|131:181,1,62.5,0|0,1:0|1:0,0:0:0:0:
269,344,72310,2,0,L|124:346,1,125,8|0,0:1|1:0,0:0:0:0:
200,341,72505,1,0,1:0:0:0:
379,322,72571,1,8,0:1:0:0:
182,217,72701,1,0,1:0:0:0:
387,109,72831,6,0,L|245:113,1,125,8|0,1:2|1:0,0:0:0:0:
483,211,73092,1,8,0:1:0:0:
270,258,73223,2,0,L|197:221,1,62.5,0|0,1:0|1:0,0:0:0:0:
390,177,73353,5,8,0:1:0:0:
200,160,73484,2,0,L|113:121,1,62.5,0|0,1:0|1:0,0:0:0:0:
313,75,73614,2,0,L|464:75,1,125,8|0,0:1|1:0,0:0:0:0:
161,78,73875,6,0,L|26:79,1,125,8|0,0:1|1:0,0:0:0:0:
263,159,74136,1,8,0:1:0:0:
34,216,74266,2,0,L|120:215,1,62.5,0|0,1:0|1:0,0:0:0:0:
283,257,74397,1,8,0:1:0:0:
98,312,74527,2,0,L|89:243,1,62.5,0|0,1:0|1:0,0:0:0:0:
285,209,74658,2,0,L|156:136,1,125,8|0,0:1|1:0,0:0:0:0:
454,222,74918,6,0,L|459:78,1,125,4|0,1:2|1:1,0:0:0:0:
255,81,75179,1,8,0:1:0:0:
382,80,75310,2,0,L|390:161,1,62.5,0|0,1:1|1:1,0:0:0:0:
190,214,75440,1,8,0:1:0:0:
321,240,75571,2,0,L|327:323,1,62.5,0|0,1:1|1:1,0:0:0:0:
134,346,75701,2,0,L|126:204,1,125,8|0,0:1|1:1,0:0:0:0:
406,169,75962,6,0,L|202:164,2,166.666666666667,8|8|4,1:2|1:3|1:3,0:0:0:0:
155,327,76484,2,0,L|311:228,2,166.666666666667,12|4|4,1:3|1:3|1:3,0:0:0:0:
398,152,77005,6,0,L|316:152,1,50,4|0,1:0|0:0,0:0:0:0:
175,154,77136,1,0,0:0:0:0:
399,252,77266,2,0,L|454:247,1,50,10|0,0:1|0:0,0:0:0:0:
283,158,77527,1,0,0:0:0:0:
367,62,77657,2,0,L|296:57,1,50,2|0,1:0|0:0,0:0:0:0:
167,45,77788,1,8,0:1:0:0:
450,54,77918,6,0,L|350:62,1,100,2|0,1:0|0:0,0:0:0:0:
130,128,78179,1,2,1:0:0:0:
366,194,78310,1,8,0:1:0:0:
251,199,78440,2,0,L|239:84,1,100,2|0,1:1|0:1,0:0:0:0:
21,111,78701,1,2,1:1:0:0:
263,258,78831,1,10,0:1:0:0:
23,318,78962,1,2,0:1:0:0:
313,363,79092,6,0,L|403:368,1,50,0|0,1:0|1:0,0:0:0:0:
179,291,79223,2,0,L|244:291,1,50,0|0,1:0|1:0,0:0:0:0:
385,291,79353,2,0,L|393:212,1,50,10|0,0:1|0:0,0:0:0:0:
220,180,79614,1,0,0:0:0:0:
324,161,79744,1,2,1:1:0:0:
71,130,79875,1,8,0:1:0:0:
311,81,80005,6,0,L|512:81,1,200,2|0,1:0|1:0,0:0:0:0:
284,186,80397,1,8,0:1:0:0:
498,291,80527,2,0,L|385:290,1,100,2|0,0:1|1:0,0:0:0:0:
258,281,80723,1,0,1:0:0:0:
401,222,80788,2,0,L|477:222,1,50,0|0,1:0|1:0,0:0:0:0:
292,145,80918,2,0,L|157:141,1,100,8|0,0:1|0:0,0:0:0:0:
432,319,81179,6,0,L|432:258,1,50,4|0,1:2|1:0,0:0:0:0:
265,260,81310,2,0,L|264:199,1,50,0|0,1:0|1:0,0:0:0:0:
94,205,81440,2,0,L|92:84,1,100,10|0,0:1|0:0,0:0:0:0:
221,93,81701,1,0,0:0:0:0:
452,184,81831,2,0,L|333:183,1,100,2|8,1:0|0:1,0:0:0:0:
117,172,82092,6,0,L|333:171,1,200,2|2,1:0|1:0,0:0:0:0:
90,94,82484,1,8,0:1:0:0:
216,84,82614,1,2,0:1:0:0:
469,201,82744,1,0,1:0:0:0:
343,191,82874,1,0,1:0:0:0:
120,168,83005,1,10,0:1:0:0:
361,108,83136,1,2,0:1:0:0:
109,262,83266,6,0,L|171:261,1,50,2|0,1:0|1:0,0:0:0:0:
313,336,83397,2,0,L|220:336,1,50,0|0,1:0|1:0,0:0:0:0:
413,257,83527,2,0,L|489:255,1,50,10|0,0:1|0:0,0:0:0:0:
309,180,83788,1,0,0:0:0:0:
102,83,83918,2,0,L|234:85,1,100,2|8,1:0|0:1,0:0:0:0:
0,203,84179,2,0,L|215:193,1,200,2|2,1:1|1:1,0:0:0:0:
447,237,84571,1,10,0:1:0:0:
202,285,84701,1,2,0:1:0:0:
491,342,84831,5,10,1:1:0:0:
331,314,84897,1,8,1:0:0:0:
170,278,84962,2,0,L|247:275,1,50,8|8,1:0|1:0,0:0:0:0:
378,183,85092,2,0,L|186:181,1,150,8|0,0:1|0:0,0:0:0:0:
51,109,85353,6,0,L|109:109,2,50,6|0|0,1:2|1:0|1:0,0:0:0:0:
251,166,85614,2,0,L|361:170,1,100,10|0,0:1|1:0,0:0:0:0:
112,245,85875,1,2,0:1:0:0:
354,305,86005,2,0,L|236:315,1,100,0|10,1:0|0:1,0:0:0:0:
454,221,86266,1,0,1:0:0:0:
249,189,86397,6,0,L|244:66,1,100,2|0,0:1|1:0,0:0:0:0:
31,73,86657,1,10,0:1:0:0:
253,42,86788,1,0,1:0:0:0:
141,79,86918,1,2,0:1:0:0:
351,182,87049,2,0,L|282:181,1,50,0|0,1:0|1:0,0:0:0:0:
459,275,87179,2,0,L|465:152,1,100,10|0,0:1|1:0,0:0:0:0:
212,134,87440,6,0,L|278:134,2,50,2|0|0,1:1|1:0|1:0,0:0:0:0:
7,226,87701,2,0,L|128:224,1,100,10|0,0:1|1:0,0:0:0:0:
332,256,87962,1,2,0:1:0:0:
117,318,88092,1,0,1:0:0:0:
407,336,88223,2,0,L|409:227,1,100,10|0,0:1|1:0,0:0:0:0:
21,180,88484,6,0,L|139:178,1,100,2|0,0:1|1:0,0:0:0:0:
370,150,88744,2,0,L|252:148,1,100,10|0,0:1|1:0,0:0:0:0:
37,111,89005,1,2,0:1:0:0:
262,175,89136,2,0,L|334:181,1,50,0|0,1:0|1:0,0:0:0:0:
175,265,89266,1,8,0:1:0:0:
379,326,89397,1,0,1:0:0:0:
99,352,89527,6,0,L|50:353,2,50,6|0|0,1:2|1:0|1:0,0:0:0:0:
351,312,89788,2,0,L|251:312,1,100,10|0,0:1|0:0,0:0:0:0:
479,246,90049,1,2,0:1:0:0:
245,175,90179,2,0,L|344:179,1,100,0|10,1:0|0:1,0:0:0:0:
122,161,90440,1,0,0:0:0:0:
347,72,90571,6,0,L|354:197,1,100,2|0,0:1|1:0,0:0:0:0:
127,226,90831,1,10,0:1:0:0:
365,260,90962,1,0,1:0:0:0:
259,302,91092,1,2,0:1:0:0:
16,349,91223,2,0,L|66:349,1,50,0|0,1:0|1:0,0:0:0:0:
258,221,91353,2,0,L|155:221,1,100,10|0,0:1|1:0,0:0:0:0:
421,103,91614,6,0,L|493:109,2,50,2|0|0,1:0|1:0|1:0,0:0:0:0:
226,149,91875,2,0,L|355:160,1,100,10|0,0:1|1:0,0:0:0:0:
96,205,92136,1,2,0:1:0:0:
322,294,92266,2,0,L|199:287,1,100,0|10,1:0|0:1,0:0:0:0:
434,235,92527,1,0,1:0:0:0:
94,325,92657,5,2,0:1:0:0:
303,237,92788,2,0,L|189:232,2,100,0|8|0,1:0|1:0|1:0,0:0:0:0:
41,209,93179,2,0,L|36:138,1,50,14|12,1:3|1:3,0:0:0:0:
210,126,93310,2,0,L|148:122,1,50,12|12,1:3|1:3,0:0:0:0:
328,152,93440,2,0,L|337:263,1,100,8|0,1:0|1:0,0:0:0:0:
25,341,93701,6,0,L|357:340,1,300,4|0,1:2|1:0,0:0:0:0:
184,281,94157,1,0,1:0:0:0:
329,235,94223,2,0,L|99:228,1,200,8|0,0:1|0:0,0:0:0:0:
229,179,94614,2,0,L|234:107,1,50,4|4,1:3|1:3,0:0:0:0:
441,87,94744,6,0,L|454:207,1,100,10|0,0:1|1:0,0:0:0:0:
219,167,95005,2,0,L|345:163,1,100,8|8,1:3|1:3,0:0:0:0:
89,297,95266,2,0,L|253:296,1,150,8|8,0:1|0:1,0:0:0:0:
90,263,95527,1,8,0:1:0:0:
235,235,95592,1,8,0:1:0:0:
389,218,95657,6,0,P|425:200|370:77,1,200,4|0,1:2|1:0,0:0:0:0:
130,65,96049,2,0,L|269:62,1,100,8|0,0:1|0:0,0:0:0:0:
452,125,96310,1,2,1:0:0:0:
228,167,96440,1,0,1:0:0:0:
209,322,96571,1,8,0:1:0:0:
499,279,96701,1,2,0:1:0:0:
379,258,96831,6,0,L|377:130,1,100,0|0,1:0|1:0,0:0:0:0:
157,130,97092,1,8,0:1:0:0:
382,86,97223,1,0,0:0:0:0:
157,310,97353,2,0,L|266:310,1,100,2|0,1:0|1:0,0:0:0:0:
478,242,97614,2,0,L|418:242,1,50,8|8,1:0|1:0,0:0:0:0:
274,217,97744,2,0,L|332:214,1,50,8|8,1:0|1:0,0:0:0:0:
166,128,97875,6,0,P|63:164|51:276,1,200,4|0,1:2|0:0,0:0:0:0:
177,318,98266,2,0,L|181:252,1,50,0|0,1:0|1:0,0:0:0:0:
338,209,98397,2,0,L|194:203,1,100,8|0,0:1|0:0,0:0:0:0:
39,203,98657,1,0,0:0:0:0:
230,113,98788,2,0,L|241:206,1,50,0|0,1:0|1:0,0:0:0:0:
35,292,98918,6,0,L|177:288,1,100,10|0,0:1|1:0,0:0:0:0:
361,213,99179,2,0,L|498:216,1,100,2|0,1:1|1:0,0:0:0:0:
225,130,99440,1,10,0:1:0:0:
470,99,99571,1,2,0:1:0:0:
227,60,99701,2,0,L|313:59,1,50,8|8,1:1|1:1,0:0:0:0:
487,171,99831,6,0,L|258:166,1,200,4|0,1:2|1:0,0:0:0:0:
58,200,100223,1,8,0:1:0:0:
286,244,100353,1,0,0:0:0:0:
166,273,100484,1,0,1:0:0:0:
394,317,100614,1,0,1:0:0:0:
146,336,100744,2,0,L|23:335,1,100,8|0,0:1|1:0,0:0:0:0:
270,234,101005,5,2,1:0:0:0:
42,212,101136,2,0,L|41:103,1,100,0|8,1:0|0:1,0:0:0:0:
253,91,101397,1,0,1:0:0:0:
485,135,101527,1,10,0:1:0:0:
275,186,101657,2,0,L|273:261,1,50,8|8,0:1|0:1,0:0:0:0:
435,299,101788,1,8,0:1:0:0:
226,331,101918,1,8,0:1:0:0:
485,331,102049,5,4,1:2:0:0:
351,277,102179,2,0,L|410:277,1,50,2|0,1:0|1:0,0:0:0:0:
482,269,102310,1,10,0:1:0:0:
284,177,102440,2,0,L|343:177,1,50,2|0,1:0|1:0,0:0:0:0:
415,169,102571,1,8,0:1:0:0:
220,285,102701,2,0,L|279:285,1,50,2|0,1:0|1:0,0:0:0:0:
442,271,102832,1,10,0:1:0:0:
329,236,102962,1,2,1:0:0:0:
106,180,103092,5,8,0:1:0:0:
341,119,103223,2,0,L|237:123,1,100,2|10,1:0|0:1,0:0:0:0:
485,189,103484,2,0,L|416:189,1,50,2|0,1:0|1:0,0:0:0:0:
239,230,103614,1,6,1:2:0:0:
354,287,103744,2,0,L|288:288,1,50,0|0,1:0|1:0,0:0:0:0:
145,316,103875,2,0,L|258:317,1,100,8|2,0:1|1:0,0:0:0:0:
27,331,104136,5,4,1:2:0:0:
161,277,104266,2,0,L|102:277,1,50,2|0,1:0|1:0,0:0:0:0:
30,269,104397,1,10,0:1:0:0:
228,177,104527,2,0,L|169:177,1,50,2|0,1:0|1:0,0:0:0:0:
97,169,104658,1,10,0:1:0:0:
292,285,104788,2,0,L|233:285,1,50,2|0,1:0|1:0,0:0:0:0:
70,271,104919,1,10,0:1:0:0:
290,223,105049,1,2,1:0:0:0:
25,178,105179,5,8,0:1:0:0:
245,113,105310,2,0,L|349:117,1,100,2|10,1:0|0:1,0:0:0:0:
218,201,105571,2,0,L|287:201,1,50,2|0,1:0|1:0,0:0:0:0:
462,214,105701,1,6,0:2:0:0:
218,270,105831,2,0,L|152:271,1,50,8|8,1:0|1:0,0:0:0:0:
340,351,105962,2,0,L|227:352,1,100,8|8,0:1|0:1,0:0:0:0:
183,348,106157,1,8,0:1:0:0:
370,291,106223,5,4,1:2:0:0:
499,237,106353,2,0,L|439:234,1,50,2|0,1:0|1:0,0:0:0:0:
382,228,106484,1,10,0:1:0:0:
159,187,106614,2,0,L|219:184,1,50,2|0,1:0|1:0,0:0:0:0:
276,178,106745,1,8,0:1:0:0:
499,237,106875,2,0,L|439:234,1,50,2|0,1:0|1:0,0:0:0:0:
281,189,107005,2,0,L|392:187,1,100,10|2,0:1|1:0,0:0:0:0:
150,124,107266,5,8,0:1:0:0:
397,94,107397,2,0,L|284:96,1,100,2|10,1:0|0:1,0:0:0:0:
170,178,107657,2,0,L|249:169,1,50,2|0,1:0|1:0,0:0:0:0:
384,180,107788,1,6,1:2:0:0:
266,230,107918,2,0,L|177:246,1,50,0|0,1:0|1:0,0:0:0:0:
393,328,108049,2,0,L|399:208,1,100,10|2,0:1|1:0,0:0:0:0:
142,291,108310,5,6,1:2:0:0:
13,237,108440,2,0,L|73:234,1,50,2|0,1:0|1:0,0:0:0:0:
130,228,108571,1,10,0:1:0:0:
353,187,108701,2,0,L|293:184,1,50,2|0,1:0|1:0,0:0:0:0:
236,178,108832,1,8,0:1:0:0:
13,237,108962,2,0,L|73:234,1,50,2|0,1:0|1:0,0:0:0:0:
231,189,109092,2,0,L|120:187,1,100,10|2,0:1|1:0,0:0:0:0:
362,124,109353,5,8,0:1:0:0:
115,94,109484,2,0,L|228:96,1,100,2|10,1:0|0:1,0:0:0:0:
342,178,109744,2,0,L|263:169,1,50,2|0,1:0|1:0,0:0:0:0:
128,180,109875,1,6,1:2:0:0:
246,230,110005,2,0,L|335:246,1,50,10|8,1:0|1:0,0:0:0:0:
119,328,110136,2,0,L|113:208,1,100,10|10,0:1|1:0,0:0:0:0:
442,264,110397,5,4,1:2:0:0:
190,176,110527,1,2,1:2:0:0:
322,176,110658,1,2,1:2:0:0:
70,264,110788,1,2,1:2:0:0:
322,176,111049,5,2,0:2:0:0:
190,176,111180,1,2,1:2:0:0:
442,264,111310,1,2,0:2:0:0:
190,176,111571,5,2,1:2:0:0:
322,176,111702,1,2,1:2:0:0:
190,176,111831,1,2,1:2:0:0:
431,264,111962,1,10,1:0:0:0:
187,302,112092,2,0,L|185:233,1,50,8|8,0:3|0:3,0:0:0:0:
260,248,112223,2,0,L|258:172,1,50,4|4,0:3|0:3,0:0:0:0:
334,305,112353,2,0,L|332:236,1,50,4|4,0:3|0:3,0:0:0:0:
70,264,112484,5,6,1:2:0:0:
322,176,112614,1,2,1:2:0:0:
190,176,112745,1,2,1:2:0:0:
442,264,112875,1,2,1:2:0:0:
190,176,113136,5,2,0:2:0:0:
322,176,113267,1,2,1:2:0:0:
70,264,113397,1,2,0:2:0:0:
322,176,113658,5,0,1:2:0:0:
190,176,113789,1,0,1:2:0:0:
322,176,113918,1,0,1:2:0:0:
81,264,114049,1,8,1:1:0:0:
325,302,114179,2,0,L|327:233,1,50,8|0,0:1|0:0,0:0:0:0:
244,233,114310,2,0,L|306:194,1,50,8|0,0:1|0:0,0:0:0:0:
369,182,114440,2,0,L|371:113,1,50,4|4,0:3|0:3,0:0:0:0:
193,67,114571,6,0,L|102:70,1,50,8|0,1:2|0:0,0:0:0:0:
209,128,114701,2,0,L|282:128,1,50,8|8,0:1|0:1,0:0:0:0:
112,235,114831,2,0,L|111:186,1,50,8|8,0:1|0:1,0:0:0:0:
262,262,114962,2,0,L|263:212,1,50,8|4,0:2|0:3,0:0:0:0:
419,216,115092,5,8,0:1:0:0:
319,158,115223,2,0,L|373:155,1,50,8|8,0:3|0:3,0:0:0:0:
501,141,115353,1,8,0:2:0:0:
401,83,115484,2,0,L|455:80,1,50,8|8,0:3|0:3,0:0:0:0:
256,96,115614,5,4,1:3:0:0:
506,247,115745,1,4,1:2:0:0:
307,254,115875,1,8,0:1:0:0:
108,273,116005,1,8,1:0:0:0:
345,177,116136,6,0,L|271:177,1,50,8|0,1:0|0:0,0:0:0:0:
145,184,116266,2,0,L|82:184,1,50,4|4,0:3|0:3,0:0:0:0:
260,83,116397,2,0,L|186:83,1,50,8|8,0:1|0:1,0:0:0:0:
60,90,116527,2,0,L|-3:90,1,50,8|8,0:1|0:1,0:0:0:0:
254,212,116658,6,0,L|258:278,1,50,8|8,0:3|0:3,0:0:0:0:
195,311,116788,2,0,L|260:271,1,50,4|4,0:3|0:3,0:0:0:0:
305,302,116918,2,0,L|254:304,1,50,8|8,0:3|0:3,0:0:0:0:
191,239,117049,2,0,L|280:236,1,50,4|4,0:3|0:3,0:0:0:0:
418,203,117179,5,4,1:2:0:0:
181,144,117310,1,8,0:1:0:0:
451,99,117440,1,8,1:0:0:0:
172,50,117571,1,8,1:0:0:0:
297,48,117701,1,8,1:2:0:0:
70,135,117831,2,0,L|81:192,1,50,4|4,0:3|0:3,0:0:0:0:
226,208,117962,2,0,L|246:281,1,50,8|0,0:1|0:0,0:0:0:0:
94,162,118092,2,0,L|115:246,1,50,4|4,0:3|0:3,0:0:0:0:
260,351,118223,2,0,L|379:348,1,100,8|8,1:2|0:1,0:0:0:0:
310,345,118418,1,8,0:1:0:0:
451,286,118484,2,0,L|304:285,1,100,8|12,0:1|0:3,0:0:0:0:
148,267,118745,6,0,P|140:157|181:146,1,150,4|0,1:2|0:0,0:0:0:0:
315,65,119005,2,0,L|179:66,1,100,8|0,0:1|0:0,0:0:0:0:
448,200,119266,2,0,L|449:75,1,100,0|0,1:0|1:0,0:0:0:0:
224,164,119527,6,0,L|323:162,1,100,10|0,0:1|0:0,0:0:0:0:
103,328,119788,2,0,L|274:324,1,150,0|0,1:0|0:0,0:0:0:0:
76,241,120049,2,0,L|180:237,1,100,8|0,0:1|0:0,0:0:0:0:
409,204,120310,5,2,1:0:0:0:
203,154,120440,1,0,0:0:0:0:
419,112,120571,2,0,L|428:245,1,100,8|0,0:1|0:0,0:0:0:0:
199,308,120832,6,0,L|444:304,1,200,2|8,1:0|0:1,0:0:0:0:
197,222,121223,1,2,0:1:0:0:
409,113,121353,2,0,L|410:228,1,100,0|0,1:0|1:0,0:0:0:0:
91,148,121614,6,0,L|196:151,1,100,10|0,0:1|0:0,0:0:0:0:
420,237,121875,1,2,1:0:0:0:
218,271,122005,1,0,0:0:0:0:
420,237,122136,2,0,L|300:266,1,100,10|0,0:1|0:0,0:0:0:0:
100,78,122397,1,2,1:0:0:0:
302,112,122527,1,0,1:0:0:0:
100,78,122658,2,0,L|212:132,1,100,10|0,0:1|0:0,0:0:0:0:
409,270,122918,6,0,P|454:202|363:121,1,200,6|8,1:2|0:1,0:0:0:0:
173,224,123310,2,0,L|174:115,1,100,2|0,0:1|1:0,0:0:0:0:
388,121,123571,1,0,1:0:0:0:
143,71,123701,6,0,L|310:71,1,150,10|0,0:1|0:0,0:0:0:0:
449,148,123962,2,0,L|348:144,1,100,0|0,1:0|0:0,0:0:0:0:
118,207,124223,6,0,L|242:205,1,100,10|0,0:1|0:0,0:0:0:0:
447,149,124484,2,0,L|338:147,1,100,2|0,1:0|1:0,0:0:0:0:
119,103,124745,1,10,0:1:0:0:
338,87,124875,1,0,0:0:0:0:
119,103,125005,5,2,1:0:0:0:
348,198,125136,1,0,0:0:0:0:
119,103,125266,1,8,0:1:0:0:
374,220,125397,1,0,0:0:0:0:
126,152,125527,1,0,1:0:0:0:
261,139,125658,1,0,1:0:0:0:
60,223,125788,5,10,0:1:0:0:
312,190,125918,1,2,0:0:0:0:
64,258,126049,1,8,1:2:0:0:
276,284,126179,1,0,0:0:0:0:
42,185,126310,1,8,1:1:0:0:
305,223,126440,1,0,1:0:0:0:
22,120,126571,1,8,1:0:0:0:
324,156,126701,1,0,1:0:0:0:
266,153,126766,1,8,1:0:0:0:
102,95,126831,2,0,L|217:93,1,100,8|8,1:0|1:0,0:0:0:0:
405,205,127092,5,4,1:2:0:0:
405,205,127223,1,4,1:3:0:0:
405,205,127288,1,4,1:3:0:0:
261,203,127353,1,8,0:1:0:0:
157,141,127484,1,4,1:3:0:0:
221,141,127549,1,4,1:3:0:0:
391,132,127614,5,8,0:1:0:0:
391,132,127679,1,8,0:3:0:0:
211,83,127745,1,4,0:3:0:0:
274,84,127810,1,4,0:3:0:0:
114,297,127875,2,0,L|249:296,1,100,6|0,1:2|0:0,0:0:0:0:
450,298,128136,6,0,L|451:152,1,125,4|0,1:0|0:0,0:0:0:0:
252,192,128397,2,0,L|407:191,1,125,8|2,0:1|0:1,0:0:0:0:
130,118,128658,1,0,1:0:0:0:
391,69,128788,2,0,L|244:65,1,125,2|8,1:0|0:1,0:0:0:0:
32,107,129049,6,0,L|32:238,1,125,2|0,1:1|0:0,0:0:0:0:
241,233,129310,1,0,1:0:0:0:
476,127,129440,2,0,L|305:119,1,125,10|0,0:1|0:0,0:0:0:0:
115,172,129701,2,0,L|286:164,1,125,2|0,1:1|1:0,0:0:0:0:
476,127,129962,1,10,0:1:0:0:
256,146,130092,1,0,0:0:0:0:
477,47,130223,6,0,L|272:48,1,187.5,2|0,1:0|0:0,0:0:0:0:
477,47,130484,1,10,0:1:0:0:
269,88,130614,1,2,0:1:0:0:
496,169,130745,6,0,L|496:14,1,125,2|0,1:0|1:0,0:0:0:0:
300,182,131005,2,0,L|300:27,1,125,10|0,0:1|1:0,0:0:0:0:
60,59,131266,5,2,1:1:0:0:
275,57,131397,1,0,1:0:0:0:
60,59,131527,2,0,L|59:202,1,125,10|0,0:1|0:0,0:0:0:0:
288,290,131788,6,0,L|130:288,1,125,2|0,1:0|1:0,0:0:0:0:
394,190,132049,2,0,L|245:190,1,125,10|0,0:1|0:0,0:0:0:0:
495,87,132310,6,0,L|226:86,1,250,6|8,1:2|0:1,0:0:0:0:
495,87,132701,1,2,0:1:0:0:
237,141,132831,2,0,L|393:142,1,125,0|2,1:0|1:1,0:0:0:0:
155,78,133092,1,8,0:1:0:0:
381,288,133223,2,0,L|99:280,1,250,2|0,1:0|1:0,0:0:0:0:
394,217,133614,5,10,0:1:0:0:
149,213,133745,1,0,0:0:0:0:
412,169,133875,1,2,1:0:0:0:
135,168,134006,1,0,1:0:0:0:
432,122,134136,1,10,0:1:0:0:
118,129,134267,1,0,0:0:0:0:
432,122,134397,6,0,L|276:118,1,125,2|0,1:0|1:0,0:0:0:0:
76,119,134658,1,8,0:1:0:0:
306,73,134788,2,0,L|152:68,1,125,2|0,0:1|1:0,0:0:0:0:
388,33,135049,1,0,1:0:0:0:
128,64,135179,1,10,0:1:0:0:
441,165,135310,1,2,1:0:0:0:
209,315,135440,2,0,L|209:178,1,125,0|0,0:0|1:0,0:0:0:0:
439,179,135701,6,0,L|278:187,1,125,10|0,0:1|0:0,0:0:0:0:
92,83,135962,1,2,1:0:0:0:
394,83,136092,1,0,1:0:0:0:
121,206,136223,1,10,0:1:0:0:
337,206,136353,1,0,1:0:0:0:
52,138,136484,6,0,L|323:137,1,250,6|8,1:2|0:1,0:0:0:0:
52,138,136875,1,2,0:1:0:0:
279,141,137005,2,0,L|281:10,1,125,0|0,1:0|1:0,0:0:0:0:
32,70,137266,5,10,0:1:0:0:
283,70,137397,2,0,L|148:71,1,125,0|0,1:0|0:0,0:0:0:0:
374,203,137658,1,0,1:0:0:0:
147,214,137788,1,8,0:1:0:0:
374,203,137918,1,0,0:0:0:0:
147,214,138049,6,0,L|329:206,1,125,2|0,1:0|1:0,0:0:0:0:
43,103,138310,2,0,L|225:95,1,125,10|0,0:1|0:0,0:0:0:0:
400,64,138571,5,2,1:0:0:0:
179,55,138701,1,0,1:0:0:0:
400,64,138831,2,0,L|250:59,1,125,8|2,0:1|0:1,0:0:0:0:
43,245,139092,2,0,L|167:249,1,125,0|0,1:0|1:0,0:0:0:0:
400,164,139353,5,10,0:1:0:0:
179,173,139484,2,0,L|469:187,1,250,0|0,1:0|1:0,0:0:0:0:
167,249,139875,2,0,L|297:256,1,125,8|0,0:1|0:0,0:0:0:0:
60,149,140136,2,0,L|190:156,1,125,0|0,1:0|1:0,0:0:0:0:
417,88,140397,1,8,0:1:0:0:
193,91,140527,1,0,0:0:0:0:
471,298,140658,6,0,L|472:125,1,125,4|0,1:2|0:0,0:0:0:0:
259,193,140918,1,8,0:1:0:0:
483,87,141049,1,2,0:1:0:0:
220,311,141179,2,0,L|219:138,1,125,0|2,1:0|1:1,0:0:0:0:
432,206,141439,1,0,0:0:0:0:
208,100,141571,2,0,L|457:104,1,250,2|0,1:1|1:0,0:0:0:0:
201,210,141962,6,0,L|336:208,1,125,10|0,0:1|0:0,0:0:0:0:
99,315,142223,2,0,L|261:318,1,125,2|0,1:0|1:0,0:0:0:0:
17,195,142484,1,10,0:1:0:0:
235,153,142614,1,0,1:0:0:0:
17,195,142745,5,4,1:2:0:0:
259,237,142875,2,0,L|175:234,1,62.5,0|0,1:0|1:0,0:0:0:0:
34,264,143005,1,8,1:0:0:0:
282,171,143136,1,0,1:0:0:0:
29,51,143266,5,8,1:0:0:0:
329,133,143397,1,0,1:0:0:0:
19,25,143527,1,8,1:0:0:0:
369,95,143658,6,0,L|265:96,1,62.5,8|8,1:0|1:0,0:0:0:0:
91,212,143788,2,0,L|91:123,1,62.5,10|4,1:1|1:3,0:0:0:0:
257,138,143918,2,0,L|258:215,1,62.5,4|4,1:3|1:3,0:0:0:0:
186,206,144049,2,0,L|189:296,1,62.5,4|4,1:3|1:3,0:0:0:0:
410,328,144179,6,0,L|326:329,1,62.5,10|8,1:1|1:3,0:0:0:0:
160,333,144310,2,0,L|154:260,1,62.5,8|8,1:3|1:3,0:0:0:0:
331,244,144440,2,0,L|256:229,1,62.5,8|8,1:1|1:3,0:0:0:0:
26,128,144571,2,0,L|126:127,1,62.5,10|4,1:1|1:3,0:0:0:0:
294,130,144701,2,0,L|294:66,1,62.5,4|4,1:3|1:3,0:0:0:0:
44,248,144831,5,4,1:0:0:0:
44,248,144962,1,0,1:0:0:0:
285,204,145092,1,8,0:1:0:0:
62,150,145223,2,0,L|131:132,1,62.5,0|0,1:0|1:0,0:0:0:0:
304,76,145353,5,8,0:1:0:0:
103,66,145484,1,0,1:0:0:0:
333,142,145614,1,8,0:1:0:0:
94,202,145745,1,0,1:0:0:0:
381,285,145875,5,8,0:1:0:0:
164,289,146005,1,0,1:0:0:0:
455,176,146136,1,8,0:1:0:0:
213,193,146266,2,0,L|300:234,1,62.5,0|0,1:0|1:0,0:0:0:0:
459,251,146397,5,8,0:1:0:0:
459,251,146527,2,0,L|459:172,1,62.5,0|0,1:0|1:0,0:0:0:0:
257,183,146658,1,8,0:1:0:0:
466,110,146788,1,0,1:0:0:0:
146,238,146918,6,0,L|146:109,1,125,4|0,1:2|1:0,0:0:0:0:
364,250,147179,1,8,0:1:0:0:
141,196,147310,2,0,L|210:178,1,62.5,0|0,1:0|1:0,0:0:0:0:
383,122,147440,5,8,0:1:0:0:
168,87,147571,2,0,L|237:69,1,62.5,0|0,1:0|1:0,0:0:0:0:
435,43,147701,1,8,0:1:0:0:
182,234,147831,1,0,1:0:0:0:
388,264,147962,5,8,0:1:0:0:
182,234,148092,1,0,1:0:0:0:
452,123,148223,1,8,0:1:0:0:
182,234,148353,2,0,L|265:202,1,62.5,0|0,1:0|1:0,0:0:0:0:
403,240,148484,5,8,0:1:0:0:
403,240,148614,2,0,L|335:213,1,62.5,0|0,1:0|1:0,0:0:0:0:
149,175,148745,1,8,0:1:0:0:
379,163,148875,1,0,1:0:0:0:
174,70,149005,5,8,1:2:0:0:
174,70,149136,1,0,1:0:0:0:
424,46,149266,1,8,0:1:0:0:
220,99,149397,2,0,L|295:138,1,62.5,0|0,1:0|1:0,0:0:0:0:
460,189,149527,5,8,0:1:0:0:
271,203,149658,2,0,L|179:168,1,62.5,0|0,1:0|1:0,0:0:0:0:
23,99,149788,1,8,0:1:0:0:
243,172,149918,1,0,1:0:0:0:
23,99,150049,5,8,0:1:0:0:
260,98,150179,1,0,1:0:0:0:
17,24,150310,1,8,0:1:0:0:
279,27,150440,2,0,L|210:65,1,62.5,0|0,1:0|1:0,0:0:0:0:
19,121,150570,5,8,0:1:0:0:
19,121,150701,2,0,L|88:118,1,62.5,0|0,1:0|1:0,0:0:0:0:
286,118,150831,1,8,0:1:0:0:
97,189,150962,1,0,1:0:0:0:
415,275,151092,5,4,1:2:0:0:
197,286,151223,1,0,1:1:0:0:
415,275,151353,1,8,0:1:0:0:
175,325,151484,2,0,L|104:278,1,62.5,0|0,1:1|1:1,0:0:0:0:
324,215,151614,5,8,0:1:0:0:
90,249,151745,2,0,L|91:162,1,62.5,0|0,1:1|1:1,0:0:0:0:
224,153,151875,1,8,0:1:0:0:
424,101,152005,1,0,1:1:0:0:
131,118,152136,6,0,L|132:294,1,166.666666666667,8|8,1:2|1:3,0:0:0:0:
288,285,152484,1,4,1:3:0:0:
21,274,152658,6,0,L|238:253,2,166.666666666667,12|4|4,1:3|1:3|1:3,0:0:0:0:
403,206,153179,6,0,L|405:104,1,83.3333333333333,4|8,1:2|0:1,0:0:0:0:
310,127,153353,2,0,L|412:73,1,83.3333333333333,8|8,0:1|0:1,0:0:0:0:
479,101,153527,2,0,L|377:47,1,83.3333333333333,8|8,0:1|0:1,0:0:0:0:
219,75,153701,5,4,1:3:0:0:
140,98,153787,1,4,1:3:0:0:
91,163,153874,1,4,1:3:0:0:
90,245,153961,1,4,1:3:0:0:
139,311,154048,1,4,1:3:0:0:
218,335,154135,1,4,1:3:0:0:
475,334,154223,6,0,B|475:54|475:54|475:299|475:299|476:37|476:37|476:360|476:360|475:20|475:20|476:173|476:173|81:252|81:252|514:173,1,2400,4|8,1:2|1:0,0:0:0:0:
360,152,156049,1,4,0:2:0:0:
20,245,156310,6,0,L|281:103,2,259.999988098145,4|0|8,1:0|1:0|0:1,0:0:0:0:
338,180,156962,2,0,L|85:86,1,259.999988098145,8|0,1:2|1:0,0:0:0:0:
345,201,157353,2,0,L|87:110,1,259.999988098145,4|0,1:3|1:0,0:0:0:0:
313,266,157745,5,0,1:0:0:0:
184,267,157875,1,8,1:0:0:0:
405,192,158005,1,0,1:0:0:0:
140,192,158136,1,0,1:0:0:0:
479,273,158397,6,0,L|222:227,1,259.999988098145,4|0,1:2|1:0,0:0:0:0:
453,244,158918,1,8,0:1:0:0:
209,182,159049,2,0,L|489:181,1,259.999988098145,8|0,1:2|1:0,0:0:0:0:
219,151,159440,2,0,B|89:151|89:151|249:129,1,259.999988098145,4|0,1:3|1:0,0:0:0:0:
418,105,159831,5,0,1:0:0:0:
150,114,159962,1,8,0:1:0:0:
361,57,160092,2,0,L|300:101,1,64.9999970245363,0|0,1:0|1:0,0:0:0:0:
86,226,160223,1,8,0:1:0:0:
295,225,160353,1,8,0:1:0:0:
30,286,160484,6,0,L|283:209,1,259.999988098145,4|0,1:2|1:0,0:0:0:0:
44,261,161005,1,8,0:1:0:0:
281,201,161136,2,0,L|11:150,1,259.999988098145,8|0,1:2|1:0,0:0:0:0:
291,198,161527,2,0,L|11:197,1,259.999988098145,4|0,1:3|1:0,0:0:0:0:
259,151,161918,5,0,1:0:0:0:
487,153,162049,1,8,1:0:0:0:
259,151,162179,1,0,1:0:0:0:
17,105,162310,1,0,1:0:0:0:
496,198,162571,6,0,L|217:123,1,259.999988098145,4|0,1:2|1:0,0:0:0:0:
460,201,163092,1,8,0:1:0:0:
206,169,163223,2,0,L|482:112,1,259.999988098145,8|0,1:2|1:0,0:0:0:0:
205,103,163614,1,8,0:1:0:0:
490,98,163745,1,0,1:0:0:0:
490,98,164005,5,0,1:0:0:0:
205,103,164136,2,0,L|354:141,1,129.999994049073,8|0,1:0|1:0,0:0:0:0:
272,109,164331,1,0,1:0:0:0:
53,34,164397,2,0,L|220:34,1,129.999994049073,8|8,1:0|1:0,0:0:0:0:
483,251,164658,6,0,L|225:166,1,259.999988098145,4|0,1:2|1:0,0:0:0:0:
471,233,165179,1,8,0:1:0:0:
230,113,165310,2,0,L|420:114,1,129.999994049073,8|0,1:2|1:0,0:0:0:0:
230,113,165571,1,0,1:0:0:0:
493,183,165701,2,0,L|229:261,1,259.999988098145,4|0,1:3|1:0,0:0:0:0:
493,183,166092,1,0,1:0:0:0:
200,57,166223,5,8,0:1:0:0:
410,57,166353,1,0,1:0:0:0:
200,57,166484,1,0,1:0:0:0:
410,57,166614,1,0,0:0:0:0:
129,234,166745,2,0,L|412:234,1,259.999988098145,4|0,1:2|1:0,0:0:0:0:
34,147,167266,1,8,0:1:0:0:
278,157,167397,1,8,1:2:0:0:
386,153,167527,6,0,L|385:11,1,129.999994049073,0|0,1:0|1:0,0:0:0:0:
161,72,167788,2,0,L|451:73,1,259.999988098145,4|0,1:3|1:0,0:0:0:0:
317,71,168179,1,0,1:0:0:0:
43,192,168310,5,8,0:1:0:0:
163,171,168440,2,0,L|162:95,1,64.9999970245363,0|0,1:0|1:0,0:0:0:0:
358,122,168571,1,8,1:0:0:0:
146,209,168701,1,8,1:0:0:0:
386,268,168831,6,0,B|502:213|502:213|366:287,1,259.999988098145,4|0,1:2|1:0,0:0:0:0:
125,275,169353,1,8,0:1:0:0:
381,175,169484,2,0,L|81:125,1,259.999988098145,8|0,1:2|1:0,0:0:0:0:
381,175,169875,2,0,L|380:18,1,129.999994049073,4|0,1:3|0:0,0:0:0:0:
131,60,170136,6,0,L|278:65,1,129.999994049073,0|0,1:0|1:0,0:0:0:0:
487,181,170397,2,0,L|327:183,1,129.999994049073,8|0,1:0|1:0,0:0:0:0:
71,86,170658,1,0,1:0:0:0:
421,86,170918,6,0,L|161:159,1,259.999988098145,4|0,1:2|1:0,0:0:0:0:
406,177,171440,5,8,0:1:0:0:
198,164,171571,2,0,L|198:354,1,129.999994049073,8|0,1:2|1:0,0:0:0:0:
324,299,171831,1,0,1:0:0:0:
117,109,171962,6,0,L|264:111,1,129.999994049073,8|0,1:0|1:0,0:0:0:0:
50,50,172223,2,0,L|205:50,1,129.999994049073,0|0,1:0|1:0,0:0:0:0:
376,216,172484,5,8,0:1:0:0:
248,184,172614,2,0,L|325:184,1,64.9999970245363,0|0,1:0|1:0,0:0:0:0:
472,181,172745,2,0,L|469:39,1,129.999994049073,8|8,1:0|1:0,0:0:0:0:
70,92,173005,6,0,L|511:89,1,419.999987182618,4|0,1:2|1:0,0:0:0:0:
146,89,173527,1,8,0:1:0:0:
375,88,173658,1,8,1:2:0:0:
162,116,173918,1,0,1:0:0:0:
435,177,174049,1,4,1:3:0:0:
33,189,174310,1,0,1:0:0:0:
236,193,174440,1,0,1:0:0:0:
440,197,174571,6,0,L|309:155,1,129.999994049073,8|0,1:0|1:0,0:0:0:0:
95,161,174831,2,0,L|226:119,1,129.999994049073,0|0,1:0|1:0,0:0:0:0:
464,57,175092,6,0,L|226:173,1,259.999988098145,4|0,1:2|1:0,0:0:0:0:
464,57,175614,1,8,0:1:0:0:
221,150,175745,1,8,1:2:0:0:
106,211,175875,6,0,L|244:137,1,129.999994049073,0|0,1:0|1:0,0:0:0:0:
475,170,176136,2,0,L|238:281,1,259.999988098145,4|0,1:3|1:0,0:0:0:0:
475,170,176527,1,0,1:0:0:0:
213,166,176658,6,0,L|210:27,1,129.999994049073,8|0,0:1|1:0,0:0:0:0:
410,41,176918,1,8,0:1:0:0:
128,82,177049,1,8,0:1:0:0:
410,41,177179,6,0,L|189:211,1,259.999988098145,4|0,1:2|1:0,0:0:0:0:
411,233,177701,1,8,0:1:0:0:
165,178,177831,2,0,L|427:152,1,259.999988098145,8|0,1:2|1:0,0:0:0:0:
201,104,178223,1,4,1:3:0:0:
405,216,178484,5,0,1:0:0:0:
157,225,178614,1,0,1:0:0:0:
65,316,178745,2,0,L|166:215,1,129.999994049073,8|0,1:0|1:0,0:0:0:0:
384,95,179005,1,8,0:1:0:0:
184,98,179136,1,8,0:1:0:0:
382,90,179266,6,0,L|114:39,1,259.999988098145,8|0,1:0|1:0,0:0:0:0:
380,88,179658,1,0,1:0:0:0:
127,166,179788,5,8,0:1:0:0:
351,119,179918,2,0,L|77:119,1,259.999988098145,8|0,1:2|1:0,0:0:0:0:
351,119,180310,5,8,0:1:0:0:
122,60,180440,2,0,L|122:238,1,129.999994049073,0|0,1:0|1:0,0:0:0:0:
241,196,180701,1,0,1:0:0:0:
22,311,180831,6,0,L|203:309,1,129.999994049073,8|0,1:0|1:0,0:0:0:0:
401,304,181092,2,0,L|239:303,1,129.999994049073,8|0,1:0|1:0,0:0:0:0:
39,277,181353,6,0,P|339:269|24:109,1,909.999958343508,4|0,0:2|1:0,0:0:0:0:
241,257,182397,6,0,L|237:182,1,64.9999970245363,8|8,0:1|0:1,0:0:0:0:
163,155,182527,2,0,L|213:209,1,64.9999970245363,4|4,0:3|0:3,0:0:0:0:
368,98,182658,5,8,0:3:0:0:
318,97,182723,1,8,0:3:0:0:
256,102,182788,1,8,0:3:0:0:
306,98,182853,1,8,0:3:0:0:
496,41,182918,5,8,1:0:0:0:
496,41,183049,1,8,1:2:0:0:
42,264,183310,6,0,L|347:219,1,259.999988098145,4|0,1:2|1:0,0:0:0:0:
42,264,183701,2,0,L|43:96,1,129.999994049073,8|0,0:1|0:0,0:0:0:0:
281,110,183962,1,0,1:0:0:0:
32,262,184092,1,0,1:0:0:0:
302,168,184223,1,10,0:1:0:0:
74,130,184353,5,0,1:1:0:0:
320,302,184484,2,0,L|317:170,1,129.999994049073,0|0,1:0|1:0,0:0:0:0:
96,98,184745,2,0,L|242:99,1,129.999994049073,10|0,0:1|0:0,0:0:0:0:
433,62,185005,2,0,L|296:62,1,129.999994049073,0|0,1:0|1:0,0:0:0:0:
70,67,185266,1,10,0:1:0:0:
70,67,185397,2,0,L|175:66,1,64.9999970245363,8|8,1:0|1:0,0:0:0:0:
348,85,185527,6,0,P|459:138|311:323,1,389.999982147218,4|0,1:2|1:0,0:0:0:0:
298,338,185984,1,0,1:0:0:0:
85,312,186049,2,0,P|31:241|196:18,1,389.999982147218,8|0,1:0|1:0,0:0:0:0:
423,39,186571,5,8,1:0:0:0:
175,49,186701,1,0,1:0:0:0:
289,41,186831,1,0,1:0:0:0:
175,49,186962,1,0,1:0:0:0:
462,134,187092,1,8,1:0:0:0:
222,144,187223,1,0,1:0:0:0:
464,141,187353,1,8,0:1:0:0:
409,141,187418,1,8,0:1:0:0:
194,214,187484,5,4,1:2:0:0:
194,214,187614,1,0,0:0:0:0:
395,202,187745,1,0,1:0:0:0:
147,124,187875,1,10,0:1:0:0:
273,97,188005,1,0,0:0:0:0:
48,59,188136,1,0,1:0:0:0:
174,32,188266,1,0,1:0:0:0:
421,85,188397,5,10,0:1:0:0:
195,193,188527,1,0,0:0:0:0:
483,154,188658,2,0,L|343:147,1,129.999994049073,0|0,1:0|1:0,0:0:0:0:
125,132,188918,2,0,L|288:130,1,129.999994049073,10|0,0:1|0:0,0:0:0:0:
482,153,189179,1,8,1:1:0:0:
223,72,189310,2,0,L|306:109,1,64.9999970245363,8|8,1:1|1:1,0:0:0:0:
482,153,189440,1,8,1:1:0:0:
272,223,189571,1,8,1:1:0:0:
27,331,189701,5,4,1:2:0:0:
231,293,189831,1,2,1:0:0:0:
30,269,189962,1,10,0:1:0:0:
228,177,190092,2,0,L|169:177,1,50,2|0,1:0|1:0,0:0:0:0:
31,176,190223,1,8,0:1:0:0:
250,50,190353,5,2,1:0:0:0:
62,25,190484,1,10,0:1:0:0:
257,86,190614,1,2,1:0:0:0:
62,25,190744,1,8,0:1:0:0:
247,118,190875,6,0,L|247:237,1,100,2|10,1:0|0:1,0:0:0:0:
27,189,191136,2,0,L|96:189,1,50,2|0,1:0|1:0,0:0:0:0:
273,230,191266,1,6,1:2:0:0:
158,287,191396,2,0,L|224:288,1,50,0|0,1:0|1:0,0:0:0:0:
367,316,191527,2,0,L|254:317,1,100,8|2,0:1|1:0,0:0:0:0:
485,331,191788,5,4,1:2:0:0:
285,280,191918,1,2,1:0:0:0:
482,269,192049,1,10,0:1:0:0:
284,177,192179,2,0,L|343:177,1,50,2|0,1:0|1:0,0:0:0:0:
486,133,192310,1,10,0:1:0:0:
274,106,192440,2,0,L|361:105,1,50,2|0,1:0|1:0,0:0:0:0:
482,234,192571,5,10,0:1:0:0:
251,238,192701,1,2,1:0:0:0:
478,179,192831,1,8,0:1:0:0:
267,113,192962,2,0,L|162:112,1,100,2|10,1:0|0:1,0:0:0:0:
368,175,193223,2,0,L|299:175,1,50,2|0,1:0|1:0,0:0:0:0:
122,216,193353,1,6,0:2:0:0:
237,273,193483,2,0,L|171:274,1,50,8|8,1:0|1:0,0:0:0:0:
28,302,193614,2,0,L|141:303,1,100,8|8,0:1|0:1,0:0:0:0:
396,234,193875,5,4,1:2:0:0:
188,180,194005,1,2,1:0:0:0:
396,234,194136,1,10,0:1:0:0:
156,110,194266,2,0,L|240:108,1,50,2|0,1:0|1:0,0:0:0:0:
389,103,194397,1,8,0:1:0:0:
180,51,194527,6,0,L|229:50,1,50,2|0,1:0|1:0,0:0:0:0:
388,45,194658,1,10,0:1:0:0:
184,188,194788,1,2,1:0:0:0:
400,169,194918,1,8,0:1:0:0:
187,273,195049,1,2,1:0:0:0:
435,229,195179,1,10,0:1:0:0:
171,337,195310,6,0,L|267:335,1,50,2|0,1:0|1:0,0:0:0:0:
396,324,195440,1,6,1:2:0:0:
470,209,195571,2,0,L|381:210,1,50,0|0,1:0|1:0,0:0:0:0:
247,215,195701,1,10,0:1:0:0:
42,215,195831,1,2,1:0:0:0:
276,141,195962,5,6,1:2:0:0:
75,118,196092,1,2,1:0:0:0:
276,141,196223,1,10,0:1:0:0:
72,55,196353,6,0,L|155:50,1,50,2|0,1:0|1:0,0:0:0:0:
291,44,196484,1,8,0:1:0:0:
95,177,196614,2,0,L|184:175,1,50,2|0,1:0|1:0,0:0:0:0:
305,190,196745,1,10,0:1:0:0:
102,298,196875,1,2,1:0:0:0:
296,263,197005,1,8,0:1:0:0:
92,241,197136,1,2,1:0:0:0:
307,207,197266,1,10,0:1:0:0:
66,156,197397,6,0,L|132:153,1,50,2|0,1:0|1:0,0:0:0:0:
300,144,197527,1,6,1:2:0:0:
184,76,197658,2,0,L|265:76,1,50,10|8,1:0|1:0,0:0:0:0:
433,42,197788,1,10,0:1:0:0:
232,40,197918,1,10,1:0:0:0:
456,62,198049,6,0,L|213:57,1,200,4|8,1:2|0:1,0:0:0:0:
470,169,198440,1,0,0:0:0:0:
273,235,198571,2,0,L|393:232,1,100,0|0,1:0|1:0,0:0:0:0:
144,157,198831,6,0,L|273:153,1,100,10|0,0:1|0:0,0:0:0:0:
440,70,199092,1,0,1:0:0:0:
233,80,199223,1,0,0:0:0:0:
440,70,199353,2,0,L|443:196,1,100,8|0,0:1|0:0,0:0:0:0:
225,263,199614,5,2,1:0:0:0:
440,226,199745,1,0,0:0:0:0:
224,268,199875,2,0,L|226:148,1,100,8|0,0:1|0:0,0:0:0:0:
457,129,200136,6,0,L|223:125,1,200,2|8,1:0|0:1,0:0:0:0:
463,84,200527,1,2,0:1:0:0:
237,86,200658,1,0,1:0:0:0:
361,82,200788,1,0,1:0:0:0:
134,187,200918,6,0,L|133:303,1,100,10|0,0:1|0:0,0:0:0:0:
350,325,201179,2,0,L|207:337,1,100,2|0,1:0|0:0,0:0:0:0:
446,238,201440,2,0,L|316:243,1,100,10|0,0:1|0:0,0:0:0:0:
128,244,201701,1,2,1:0:0:0:
246,181,201831,1,0,1:0:0:0:
176,182,201897,1,0,1:0:0:0:
31,173,201962,1,10,0:1:0:0:
234,131,202092,1,0,1:0:0:0:
27,78,202223,6,0,L|272:78,1,200,6|8,1:2|0:1,0:0:0:0:
27,78,202614,1,2,0:1:0:0:
246,100,202745,2,0,L|244:227,1,100,0|0,1:0|1:0,0:0:0:0:
26,241,203005,2,0,L|26:127,1,100,10|0,0:1|0:0,0:0:0:0:
249,300,203266,2,0,L|131:301,1,100,0|0,1:0|0:0,0:0:0:0:
341,213,203527,6,0,L|228:216,1,100,10|0,0:1|0:0,0:0:0:0:
447,118,203788,2,0,L|334:121,1,100,2|0,1:0|1:0,0:0:0:0:
143,160,204049,2,0,L|256:163,1,100,10|0,0:1|0:0,0:0:0:0:
468,55,204310,5,2,1:0:0:0:
246,106,204440,1,0,0:0:0:0:
468,55,204571,6,0,L|468:189,1,100,8|0,0:1|0:0,0:0:0:0:
230,192,204831,5,0,1:0:0:0:
452,243,204962,1,0,1:0:0:0:
230,192,205092,6,0,L|230:326,1,100,10|2,0:1|0:0,0:0:0:0:
458,198,205353,5,8,1:2:0:0:
223,146,205484,1,0,0:0:0:0:
472,138,205614,1,8,1:1:0:0:
206,96,205745,1,0,1:0:0:0:
491,75,205875,6,0,L|413:75,1,50,8|8,1:0|1:0,0:0:0:0:
285,74,206005,2,0,L|217:72,1,50,8|8,1:0|1:0,0:0:0:0:
185,73,206136,2,0,L|257:72,1,50,8|8,1:1|1:1,0:0:0:0:
419,157,206266,2,0,L|360:153,1,50,8|8,1:1|1:1,0:0:0:0:
131,343,206397,6,0,B|26:311|26:311|-5:131|33:-31,1,440.000013427735,4|4,1:2|0:2,0:0:0:0:
487,34,207962,2,0,P|424:62|504:233,1,300,4|0,0:2|0:0,0:0:0:0:
237,230,208484,5,12,1:3:0:0:
70,258,208745,2,0,L|71:155,1,100,2|2,0:0|0:0,0:0:0:0:
298,139,209136,1,2,0:0:0:0:
74,147,209397,1,2,0:0:0:0:
74,147,209527,1,0,0:0:0:0:
298,139,209788,5,2,0:0:0:0:
140,72,210049,2,0,L|258:75,2,100,2|2|2,0:0|0:0|0:0,0:0:0:0:
467,215,210571,6,0,L|233:90,1,259.999988098145,4|2,1:3|0:0,0:0:0:0:
92,224,211092,2,0,L|340:87,1,259.999988098145,8|2,0:2|0:0,0:0:0:0:
475,105,211549,1,8,0:1:0:0:
294,106,211614,2,0,B|165:107|165:107|331:104,1,259.999988098145,8|2,0:1|1:2,0:0:0:0:
419,104,212005,1,2,0:2:0:0:
166,237,212136,2,0,L|34:284,2,129.999994049073,2|2|10,1:2|1:2|1:1,0:0:0:0:
495,289,212658,6,0,L|231:168,1,259.999988098145,4|2,1:2|0:0,0:0:0:0:
495,289,213049,1,2,0:0:0:0:
495,289,213179,1,2,0:3:0:0:
362,290,213310,1,2,0:0:0:0:
24,300,213571,1,2,0:0:0:0:
308,224,213962,5,2,0:0:0:0:
110,327,214223,2,0,L|109:35,1,259.999988098145,2|0,0:3|1:0,0:0:0:0:
323,60,214614,5,8,1:0:0:0:
254,59,214679,1,8,1:0:0:0:
33,165,214745,5,8,1:0:0:0:
250,161,214875,1,0,1:0:0:0:
479,165,215136,5,2,1:3:0:0:
262,161,215266,1,0,1:0:0:0:
48,171,215397,5,8,1:0:0:0:
50,112,215462,1,8,1:0:0:0:
215,82,215527,1,8,1:0:0:0:
450,66,215658,1,8,1:0:0:0:
99,224,216179,5,4,1:3:0:0:
161,222,216245,1,4,1:3:0:0:
343,263,216310,2,0,P|446:184|262:118,1,389.999982147218,8|0,1:0|0:0,0:0:0:0:
32,272,216831,6,0,L|33:126,1,125,14|0,1:3|0:0,0:0:0:0:
260,192,217092,2,0,L|105:191,1,125,8|2,0:1|0:1,0:0:0:0:
337,134,217353,1,0,1:0:0:0:
96,69,217483,2,0,L|243:65,1,125,2|8,1:0|0:1,0:0:0:0:
472,77,217745,2,0,L|472:208,1,125,2|0,1:1|0:0,0:0:0:0:
251,232,218005,1,0,1:0:0:0:
476,127,218135,6,0,L|305:119,1,125,10|0,0:1|0:0,0:0:0:0:
115,172,218396,2,0,L|286:164,1,125,2|0,1:1|1:0,0:0:0:0:
476,127,218657,1,10,0:1:0:0:
256,146,218787,1,0,0:0:0:0:
477,47,218918,6,0,L|272:48,1,187.5,2|0,1:0|0:0,0:0:0:0:
104,47,219179,1,10,0:1:0:0:
312,88,219309,1,2,0:1:0:0:
85,169,219440,6,0,L|85:14,1,125,2|0,1:0|1:0,0:0:0:0:
300,182,219700,2,0,L|154:182,1,125,10|0,0:1|1:0,0:0:0:0:
452,59,219961,5,2,1:1:0:0:
237,57,220092,1,0,1:0:0:0:
452,59,220222,2,0,L|453:202,1,125,10|0,0:1|0:0,0:0:0:0:
217,291,220483,6,0,L|375:289,1,125,2|0,1:0|1:0,0:0:0:0:
107,196,220744,2,0,L|256:196,1,125,10|0,0:1|0:0,0:0:0:0:
495,87,221005,6,0,L|226:86,1,250,6|8,1:2|0:1,0:0:0:0:
495,87,221396,1,2,0:1:0:0:
237,141,221526,2,0,L|237:305,1,125,0|2,1:0|1:1,0:0:0:0:
440,264,221787,1,8,0:1:0:0:
131,288,221918,2,0,L|413:280,1,250,2|0,1:0|1:0,0:0:0:0:
118,217,222309,5,10,0:1:0:0:
363,213,222440,1,0,0:0:0:0:
100,169,222570,1,2,1:0:0:0:
377,168,222701,1,0,1:0:0:0:
80,122,222831,1,10,0:1:0:0:
394,129,222962,1,0,0:0:0:0:
80,122,223092,6,0,L|236:118,1,125,2|0,1:0|1:0,0:0:0:0:
436,119,223353,1,8,0:1:0:0:
206,73,223483,6,0,L|207:229,1,125,2|0,0:1|1:0,0:0:0:0:
434,208,223744,1,0,1:0:0:0:
207,126,223874,1,10,0:1:0:0:
477,142,224005,1,2,1:0:0:0:
266,284,224135,2,0,L|408:290,1,125,0|0,0:0|1:0,0:0:0:0:
99,186,224396,6,0,L|260:194,1,125,10|0,0:1|0:0,0:0:0:0:
13,111,224658,1,2,1:0:0:0:
280,64,224788,1,0,1:0:0:0:
13,111,224918,1,10,0:1:0:0:
280,64,225048,1,0,1:0:0:0:
20,173,225179,6,0,L|291:172,1,250,4|8,1:1|0:1,0:0:0:0:
20,173,225570,1,2,0:1:0:0:
265,178,225700,2,0,L|263:47,1,125,0|0,1:0|1:0,0:0:0:0:
64,57,225961,5,10,0:1:0:0:
290,70,226092,2,0,L|165:69,1,125,0|0,1:0|0:0,0:0:0:0:
388,122,226353,1,0,1:0:0:0:
165,236,226483,1,8,0:1:0:0:
392,225,226613,1,0,0:0:0:0:
165,236,226744,6,0,L|347:228,1,125,2|0,1:0|1:0,0:0:0:0:
495,104,227005,2,0,L|313:96,1,125,10|0,0:1|0:0,0:0:0:0:
112,64,227266,5,2,1:0:0:0:
333,55,227396,1,0,1:0:0:0:
112,64,227526,2,0,L|112:204,1,125,8|2,0:1|0:1,0:0:0:0:
469,245,227787,2,0,L|345:249,1,125,0|0,1:0|1:0,0:0:0:0:
112,164,228048,1,10,0:1:0:0:
333,173,228179,6,0,L|43:187,1,250,0|0,1:0|1:0,0:0:0:0:
346,218,228570,2,0,L|346:369,1,125,8|0,0:1|0:0,0:0:0:0:
60,169,228831,2,0,L|190:176,1,125,0|0,1:0|1:0,0:0:0:0:
417,88,229092,1,8,0:1:0:0:
193,91,229222,1,0,0:0:0:0:
446,326,229353,6,0,L|445:153,1,125,4|0,1:2|0:0,0:0:0:0:
228,194,229613,1,8,0:1:0:0:
445,201,229744,1,2,0:1:0:0:
227,318,229874,2,0,L|228:145,1,125,0|2,1:0|1:1,0:0:0:0:
440,228,230136,5,0,0:0:0:0:
201,99,230266,2,0,L|450:103,1,250,2|0,1:1|1:0,0:0:0:0:
208,177,230657,2,0,L|73:175,1,125,10|0,0:1|0:0,0:0:0:0:
304,269,230918,2,0,L|142:272,1,125,2|0,1:0|1:0,0:0:0:0:
439,144,231179,1,10,0:1:0:0:
221,102,231309,1,0,1:0:0:0:
439,144,231440,5,4,1:1:0:0:
218,137,231570,2,0,L|302:134,1,62.5,0|0,1:0|1:0,0:0:0:0:
478,264,231700,1,8,1:0:0:0:
230,171,231831,1,0,1:0:0:0:
483,51,231961,1,12,1:0:0:0:
183,133,232092,1,0,1:0:0:0:
493,25,232222,1,8,1:0:0:0:
143,95,232353,6,0,L|247:96,1,62.5,8|8,1:0|1:0,0:0:0:0:
421,212,232483,2,0,L|421:123,1,62.5,14|4,1:1|1:3,0:0:0:0:
255,138,232613,2,0,L|189:139,1,62.5,4|4,1:3|1:3,0:0:0:0:
192,138,232744,2,0,L|276:142,1,62.5,4|4,1:3|1:3,0:0:0:0:
471,314,232874,6,0,L|387:315,1,62.5,10|8,1:1|1:3,0:0:0:0:
221,319,233005,2,0,L|215:246,1,62.5,8|8,1:3|1:3,0:0:0:0:
392,230,233135,2,0,L|317:215,1,62.5,8|8,1:1|1:3,0:0:0:0:
87,114,233266,2,0,L|187:113,1,62.5,10|4,1:1|1:3,0:0:0:0:
355,116,233396,2,0,L|266:79,1,62.5,4|4,1:3|1:3,0:0:0:0:
32,187,233526,5,10,1:3:0:0:
32,187,233657,1,0,1:0:0:0:
240,194,233787,1,8,0:1:0:0:
450,150,233918,2,0,L|381:132,1,62.5,0|0,1:0|1:0,0:0:0:0:
208,76,234048,5,8,0:1:0:0:
409,66,234179,1,0,1:0:0:0:
160,154,234309,1,8,0:1:0:0:
361,144,234440,1,0,1:0:0:0:
131,285,234570,5,8,0:1:0:0:
348,289,234700,1,0,1:0:0:0:
57,176,234831,1,8,0:1:0:0:
299,193,234961,2,0,L|212:234,1,62.5,0|0,1:0|1:0,0:0:0:0:
53,251,235092,5,8,0:1:0:0:
53,251,235222,2,0,L|123:212,1,62.5,0|0,1:0|1:0,0:0:0:0:
292,125,235353,1,8,0:1:0:0:
76,121,235483,1,0,1:0:0:0:
357,322,235614,6,0,L|358:179,1,125,8|0,1:3|1:0,0:0:0:0:
129,207,235875,1,8,0:1:0:0:
365,136,236005,1,0,1:0:0:0:
118,148,236136,1,8,0:1:0:0:
364,83,236266,2,0,L|267:81,1,62.5,0|0,1:0|1:0,0:0:0:0:
119,91,236397,5,8,0:1:0:0:
386,226,236527,1,0,1:0:0:0:
137,155,236658,1,8,0:1:0:0:
376,150,236788,1,0,1:0:0:0:
137,155,236918,1,8,0:1:0:0:
376,150,237049,2,0,L|291:148,1,62.5,0|0,1:0|1:0,0:0:0:0:
121,85,237179,5,8,0:1:0:0:
121,85,237310,2,0,L|199:86,1,62.5,0|0,1:0|1:0,0:0:0:0:
367,259,237440,1,8,0:1:0:0:
136,256,237571,1,0,1:0:0:0:
427,225,237701,6,0,L|428:52,1,125,8|0,1:3|1:0,0:0:0:0:
177,139,237962,1,8,0:1:0:0:
426,110,238092,2,0,L|348:92,1,62.5,0|0,1:0|1:0,0:0:0:0:
177,60,238223,5,8,0:1:0:0:
404,42,238353,1,0,1:0:0:0:
171,189,238484,1,8,0:1:0:0:
425,199,238614,1,0,1:0:0:0:
171,189,238745,6,0,L|354:188,1,125,8|0,0:1|1:0,0:0:0:0:
41,294,239005,1,8,0:1:0:0:
279,295,239136,2,0,L|204:297,1,62.5,0|0,1:0|1:0,0:0:0:0:
39,222,239266,1,8,0:1:0:0:
39,222,239397,2,0,L|136:222,1,62.5,0|0,1:0|1:0,0:0:0:0:
307,161,239527,5,8,0:1:0:0:
87,152,239658,1,0,1:0:0:0:
331,76,239788,2,0,L|457:78,1,125,8|0,1:3|1:1,0:0:0:0:
207,133,240049,1,8,0:1:0:0:
447,135,240179,2,0,L|360:146,1,62.5,0|0,1:1|1:1,0:0:0:0:
207,253,240310,5,8,0:1:0:0:
313,316,240440,2,0,L|237:315,1,62.5,0|0,1:1|1:1,0:0:0:0:
56,313,240571,2,0,L|57:178,1,125,8|0,0:1|1:1,0:0:0:0:
425,218,240831,6,0,L|255:162,2,166.666666666667,8|8|4,1:2|1:3|1:3,0:0:0:0:
80,110,241353,5,12,1:3:0:0:
253,113,241527,5,4,1:3:0:0:
427,110,241701,5,4,1:3:0:0:
