osu file format v14

[General]
AudioFilename: audio.mp3
AudioLeadIn: 0
PreviewTime: 55464
Countdown: 0
SampleSet: None
StackLeniency: 0.3
Mode: 0
LetterboxInBreaks: 0
WidescreenStoryboard: 1

[Editor]
DistanceSpacing: 0.8
BeatDivisor: 4
GridSize: 32
TimelineZoom: 3.099999

[Metadata]
Title:Fiction
TitleUnicode:Fiction
Artist:Minstrel
ArtistUnicode:Minstrel
Creator:knowledgeking
Version:Imaginary
Source:
Tags:C85 recollection yuta LIQU@。shota reku AutumnLeaves ぎゃぷいち オレオレウサギ @-dash! female vocals metal rock roses
BeatmapID:2250889
BeatmapSetID:975985

[Difficulty]
HPDrainRate:2.5
CircleSize:4.5
OverallDifficulty:9.5
ApproachRate:9.8
SliderMultiplier:1.7
SliderTickRate:1

[Events]
//Background and Video events
0,0,"bjtid-zyaqq_waifu2x_art_noise3_scale_tta_1.jpg",0,0
//Break Periods
2,844,2450
2,78843,87164
//Storyboard Layer 0 (Background)
//Storyboard Layer 1 (Fail)
//Storyboard Layer 2 (Pass)
//Storyboard Layer 3 (Foreground)
//Storyboard Layer 4 (Overlay)
//Storyboard Sound Samples

[TimingPoints]
215,285.714285714286,4,2,1,50,1,0
4786,-100,4,2,2,50,0,0
5643,-100,4,2,1,50,0,0
7501,-100,4,2,1,50,0,0
8786,-100,4,2,2,50,0,0
9358,-200,4,2,1,50,0,0
9786,-100,4,2,1,50,0,0
13786,-100,4,2,2,50,0,0
14358,-100,4,2,1,50,0,0
18501,-100,4,2,2,50,0,0
18929,-100,4,2,1,50,0,0
23072,-100,4,2,2,50,0,0
23501,-100,4,2,1,50,0,0
26501,-100,4,2,2,50,0,0
27643,-100,4,2,2,50,0,0
28072,-100,4,2,1,50,0,0
45358,-100,4,2,2,50,0,0
55500,-83.3333333333333,4,2,3,70,0,1
55572,-83.3333333333333,4,2,2,70,0,1
64643,-83.3333333333333,4,2,3,70,0,1
64715,-83.3333333333333,4,2,2,70,0,1
73786,-100,4,2,1,50,0,0
78358,-250,4,2,1,50,0,0
87643,-117.647058823529,4,2,1,40,0,0
95501,-100,4,2,1,50,0,0
96643,-111.111111111111,4,2,1,40,0,0
102358,-100,4,2,1,50,0,0
104786,-166.666666666667,4,2,1,30,0,0
105786,-83.3333333333333,4,2,3,70,0,1
105858,-83.3333333333333,4,2,2,70,0,1
114929,-83.3333333333333,4,2,3,70,0,1
115001,-83.3333333333333,4,2,2,70,0,1
124072,-100,4,2,1,50,0,0
133215,-90.9090909090909,4,2,1,60,0,0
136929,-90.9090909090909,4,2,2,60,0,0
137358,-90.9090909090909,4,2,1,60,0,0
142643,-142.857142857143,4,2,1,40,0,0
146786,-142.857142857143,4,2,1,60,0,0
147072,-100,4,2,1,50,0,0
151500,-83.3333333333333,4,2,3,70,0,1
151572,-83.3333333333333,4,2,2,70,0,1
160643,-83.3333333333333,4,2,3,70,0,1
160715,-83.3333333333333,4,2,2,70,0,1
169786,-71.4285714285714,4,2,3,60,0,0
169858,-90.9090909090909,4,2,1,60,0,0
174358,-90.9090909090909,4,2,2,60,0,0
183501,-100,4,2,2,50,0,0
187786,-200,4,2,1,40,0,0
188072,-100,4,2,2,50,0,0
194929,-100,4,2,2,50,0,0

[Colours]
Combo1 : 0,185,185
Combo2 : 206,11,94
Combo3 : 32,159,64
Combo4 : 191,96,0

[HitObjects]
163,122,215,5,0,0:0:0:0:
326,99,358,1,0,0:0:0:0:
349,262,501,1,0,0:0:0:0:
186,285,644,1,0,0:0:0:0:
163,122,2929,6,0,P|205:142|279:53,1,170
118,15,3358,1,0,0:0:0:0:
18,126,3501,1,0,0:0:0:0:
129,226,3643,1,0,0:0:0:0:
129,226,3715,1,0,0:0:0:0:
129,226,3786,1,0,0:0:0:0:
229,115,3929,1,0,0:0:0:0:
18,126,4072,5,0,0:0:0:0:
255,221,4215,1,0,0:0:0:0:
290,196,4286,1,0,0:0:0:0:
332,196,4357,1,0,0:0:0:0:
367,221,4429,1,0,0:0:0:0:
380,261,4500,1,0,0:0:0:0:
367,302,4572,1,0,0:0:0:0:
332,326,4644,1,0,0:0:0:0:
290,326,4715,1,0,0:0:0:0:
255,301,4786,6,0,L|180:311,1,42.5
27,221,4929,2,0,L|69:215,1,42.5
181,147,5072,2,0,L|186:189,1,42.5
101,375,5215,5,0,0:0:0:0:
82,336,5643,1,0,0:0:0:0:
64,298,6215,1,0,0:0:0:0:
45,260,6786,1,0,0:0:0:0:
27,221,7358,1,0,0:0:0:0:
181,147,7501,6,0,B|263:160|263:160|326:128,1,127.5
332,123,7786,1,0,0:0:0:0:
230,21,7929,1,0,0:0:0:0:
265,250,8072,1,0,0:0:0:0:
446,106,8215,5,0,0:0:0:0:
182,147,8358,1,0,0:0:0:0:
415,189,8501,1,0,0:0:0:0:
240,216,8644,1,0,0:0:0:0:
350,356,8786,6,0,L|357:294,1,42.5
302,121,8929,2,0,L|297:163,1,42.5
225,343,9072,2,0,L|232:281,1,42.5
167,51,9215,2,0,L|162:93,1,42.5
100,330,9358,6,0,P|59:299|6:313,1,106.25
46,360,9786,6,0,P|80:288|15:215,1,170
0,211,10143,1,0,0:0:0:0:
0,211,10215,1,0,0:0:0:0:
153,246,10358,1,0,0:0:0:0:
107,96,10501,5,0,0:0:0:0:
177,320,10643,1,0,0:0:0:0:
336,148,10786,2,0,L|439:171,1,85
446,316,11072,5,0,0:0:0:0:
312,54,11215,2,0,P|251:82|249:158,1,127.5
279,201,11501,2,0,L|269:255,1,42.5
140,363,11643,1,0,0:0:0:0:
70,162,11786,1,0,0:0:0:0:
279,201,11929,2,0,L|331:194,1,42.5
487,48,12072,6,0,B|445:56|445:56|401:39|401:39|343:50,1,127.5
330,50,12358,1,0,0:0:0:0:
160,2,12501,1,0,0:0:0:0:
204,174,12643,1,0,0:0:0:0:
330,50,12786,5,0,0:0:0:0:
58,114,12929,1,0,0:0:0:0:
299,140,13072,1,0,0:0:0:0:
154,312,13215,6,0,P|224:300|258:392,1,170
270,189,13643,1,0,0:0:0:0:
148,46,13786,6,0,L|90:34,1,42.5
0,202,13929,2,0,L|41:193,1,42.5
246,113,14072,5,0,0:0:0:0:
287,102,14143,1,0,0:0:0:0:
326,117,14214,1,0,0:0:0:0:
351,152,14286,1,0,0:0:0:0:
350,194,14358,6,0,P|342:273|443:286,1,170
447,290,14715,1,0,0:0:0:0:
447,290,14786,1,0,0:0:0:0:
512,134,14929,1,0,0:0:0:0:
323,280,15072,5,0,0:0:0:0:
326,91,15215,1,0,0:0:0:0:
483,284,15358,2,0,L|473:383,1,85
232,235,15643,5,0,0:0:0:0:
470,126,15786,2,0,P|405:123|385:39,1,127.5
389,41,16072,2,0,L|399:-9,1,42.5
447,229,16215,1,0,0:0:0:0:
256,186,16358,1,0,0:0:0:0:
389,41,16501,1,0,0:0:0:0:
332,289,16643,6,0,P|264:333|204:302,1,127.5
201,295,16929,1,0,0:0:0:0:
232,130,17072,1,0,0:0:0:0:
292,361,17215,5,0,0:0:0:0:
292,361,17286,1,0,0:0:0:0:
292,361,17358,1,0,0:0:0:0:
61,297,17501,1,0,0:0:0:0:
348,221,17643,1,0,0:0:0:0:
232,130,17786,6,0,P|277:67|378:102,1,170
377,280,18215,1,0,0:0:0:0:
175,331,18358,1,0,0:0:0:0:
376,145,18501,6,0,L|435:162,1,42.5
159,179,18643,2,0,L|118:167,1,42.5
284,270,18786,2,0,L|267:329,1,42.5
250,53,18929,6,0,B|144:70|144:70|74:46,1,170
52,37,19286,1,0,0:0:0:0:
52,37,19358,1,0,0:0:0:0:
92,219,19501,1,0,0:0:0:0:
230,94,19643,5,0,0:0:0:0:
15,140,19786,1,0,0:0:0:0:
163,304,19929,2,0,L|251:287,1,85
399,180,20215,5,0,0:0:0:0:
326,359,20358,2,0,P|271:349|257:261,1,127.5
275,234,20643,2,0,L|268:160,1,42.5
313,11,20786,1,0,0:0:0:0:
151,70,20929,1,0,0:0:0:0:
362,122,21072,1,0,0:0:0:0:
211,278,21215,6,0,B|128:299|128:299|68:280,1,127.5
55,274,21501,1,0,0:0:0:0:
173,110,21643,1,0,0:0:0:0:
124,356,21786,1,0,0:0:0:0:
65,75,21929,5,0,0:0:0:0:
337,165,22072,1,0,0:0:0:0:
9,238,22215,1,0,0:0:0:0:
302,75,22358,6,0,P|378:60|419:151,1,170
335,302,22786,1,0,0:0:0:0:
302,75,22929,1,0,0:0:0:0:
122,218,23072,6,0,L|62:206,1,42.5
295,156,23215,2,0,L|336:164,1,42.5
239,273,23358,2,0,L|231:315,1,42.5
177,100,23501,6,0,B|233:68|233:68|346:80,1,170
371,84,23858,1,0,0:0:0:0:
371,84,23929,1,0,0:0:0:0:
451,238,24072,1,0,0:0:0:0:
478,54,24215,5,0,0:0:0:0:
344,268,24358,1,0,0:0:0:0:
225,44,24501,2,0,P|185:55|144:38,1,85
0,101,24786,5,0,0:0:0:0:
90,221,24929,2,0,P|105:284|60:338,1,127.5
41,333,25215,2,0,L|-3:326,1,42.5
190,200,25358,1,0,0:0:0:0:
212,379,25501,1,0,0:0:0:0:
84,135,25643,1,0,0:0:0:0:
359,146,25786,6,0,L|451:135,1,85
311,47,26072,1,0,0:0:0:0:
273,29,26143,1,0,0:0:0:0:
231,36,26214,1,0,0:0:0:0:
201,67,26286,1,0,0:0:0:0:
195,109,26357,1,0,0:0:0:0:
216,146,26429,1,0,0:0:0:0:
254,164,26501,6,0,L|321:155,1,42.5
506,232,26643,2,0,L|463:226,1,42.5
272,324,26786,2,0,L|339:315,1,42.5
412,130,26929,5,0,0:0:0:0:
426,101,27000,1,0,0:0:0:0:
427,70,27071,1,0,0:0:0:0:
415,40,27143,1,0,0:0:0:0:
392,18,27216,5,0,0:0:0:0:
377,47,27287,1,0,0:0:0:0:
376,78,27358,1,0,0:0:0:0:
388,108,27430,1,0,0:0:0:0:
412,130,27501,1,0,0:0:0:0:
427,159,27572,1,0,0:0:0:0:
429,191,27643,6,0,L|424:259,1,42.5
325,384,27786,2,0,L|321:341,1,42.5
269,116,27929,2,0,L|264:184,1,42.5
158,280,28072,6,0,P|80:292|54:197,1,170
158,131,28501,6,0,P|152:76|103:36,1,85
20,120,28786,1,0,0:0:0:0:
234,73,28929,1,0,0:0:0:0:
161,247,29072,1,0,0:0:0:0:
161,247,29143,1,0,0:0:0:0:
161,247,29215,2,0,P|166:335|247:338,1,170
365,248,29643,6,0,P|417:243|452:278,1,85
266,141,29929,2,0,P|261:89|296:54,1,85
465,128,30215,1,0,0:0:0:0:
339,352,30358,2,0,P|261:320|273:226,1,170
341,97,30786,2,0,L|329:-10,1,85
150,127,31072,2,0,L|140:211,1,85
228,356,31358,1,0,0:0:0:0:
228,356,31429,1,0,0:0:0:0:
228,356,31501,6,0,B|171:340|171:340|112:362|112:362|32:338,1,170
106,180,31929,1,0,0:0:0:0:
281,260,32072,1,0,0:0:0:0:
252,91,32215,5,0,0:0:0:0:
173,264,32358,1,0,0:0:0:0:
0,185,32501,1,0,0:0:0:0:
79,12,32643,2,0,P|123:49|220:7,1,170
384,51,33072,6,0,L|369:151,1,85
412,334,33358,1,0,0:0:0:0:
254,260,33501,1,0,0:0:0:0:
371,135,33643,1,0,0:0:0:0:
371,135,33715,1,0,0:0:0:0:
371,135,33786,2,0,P|438:137|440:34,1,170
263,38,34215,6,0,L|150:56,1,85
7,141,34501,2,0,L|90:154,1,85
243,229,34786,1,0,0:0:0:0:
243,229,34858,1,0,0:0:0:0:
243,229,34929,2,0,B|216:296|241:361|241:361|195:342,1,170
373,206,35358,2,0,P|353:152|329:135,1,85
214,12,35643,2,0,P|177:56|174:85,1,85
205,245,35929,1,0,0:0:0:0:
282,29,36072,6,0,B|232:39|232:39|176:20|176:20|112:33,1,170
72,261,36501,1,0,0:0:0:0:
15,46,36643,1,0,0:0:0:0:
173,303,36786,5,0,0:0:0:0:
173,81,36928,1,0,0:0:0:0:
274,345,37073,5,0,0:0:0:0:
274,345,37143,1,0,0:0:0:0:
274,345,37215,2,0,P|315:286|425:323,1,170
284,150,37643,6,0,L|304:36,1,85
442,19,37929,1,0,0:0:0:0:
420,218,38072,1,0,0:0:0:0:
259,99,38215,1,0,0:0:0:0:
259,99,38286,1,0,0:0:0:0:
259,99,38358,6,0,B|203:111|203:111|139:92|139:92|76:106,1,170
26,260,38786,2,0,P|46:298|34:351,1,85
161,183,39072,2,0,P|156:141|176:104,1,85
237,320,39358,1,0,0:0:0:0:
373,227,39501,6,0,P|454:232|475:335,1,170
437,107,39929,2,0,L|425:0,1,85
252,170,40215,2,0,L|150:150,1,85
399,298,40501,1,0,0:0:0:0:
399,298,40572,1,0,0:0:0:0:
399,298,40643,6,0,B|346:344|346:344|233:330,1,170
284,123,41072,1,0,0:0:0:0:
114,304,41215,1,0,0:0:0:0:
143,127,41358,5,0,0:0:0:0:
246,331,41501,1,0,0:0:0:0:
372,140,41643,1,0,0:0:0:0:
129,266,41786,2,0,P|48:262|36:153,1,170
155,42,42215,6,0,L|140:142,1,85
176,334,42501,1,0,0:0:0:0:
263,213,42643,1,0,0:0:0:0:
55,247,42786,1,0,0:0:0:0:
55,247,42858,1,0,0:0:0:0:
55,247,42929,2,0,B|114:267|114:267|161:243|161:243|230:266,1,170
362,362,43358,6,0,P|391:322|388:268,1,85
330,53,43643,2,0,P|297:111|313:170,1,127.5
330,194,43929,1,0,0:0:0:0:
501,151,44072,6,0,P|467:124|394:136,1,85
213,260,44358,1,0,0:0:0:0:
419,205,44501,2,0,L|428:101,1,85
261,45,44786,1,0,0:0:0:0:
292,281,44929,1,0,0:0:0:0:
72,189,45072,2,0,P|106:161|176:181,1,85
222,362,45358,5,0,0:0:0:0:
384,150,45501,1,0,0:0:0:0:
328,383,45643,5,0,0:0:0:0:
261,45,45786,1,0,0:0:0:0:
485,272,45929,5,0,0:0:0:0:
476,313,46000,1,0,0:0:0:0:
447,343,46071,1,0,0:0:0:0:
406,354,46143,1,0,0:0:0:0:
366,341,46215,2,0,P|343:340|314:348,1,42.5
127,294,46358,2,0,P|150:295|179:287,1,42.5
313,205,46501,6,0,P|327:142|305:82,1,127.5
288,55,46786,2,0,P|242:71|202:54,1,85
31,9,47072,5,0,0:0:0:0:
76,188,47215,1,0,0:0:0:0:
209,59,47358,1,0,0:0:0:0:
61,233,47501,2,0,P|96:305|174:292,1,170
314,141,47929,5,0,0:0:0:0:
76,188,48072,1,0,0:0:0:0:
230,320,48215,5,0,0:0:0:0:
209,59,48358,1,0,0:0:0:0:
94,305,48501,5,0,0:0:0:0:
378,172,48643,2,0,P|452:197|453:293,1,170
206,236,49072,6,0,P|180:176|216:111,1,127.5
231,103,49358,2,0,L|328:116,1,85
396,242,49643,1,0,0:0:0:0:
440,33,49786,2,0,B|387:43|387:43|327:20|327:20|252:31,1,170
98,92,50215,5,0,0:0:0:0:
243,260,50358,1,0,0:0:0:0:
210,101,50501,5,0,0:0:0:0:
121,311,50643,1,0,0:0:0:0:
308,160,50786,5,0,0:0:0:0:
41,142,50929,2,0,P|24:66|101:17,1,170
257,129,51358,2,0,P|318:130|347:56,1,127.5
351,44,51643,1,0,0:0:0:0:
509,122,51786,5,0,0:0:0:0:
509,122,51858,1,0,0:0:0:0:
509,122,51929,1,0,0:0:0:0:
362,219,52072,2,0,P|366:309|464:321,1,170
509,216,52501,5,0,0:0:0:0:
286,328,52643,1,0,0:0:0:0:
486,152,52786,5,0,0:0:0:0:
224,190,52929,1,0,0:0:0:0:
493,85,53072,5,0,0:0:0:0:
245,26,53215,2,0,B|183:12|183:12|51:49,1,170
43,310,53643,5,0,0:0:0:0:
190,72,53786,1,0,0:0:0:0:
172,342,53929,5,0,0:0:0:0:
80,40,54072,1,0,0:0:0:0:
91,379,54215,5,0,0:0:0:0:
300,104,54358,1,0,0:0:0:0:
0,222,54501,5,0,0:0:0:0:
41,271,54573,1,0,0:0:0:0:
103,282,54644,1,0,0:0:0:0:
159,251,54716,1,0,0:0:0:0:
180,191,54787,1,0,0:0:0:0:
159,130,54857,1,0,0:0:0:0:
105,99,54929,2,0,L|38:108,1,42.5
349,163,55072,2,0,L|391:157,1,42.5
172,342,55215,5,0,0:0:0:0:
105,99,55501,6,0,P|143:31|239:60,1,152.999995330811
237,56,55786,1,0,0:0:0:0:
225,268,55929,1,0,0:0:0:0:
225,268,56001,1,0,0:0:0:0:
225,268,56072,1,0,0:0:0:0:
415,173,56215,2,0,B|522:195,1,101.999996887207
359,366,56501,1,0,0:0:0:0:
288,161,56643,6,0,P|296:112|349:73,1,101.999996887207
193,307,56929,2,0,P|146:324|86:298,1,101.999996887207
32,132,57215,1,0,0:0:0:0:
294,266,57358,2,0,B|361:282|361:282|419:251|419:251|512:269,1,203.999993774414
472,15,57786,6,0,P|436:80|339:56,1,152.999995330811
330,68,58072,2,0,L|264:56,1,50.9999984436036
62,108,58215,1,0,0:0:0:0:
206,246,58358,5,0,0:0:0:0:
37,363,58501,2,0,P|23:307|61:265,1,101.999996887207
253,320,58786,1,0,0:0:0:0:
191,118,58929,6,0,P|215:32|319:48,1,203.999993774414
298,290,59358,1,0,0:0:0:0:
456,96,59501,1,0,0:0:0:0:
214,159,59643,1,0,0:0:0:0:
447,251,59786,1,0,0:0:0:0:
313,40,59929,1,0,0:0:0:0:
298,290,60072,6,0,P|249:348|168:314,1,152.999995330811
157,305,60358,1,0,0:0:0:0:
370,345,60501,1,0,0:0:0:0:
370,345,60572,1,0,0:0:0:0:
370,345,60643,1,0,0:0:0:0:
299,141,60786,2,0,L|315:27,1,101.999996887207
481,115,61072,1,0,0:0:0:0:
294,260,61215,6,0,P|242:274|195:245,1,101.999996887207
102,46,61501,1,0,0:0:0:0:
57,216,61643,2,0,L|40:332,1,101.999996887207
194,362,61929,1,0,0:0:0:0:
141,142,62072,1,0,0:0:0:0:
358,206,62215,1,0,0:0:0:0:
112,268,62358,6,0,P|40:249|34:143,1,152.999995330811
26,146,62643,1,0,0:0:0:0:
221,22,62786,1,0,0:0:0:0:
221,22,62858,1,0,0:0:0:0:
221,22,62929,1,0,0:0:0:0:
181,341,63072,5,0,0:0:0:0:
114,63,63215,1,0,0:0:0:0:
181,341,63358,5,0,0:0:0:0:
114,63,63501,1,0,0:0:0:0:
335,262,63643,2,0,P|407:266|458:194,1,152.999995330811
459,172,63929,1,0,0:0:0:0:
299,29,64072,5,0,0:0:0:0:
67,322,64215,1,0,0:0:0:0:
36,59,64358,5,0,0:0:0:0:
329,291,64501,1,0,0:0:0:0:
16,360,64643,6,0,P|14:284|111:276,1,152.999995330811
109,273,64929,1,0,0:0:0:0:
278,366,65072,1,0,0:0:0:0:
278,366,65143,1,0,0:0:0:0:
278,366,65215,1,0,0:0:0:0:
275,174,65358,2,0,L|294:64,1,101.999996887207
463,22,65643,1,0,0:0:0:0:
401,236,65786,6,0,P|403:289|454:318,1,101.999996887207
236,111,66072,2,0,P|189:86|138:115,1,101.999996887207
196,358,66358,1,0,0:0:0:0:
362,116,66501,2,0,P|445:115|471:206,1,152.999995330811
472,204,66786,1,0,0:0:0:0:
297,351,66929,6,0,B|195:329|195:329|122:352,1,152.999995330811
114,355,67215,2,0,L|65:368,1,50.9999984436036
11,168,67358,1,0,0:0:0:0:
225,239,67501,5,0,0:0:0:0:
146,101,67643,2,0,L|127:-18,1,101.999996887207
90,306,67929,1,0,0:0:0:0:
295,251,68072,6,0,B|360:269|360:269|423:240|423:240|505:260,1,203.999993774414
396,29,68501,1,0,0:0:0:0:
341,332,68643,1,0,0:0:0:0:
282,68,68786,1,0,0:0:0:0:
431,303,68928,1,0,0:0:0:0:
511,48,69072,1,0,0:0:0:0:
240,208,69215,6,0,P|167:217|136:131,1,152.999995330811
136,120,69501,1,0,0:0:0:0:
348,73,69643,1,0,0:0:0:0:
282,280,69786,1,0,0:0:0:0:
136,120,69929,2,0,L|152:9,1,101.999996887207
279,167,70215,1,0,0:0:0:0:
112,285,70358,6,0,P|53:291|22:256,1,101.999996887207
85,84,70643,1,0,0:0:0:0:
279,167,70786,2,0,L|393:149,1,101.999996887207
322,369,71072,2,0,P|280:321|180:356,1,152.999995330811
176,361,71358,1,0,0:0:0:0:
11,178,71501,6,0,B|76:198|76:198|138:168|138:168|232:197,1,203.999993774414
388,299,71929,1,0,0:0:0:0:
448,291,72000,1,0,0:0:0:0:
495,251,72072,1,0,0:0:0:0:
512,192,72144,1,0,0:0:0:0:
495,133,72215,1,0,0:0:0:0:
449,93,72286,1,0,0:0:0:0:
388,84,72358,1,0,0:0:0:0:
333,110,72429,1,0,0:0:0:0:
300,162,72501,6,0,L|294:219,1,50.9999984436036
397,384,72643,2,0,L|391:333,1,50.9999984436036
267,221,72786,5,0,0:0:0:0:
199,244,72858,1,0,0:0:0:0:
163,306,72929,1,0,0:0:0:0:
95,325,73000,1,0,0:0:0:0:
30,295,73072,1,0,0:0:0:0:
0,230,73143,1,0,0:0:0:0:
18,161,73214,1,0,0:0:0:0:
77,120,73286,1,0,0:0:0:0:
149,126,73358,2,0,P|184:139|220:132,1,50.9999984436036
381,193,73500,5,0,0:0:0:0:
437,193,73572,1,0,0:0:0:0:
483,161,73643,1,0,0:0:0:0:
500,108,73714,1,0,0:0:0:0:
483,54,73786,6,0,B|373:72|373:72|309:38,1,170
142,0,74215,2,0,P|158:45|143:90,1,85
264,253,74501,2,0,P|248:208|263:163,1,85
321,44,74786,1,0,0:0:0:0:
142,184,74929,5,0,0:0:0:0:
142,184,75001,1,0,0:0:0:0:
142,184,75072,1,0,0:0:0:0:
343,253,75215,6,0,P|383:268|430:252,1,85
243,103,75501,2,0,P|203:88|156:104,1,85
192,290,75786,1,0,0:0:0:0:
12,220,75929,1,0,0:0:0:0:
163,98,76072,6,0,P|225:119|283:56,1,127.5
282,58,76358,1,0,0:0:0:0:
450,22,76501,1,0,0:0:0:0:
397,185,76643,1,0,0:0:0:0:
214,41,76786,6,0,L|141:29,1,42.5
0,179,76929,2,0,L|41:185,1,42.5
204,324,77072,1,0,0:0:0:0:
204,324,77143,1,0,0:0:0:0:
204,324,77215,2,0,L|197:270,1,42.5
214,41,77358,6,0,L|207:114,3,42.5
86,336,77643,2,0,L|82:294,3,42.5
5,108,77929,5,0,0:0:0:0:
286,269,78072,1,0,0:0:0:0:
312,15,78358,6,0,L|304:94,1,68
98,277,87643,6,0,P|128:261|174:266,1,72.2500013780594
343,331,87929,2,0,P|313:347|267:342,2,72.2500013780594
279,212,88358,1,0,0:0:0:0:
279,212,88501,2,0,L|270:119,1,72.2500013780594
348,26,88786,1,0,0:0:0:0:
348,26,89072,6,0,P|288:68|207:37,1,144.500002756119
79,13,89501,1,0,0:0:0:0:
122,141,89643,1,0,0:0:0:0:
33,243,89786,6,0,P|90:244|116:338,1,144.500002756119
214,220,90215,2,0,L|305:208,1,72.2500013780594
475,291,90501,2,0,L|403:300,1,72.2500013780594
387,169,90786,1,0,0:0:0:0:
301,340,90929,1,0,0:0:0:0:
245,119,91072,6,0,L|233:28,1,72.2500013780594
154,233,91358,2,0,L|163:304,1,72.2500013780594
256,221,91643,2,0,L|347:209,1,72.2500013780594
142,130,91929,2,0,L|70:139,1,72.2500013780594
238,296,92215,1,0,0:0:0:0:
238,296,92501,6,0,P|290:334|366:292,1,144.500002756119
345,143,92929,1,0,0:0:0:0:
492,213,93072,1,0,0:0:0:0:
275,234,93215,2,0,L|193:214,1,72.2500013780594
88,68,93643,6,0,P|104:109|94:151,1,72.2500013780594
51,323,93929,2,0,P|35:282|45:240,1,72.2500013780594
204,216,94215,1,0,0:0:0:0:
293,85,94358,2,0,B|388:105|388:105|435:85,1,144.500002756119
350,244,94786,2,0,P|348:286|372:318,1,72.2500013780594
494,185,95072,5,0,0:0:0:0:
504,150,95144,1,0,0:0:0:0:
494,115,95215,1,0,0:0:0:0:
466,92,95287,1,0,0:0:0:0:
431,86,95358,2,0,L|381:97,1,36.1250006890297
189,135,95501,6,0,P|179:74|240:29,1,127.5
262,113,95786,6,0,P|253:195|167:208,1,170
59,155,96215,5,0,0:0:0:0:
59,155,96358,2,0,P|71:196|58:236,1,85
114,366,96643,6,0,P|147:319|235:333,1,152.999995330811
396,368,97072,1,0,0:0:0:0:
342,231,97215,1,0,0:0:0:0:
342,231,97286,1,0,0:0:0:0:
342,231,97358,2,0,L|355:129,1,76.4999976654053
259,22,97643,1,0,0:0:0:0:
438,100,97786,6,0,L|526:80,1,76.4999976654053
251,130,98072,1,0,0:0:0:0:
251,130,98215,2,0,P|205:133|178:106,1,76.4999976654053
142,35,98429,1,0,0:0:0:0:
142,35,98501,2,0,P|105:26|72:44,1,76.4999976654053
70,182,98786,6,0,P|78:255|11:301,1,152.999995330811
171,336,99215,1,0,0:0:0:0:
171,336,99358,2,0,L|257:345,1,76.4999976654053
450,275,99643,2,0,L|364:284,1,76.4999976654053
256,202,99929,1,0,0:0:0:0:
256,202,100072,6,0,P|240:166|256:104,1,76.4999976654053
395,8,100358,1,0,0:0:0:0:
395,8,100501,2,0,P|411:44|395:106,1,76.4999976654053
363,161,100715,1,0,0:0:0:0:
363,161,100786,2,0,L|370:261,1,76.4999976654053,0|0,0:0|0:0,0:0:0:0:
244,344,101072,1,0,0:0:0:0:
244,344,101143,1,0,0:0:0:0:
244,344,101215,6,0,P|206:282|118:302,1,152.999995330811
7,356,101643,1,0,0:0:0:0:
26,170,101786,1,0,0:0:0:0:
26,170,101858,1,0,0:0:0:0:
26,170,101929,2,0,L|16:70,1,76.4999976654053
159,37,102215,1,0,0:0:0:0:
153,235,102358,6,0,L|161:319,1,85
345,258,102643,1,0,0:0:0:0:
106,133,102786,1,0,0:0:0:0:
226,375,102929,5,0,0:0:0:0:
226,333,103000,1,0,0:0:0:0:
249,298,103071,1,0,0:0:0:0:
288,280,103143,1,0,0:0:0:0:
330,287,103215,2,0,L|388:300,1,42.5
512,154,103358,5,0,0:0:0:0:
473,172,103430,1,0,0:0:0:0:
431,165,103500,2,0,L|373:152,1,42.5
290,23,103643,5,0,0:0:0:0:
206,193,103786,1,0,0:0:0:0:
374,105,103929,1,0,0:0:0:0:
186,77,104072,1,0,0:0:0:0:
186,77,104143,1,0,0:0:0:0:
186,77,104215,6,0,P|151:67|91:77,2,56.6666666666667
321,209,104501,2,0,P|356:219|416:209,2,56.6666666666667
158,231,104786,6,0,B|138:333|138:333|156:383,1,152.999995330811
373,353,105358,5,0,0:0:0:0:
12,176,105501,1,0,0:0:0:0:
301,217,105786,6,0,P|345:166|426:198,1,152.999995330811
433,220,106072,1,0,0:0:0:0:
373,353,106215,1,0,0:0:0:0:
373,353,106287,1,0,0:0:0:0:
373,353,106358,1,0,0:0:0:0:
440,128,106501,2,0,B|417:21,1,101.999996887207
301,217,106786,1,0,0:0:0:0:
196,86,106929,6,0,L|88:67,1,101.999996887207
38,311,107215,2,0,P|90:265|85:211,1,101.999996887207
7,47,107501,1,0,0:0:0:0:
224,209,107644,2,0,P|308:209|306:97,1,203.999993774414
323,341,108072,6,0,B|376:362|376:362|507:325,1,152.999995330811
503,326,108358,2,0,L|437:307,1,50.9999984436036
359,193,108501,1,0,0:0:0:0:
476,92,108644,5,0,0:0:0:0:
275,206,108786,2,0,L|157:186,1,101.999996887207
130,12,109072,1,0,0:0:0:0:
185,254,109215,6,0,P|148:335|39:306,1,203.999993774414
67,126,109644,1,0,0:0:0:0:
154,365,109787,1,0,0:0:0:0:
212,85,109929,1,0,0:0:0:0:
48,319,110072,1,0,0:0:0:0:
120,27,110215,1,0,0:0:0:0:
238,283,110358,6,0,B|338:298|338:298|395:271,1,152.999995330811
417,260,110644,1,0,0:0:0:0:
353,62,110787,1,0,0:0:0:0:
353,62,110858,1,0,0:0:0:0:
353,62,110929,1,0,0:0:0:0:
222,210,111072,2,0,P|171:214|130:164,1,101.999996887207
180,5,111358,1,0,0:0:0:0:
3,120,111501,6,0,L|15:224,1,101.999996887207
120,366,111787,1,0,0:0:0:0:
222,210,111929,2,0,P|270:206|319:237,1,101.999996887207
388,369,112215,1,0,0:0:0:0:
430,117,112358,1,0,0:0:0:0:
255,337,112501,1,0,0:0:0:0:
430,117,112643,6,0,P|437:55|343:26,1,152.999995330811
330,26,112929,1,0,0:0:0:0:
219,178,113072,1,0,0:0:0:0:
219,178,113144,1,0,0:0:0:0:
219,178,113215,1,0,0:0:0:0:
123,25,113358,5,0,0:0:0:0:
426,179,113501,1,0,0:0:0:0:
123,25,113643,5,0,0:0:0:0:
426,179,113786,1,0,0:0:0:0:
249,353,113929,2,0,P|231:293|131:289,1,152.999995330811
116,289,114215,1,0,0:0:0:0:
245,10,114358,5,0,0:0:0:0:
154,366,114501,1,0,0:0:0:0:
21,142,114643,5,0,0:0:0:0:
377,233,114786,1,0,0:0:0:0:
154,366,114929,6,0,P|154:300|248:288,1,152.999995330811
258,292,115215,1,0,0:0:0:0:
48,238,115358,1,0,0:0:0:0:
48,238,115429,1,0,0:0:0:0:
48,238,115501,1,0,0:0:0:0:
192,101,115644,2,0,L|174:-13,1,101.999996887207
5,112,115929,1,0,0:0:0:0:
105,299,116072,6,0,P|145:267|210:269,1,101.999996887207
387,353,116358,2,0,P|408:307|400:258,1,101.999996887207
291,96,116643,1,0,0:0:0:0:
297,351,116786,6,0,P|233:372|181:294,1,152.999995330811
188,280,117072,1,0,0:0:0:0:
291,96,117215,6,0,B|191:63|191:63|111:93,1,152.999995330811
112,92,117501,2,0,L|57:77,1,50.9999984436036
23,304,117644,1,0,0:0:0:0:
194,159,117786,5,0,0:0:0:0:
217,354,117929,2,0,P|263:368|319:334,1,101.999996887207
44,271,118215,1,0,0:0:0:0:
295,251,118358,6,0,B|360:269|360:269|423:240|423:240|505:260,1,203.999993774414
396,29,118787,1,0,0:0:0:0:
341,332,118929,1,0,0:0:0:0:
282,68,119072,1,0,0:0:0:0:
431,303,119214,1,0,0:0:0:0:
511,48,119358,1,0,0:0:0:0:
240,208,119501,6,0,P|167:217|136:131,1,152.999995330811
136,120,119787,1,0,0:0:0:0:
348,73,119929,1,0,0:0:0:0:
282,280,120072,1,0,0:0:0:0:
136,120,120215,2,0,L|152:9,1,101.999996887207
279,167,120501,1,0,0:0:0:0:
112,285,120644,6,0,P|53:291|22:256,1,101.999996887207
85,84,120929,1,0,0:0:0:0:
279,167,121072,2,0,L|393:149,1,101.999996887207
322,369,121358,2,0,P|280:321|180:356,1,152.999995330811
176,361,121644,1,0,0:0:0:0:
37,293,121786,6,0,P|20:214|125:152,1,203.999993774414
292,197,122215,1,0,0:0:0:0:
348,222,122286,1,0,0:0:0:0:
409,214,122358,1,0,0:0:0:0:
455,174,122429,1,0,0:0:0:0:
472,115,122501,1,0,0:0:0:0:
455,56,122572,1,0,0:0:0:0:
408,16,122644,1,0,0:0:0:0:
348,7,122715,1,0,0:0:0:0:
293,33,122786,6,0,P|267:46|233:45,1,50.9999984436036
26,92,122929,2,0,P|48:103|73:106,1,50.9999984436036
292,197,123072,5,0,0:0:0:0:
316,265,123144,1,0,0:0:0:0:
292,332,123215,1,0,0:0:0:0:
230,367,123286,1,0,0:0:0:0:
159,355,123358,1,0,0:0:0:0:
113,300,123429,1,0,0:0:0:0:
113,228,123501,1,0,0:0:0:0:
159,173,123572,1,0,0:0:0:0:
230,161,123644,5,0,0:0:0:0:
287,194,123715,1,0,0:0:0:0:
352,183,123786,1,0,0:0:0:0:
396,133,123858,1,0,0:0:0:0:
394,67,123929,1,0,0:0:0:0:
352,15,124001,1,0,0:0:0:0:
287,4,124072,6,0,L|232:17,3,42.5
88,153,124358,5,0,0:0:0:0:
54,127,124429,1,0,0:0:0:0:
45,85,124501,2,0,L|59:25,1,42.5
187,229,124643,5,0,0:0:0:0:
221,203,124714,1,0,0:0:0:0:
230,161,124786,2,0,L|216:101,1,42.5
88,305,124929,5,0,0:0:0:0:
54,279,125000,1,0,0:0:0:0:
45,237,125072,2,0,L|59:177,1,42.5
187,381,125215,5,0,0:0:0:0:
221,355,125286,1,0,0:0:0:0:
230,313,125358,2,0,L|216:253,1,42.5
182,122,125501,5,0,0:0:0:0:
182,80,125572,1,0,0:0:0:0:
210,48,125644,1,0,0:0:0:0:
252,40,125715,1,0,0:0:0:0:
289,62,125787,1,0,0:0:0:0:
303,102,125858,1,0,0:0:0:0:
289,142,125929,5,0,0:0:0:0:
316,190,126001,1,0,0:0:0:0:
368,209,126072,1,0,0:0:0:0:
421,191,126144,1,0,0:0:0:0:
447,142,126215,1,0,0:0:0:0:
439,87,126287,1,0,0:0:0:0:
397,52,126358,6,0,L|293:69,1,85
124,116,126643,1,0,0:0:0:0:
124,116,126786,2,0,P|108:72|132:15,1,85
255,214,127072,5,0,0:0:0:0:
197,363,127215,1,0,0:0:0:0:
386,312,127358,2,0,P|437:304|477:338,1,85
305,384,127643,5,0,0:0:0:0:
114,248,127786,1,0,0:0:0:0:
360,213,127929,2,0,L|347:116,1,85
154,31,128215,5,0,0:0:0:0:
114,248,128358,1,0,0:0:0:0:
332,287,128501,1,0,0:0:0:0:
370,70,128643,6,0,L|280:88,1,85
114,248,128929,1,0,0:0:0:0:
83,44,129072,1,0,0:0:0:0:
269,229,129215,1,0,0:0:0:0:
8,203,129358,5,0,0:0:0:0:
286,86,129501,1,0,0:0:0:0:
8,203,129643,1,0,0:0:0:0:
286,86,129786,1,0,0:0:0:0:
180,348,129929,5,0,0:0:0:0:
87,126,130072,1,0,0:0:0:0:
309,40,130215,1,0,0:0:0:0:
390,259,130358,1,0,0:0:0:0:
60,263,130501,5,0,0:0:0:0:
168,12,130644,1,0,0:0:0:0:
421,118,130787,1,0,0:0:0:0:
309,367,130929,2,0,P|300:318|320:274,1,85
500,185,131215,5,0,0:0:0:0:
207,96,131358,1,0,0:0:0:0:
342,328,131501,5,0,0:0:0:0:
461,16,131643,1,0,0:0:0:0:
472,315,131786,5,0,0:0:0:0:
256,68,131929,1,0,0:0:0:0:
40,315,132072,2,0,P|112:331|148:241,1,170
38,62,132501,2,0,B|136:81,1,85
285,10,132786,5,0,0:0:0:0:
308,295,132929,1,0,0:0:0:0:
121,78,133071,1,0,0:0:0:0:
400,144,133215,6,0,B|516:118|516:118|445:84,1,187.000005706787
224,93,133643,2,0,P|204:139|241:199,1,93.5000028533936
342,321,133929,1,0,0:0:0:0:
317,83,134072,1,0,0:0:0:0:
124,224,134215,1,0,0:0:0:0:
390,189,134358,6,0,P|468:215|449:324,1,187.000005706787
204,211,134786,2,0,P|197:164|233:111,1,93.5000028533936
351,28,135072,1,0,0:0:0:0:
304,277,135215,1,0,0:0:0:0:
111,111,135358,1,0,0:0:0:0:
359,159,135501,5,0,0:0:0:0:
97,228,135643,1,0,0:0:0:0:
345,276,135786,1,0,0:0:0:0:
111,111,135929,5,0,0:0:0:0:
268,360,136072,1,0,0:0:0:0:
330,51,136215,2,0,L|440:35,1,93.5000028533936
392,333,136501,5,0,0:0:0:0:
199,92,136643,2,0,L|213:-15,1,93.5000028533936
340,135,136929,6,0,L|347:190,1,46.7500014266968
292,368,137072,2,0,L|285:321,1,46.7500014266968
432,275,137215,2,0,L|376:282,1,46.7500014266968
199,227,137358,5,0,0:0:0:0:
179,215,137429,1,0,0:0:0:0:
156,210,137500,1,0,0:0:0:0:
133,213,137572,1,0,0:0:0:0:
113,224,137643,1,0,0:0:0:0:
97,242,137715,1,0,0:0:0:0:
89,263,137786,6,0,P|96:314|130:338,1,93.5000028533936
251,159,138072,1,0,0:0:0:0:
251,159,138143,1,0,0:0:0:0:
251,159,138215,2,0,L|234:53,1,93.5000028533936
76,102,138501,5,0,0:0:0:0:
219,294,138643,1,0,0:0:0:0:
314,75,138786,1,0,0:0:0:0:
76,102,138929,5,0,0:0:0:0:
321,210,139071,1,0,0:0:0:0:
58,267,139214,1,0,0:0:0:0:
238,67,139357,1,0,0:0:0:0:
156,364,139501,5,0,0:0:0:0:
101,47,139643,1,0,0:0:0:0:
333,269,139787,1,0,0:0:0:0:
13,225,139930,1,0,0:0:0:0:
298,74,140073,1,0,0:0:0:0:
156,364,140215,5,0,0:0:0:0:
209,384,140287,1,0,0:0:0:0:
262,365,140358,1,0,0:0:0:0:
289,316,140430,1,0,0:0:0:0:
280,261,140501,1,0,0:0:0:0:
237,225,140573,1,0,0:0:0:0:
181,225,140643,5,0,0:0:0:0:
131,190,140715,1,0,0:0:0:0:
113,132,140786,1,0,0:0:0:0:
131,74,140857,1,0,0:0:0:0:
181,38,140929,1,0,0:0:0:0:
241,38,141000,1,0,0:0:0:0:
291,74,141072,5,0,0:0:0:0:
313,136,141144,1,0,0:0:0:0:
368,172,141216,1,0,0:0:0:0:
433,167,141287,1,0,0:0:0:0:
484,127,141357,5,0,0:0:0:0:
422,104,141429,1,0,0:0:0:0:
360,125,141501,1,0,0:0:0:0:
322,178,141572,1,0,0:0:0:0:
325,243,141643,5,0,0:0:0:0:
286,302,141715,1,0,0:0:0:0:
220,327,141787,1,0,0:0:0:0:
153,308,141858,1,0,0:0:0:0:
108,255,141929,2,0,L|108:176,1,46.7500014266968
247,29,142072,5,0,0:0:0:0:
326,15,142144,1,0,0:0:0:0:
394,55,142215,1,0,0:0:0:0:
421,129,142286,1,0,0:0:0:0:
394,204,142358,1,0,0:0:0:0:
325,243,142429,1,0,0:0:0:0:
246,229,142501,2,0,L|169:239,1,46.7500014266968
473,67,142643,5,0,0:0:0:0:
256,192,142715,12,0,144215,0:0:0:0:
216,292,144501,5,0,0:0:0:0:
296,92,144786,1,0,0:0:0:0:
256,192,144858,12,0,146643,0:0:0:0:
401,189,146786,5,0,0:0:0:0:
403,159,146857,1,0,0:0:0:0:
406,129,146928,1,0,0:0:0:0:
409,100,147000,1,0,0:0:0:0:
412,70,147071,5,0,0:0:0:0:
227,20,147215,1,0,0:0:0:0:
277,206,147358,1,0,0:0:0:0:
412,70,147499,5,0,0:0:0:0:
226,119,147643,1,0,0:0:0:0:
363,255,147786,1,0,0:0:0:0:
412,70,147929,5,0,0:0:0:0:
277,206,148073,1,0,0:0:0:0:
463,255,148216,1,0,0:0:0:0:
412,70,148358,5,0,0:0:0:0:
351,300,148501,2,0,L|367:393,1,85
412,70,148786,2,0,L|298:52,1,85
109,115,149072,5,0,0:0:0:0:
104,86,149143,1,0,0:0:0:0:
110,56,149215,2,0,L|172:22,1,42.5
140,257,149357,5,0,0:0:0:0:
117,275,149428,1,0,0:0:0:0:
88,285,149500,2,0,L|27:248,1,42.5
248,160,149643,5,0,0:0:0:0:
275,170,149714,1,0,0:0:0:0:
298,190,149786,2,0,L|296:260,1,42.5
58,196,149930,5,0,0:0:0:0:
22,177,150001,1,0,0:0:0:0:
1,139,150073,1,0,0:0:0:0:
5,96,150144,1,0,0:0:0:0:
30,63,150216,1,0,0:0:0:0:
70,47,150287,1,0,0:0:0:0:
110,56,150357,1,0,0:0:0:0:
141,87,150430,1,0,0:0:0:0:
150,128,150501,2,0,L|141:190,1,42.5
79,340,150643,6,0,P|121:363|199:319,1,127.5
259,254,150929,2,0,P|313:224|370:248,1,127.5
369,340,151215,2,0,P|312:364|258:335,1,127.5
189,254,151501,6,0,P|134:225|66:278,1,152.999995330811
63,308,151786,1,0,0:0:0:0:
91,63,151929,1,0,0:0:0:0:
91,63,152001,1,0,0:0:0:0:
91,63,152072,1,0,0:0:0:0:
289,210,152215,2,0,L|411:182,1,101.999996887207
466,41,152501,1,0,0:0:0:0:
434,251,152643,6,0,P|430:300|473:348,1,101.999996887207
351,74,152929,2,0,P|302:51|245:68,1,101.999996887207
58,133,153215,1,0,0:0:0:0:
201,289,153358,2,0,P|152:360|40:318,1,203.999993774414
217,166,153786,6,0,B|266:182|266:182|373:148,1,152.999995330811
396,139,154072,2,0,L|468:158,1,50.9999984436036
375,325,154215,1,0,0:0:0:0:
405,64,154358,5,0,0:0:0:0:
164,169,154501,2,0,L|60:146,1,101.999996887207
247,27,154786,1,0,0:0:0:0:
362,241,154929,6,0,B|337:311|337:311|355:376|355:376|278:344,1,203.999993774414
138,315,155358,1,0,0:0:0:0:
292,141,155501,1,0,0:0:0:0:
241,374,155643,1,0,0:0:0:0:
195,101,155786,1,0,0:0:0:0:
454,197,155929,1,0,0:0:0:0:
171,249,156072,6,0,B|69:271|69:271|9:242,1,152.999995330811
0,232,156358,1,0,0:0:0:0:
109,36,156501,1,0,0:0:0:0:
109,36,156572,1,0,0:0:0:0:
109,36,156643,1,0,0:0:0:0:
74,284,156786,2,0,L|94:388,1,101.999996887207
307,191,157072,1,0,0:0:0:0:
109,36,157215,6,0,L|229:21,1,101.999996887207
453,51,157501,1,0,0:0:0:0:
307,191,157643,2,0,L|290:307,1,101.999996887207
420,381,157929,1,0,0:0:0:0:
197,273,158072,1,0,0:0:0:0:
402,133,158215,1,0,0:0:0:0:
241,351,158358,6,0,P|176:374|117:293,1,152.999995330811
119,287,158643,1,0,0:0:0:0:
239,92,158786,1,0,0:0:0:0:
239,92,158858,1,0,0:0:0:0:
239,92,158929,1,0,0:0:0:0:
323,269,159072,5,0,0:0:0:0:
35,110,159215,1,0,0:0:0:0:
323,269,159358,5,0,0:0:0:0:
35,110,159501,1,0,0:0:0:0:
311,94,159643,2,0,B|366:105|366:105|482:78,1,152.999995330811
495,74,159929,1,0,0:0:0:0:
292,11,160072,5,0,0:0:0:0:
216,370,160215,1,0,0:0:0:0:
117,67,160358,5,0,0:0:0:0:
390,313,160501,1,0,0:0:0:0:
79,247,160643,6,0,P|43:194|71:109,1,152.999995330811
94,92,160929,1,0,0:0:0:0:
340,164,161072,1,0,0:0:0:0:
340,164,161143,1,0,0:0:0:0:
340,164,161215,1,0,0:0:0:0:
166,377,161358,2,0,L|150:250,1,101.999996887207
248,23,161643,1,0,0:0:0:0:
342,298,161786,6,0,P|389:300|429:261,1,101.999996887207
205,161,162072,2,0,P|169:126|119:127,1,101.999996887207
93,327,162358,1,0,0:0:0:0:
36,55,162501,2,0,B|94:24|94:24|197:42,1,152.999995330811
214,46,162786,1,0,0:0:0:0:
385,244,162929,6,0,B|412:152|412:152|400:91,1,152.999995330811
394,60,163215,2,0,L|400:0,1,50.9999984436036
210,231,163358,1,0,0:0:0:0:
248,6,163501,5,0,0:0:0:0:
421,167,163643,2,0,P|472:175|510:131,1,101.999996887207
210,231,163929,1,0,0:0:0:0:
248,6,164072,6,0,B|190:27|190:27|112:3|112:3|32:29,1,203.999993774414
133,278,164501,1,0,0:0:0:0:
219,26,164643,1,0,0:0:0:0:
1,179,164786,1,0,0:0:0:0:
268,183,164929,1,0,0:0:0:0:
54,21,165072,1,0,0:0:0:0:
133,278,165215,6,0,P|199:264|237:352,1,152.999995330811
230,361,165501,1,0,0:0:0:0:
307,125,165643,1,0,0:0:0:0:
424,289,165786,1,0,0:0:0:0:
163,185,165929,2,0,L|59:205,1,101.999996887207
85,361,166215,1,0,0:0:0:0:
103,126,166358,6,0,L|79:8,1,101.999996887207
7,292,166643,1,0,0:0:0:0:
230,206,166786,2,0,P|285:200|331:232,1,101.999996887207
494,122,167072,2,0,P|483:41|415:17,1,152.999995330811
389,27,167358,1,0,0:0:0:0:
137,201,167501,6,0,B|98:131|98:131|126:1,1,203.999993774414
204,232,167929,1,0,0:0:0:0:
224,290,168001,1,0,0:0:0:0:
204,348,168072,1,0,0:0:0:0:
150,378,168144,1,0,0:0:0:0:
90,367,168215,1,0,0:0:0:0:
51,321,168286,1,0,0:0:0:0:
51,259,168358,2,0,L|68:198,1,50.9999984436036
231,145,168501,5,0,0:0:0:0:
254,137,168572,1,0,0:0:0:0:
279,140,168643,1,0,0:0:0:0:
302,151,168715,1,0,0:0:0:0:
319,171,168786,5,0,0:0:0:0:
387,207,168858,1,0,0:0:0:0:
460,186,168929,1,0,0:0:0:0:
496,119,169000,1,0,0:0:0:0:
474,45,169072,1,0,0:0:0:0:
407,8,169143,1,0,0:0:0:0:
333,30,169215,1,0,0:0:0:0:
297,97,169286,1,0,0:0:0:0:
319,171,169358,5,0,0:0:0:0:
315,273,169429,1,0,0:0:0:0:
241,343,169500,1,0,0:0:0:0:
139,338,169571,1,0,0:0:0:0:
70,263,169642,1,0,0:0:0:0:
75,161,169714,1,0,0:0:0:0:
151,92,169786,6,0,B|229:109|229:109|302:78|302:78|396:99,1,237.999992736817
463,284,170215,2,0,P|458:335|490:372,1,93.5000028533936
252,259,170501,2,0,L|139:285,1,93.5000028533936
32,144,170786,1,0,0:0:0:0:
98,373,170929,5,0,0:0:0:0:
264,202,171072,1,0,0:0:0:0:
32,144,171215,2,0,L|49:27,1,93.5000028533936
138,282,171501,2,0,P|102:320|56:321,1,93.5000028533936
222,114,171786,2,0,P|267:120|296:155,1,93.5000028533936
264,355,172072,6,0,B|328:376|328:376|448:337,1,187.000005706787
335,110,172501,1,0,0:0:0:0:
475,321,172643,1,0,0:0:0:0:
510,145,172787,5,0,0:0:0:0:
299,285,172929,2,0,L|191:268,1,93.5000028533936
29,316,173215,5,0,0:0:0:0:
43,90,173358,2,0,P|82:128|82:189,1,93.5000028533936
152,350,173643,2,0,P|110:370|56:352,1,93.5000028533936
275,212,173929,2,0,L|393:238,1,93.5000028533936
259,361,174215,1,0,0:0:0:0:
199,114,174358,6,0,P|232:36|342:58,1,187.000005706787
313,302,174786,1,0,0:0:0:0:
481,78,174929,1,0,0:0:0:0:
471,342,175072,1,0,0:0:0:0:
323,38,175215,1,0,0:0:0:0:
512,214,175358,1,0,0:0:0:0:
282,166,175501,5,0,0:0:0:0:
364,343,175643,1,0,0:0:0:0:
364,343,175786,2,0,P|318:367|259:354,1,93.5000028533936
51,287,176072,2,0,P|91:264|137:266,1,93.5000028533936
299,190,176358,2,0,P|309:138|288:92,1,93.5000028533936
0,123,176643,6,0,L|113:141,1,93.5000028533936
161,277,176929,1,0,0:0:0:0:
219,35,177072,1,0,0:0:0:0:
434,155,177215,6,0,P|401:194|341:197,1,93.5000028533936
224,10,177501,1,0,0:0:0:0:
155,301,177643,1,0,0:0:0:0:
369,137,177786,6,0,L|343:33,1,93.5000028533936
92,137,178072,1,0,0:0:0:0:
397,219,178215,1,0,0:0:0:0:
109,352,178358,6,0,P|65:364|23:340,1,93.5000028533936
100,91,178643,1,0,0:0:0:0:
353,349,178787,1,0,0:0:0:0:
450,1,178929,6,0,P|406:75|310:42,1,187.000005706787
111,4,179358,2,0,P|120:49|87:100,1,93.5000028533936
18,292,179643,2,0,P|52:261|113:264,1,93.5000028533936
313,229,179929,1,0,0:0:0:0:
217,360,180072,5,0,0:0:0:0:
236,112,180215,1,0,0:0:0:0:
441,252,180358,2,0,L|426:350,1,93.5000028533936
369,92,180643,2,0,P|415:67|469:81,1,93.5000028533936
276,237,180929,2,0,P|230:241|190:217,1,93.5000028533936
205,42,181215,6,0,B|69:19|69:19|102:75,1,187.000005706787
112,266,181643,2,0,P|76:298|3:285,1,93.5000028533936
274,149,181929,2,0,P|319:152|353:183,1,93.5000028533936
261,369,182215,1,0,0:0:0:0:
175,163,182358,6,0,P|183:82|290:60,1,187.000005706787
416,198,182786,1,0,0:0:0:0:
468,5,182929,1,0,0:0:0:0:
286,184,183072,5,0,0:0:0:0:
268,209,183143,1,0,0:0:0:0:
262,240,183214,1,0,0:0:0:0:
268,270,183286,1,0,0:0:0:0:
284,296,183357,1,0,0:0:0:0:
310,314,183429,1,0,0:0:0:0:
340,321,183501,6,0,L|447:303,1,85
474,95,183786,1,0,0:0:0:0:
474,95,183858,1,0,0:0:0:0:
474,95,183929,2,0,L|405:106,1,42.5
286,184,184072,1,0,0:0:0:0:
242,13,184215,5,0,0:0:0:0:
103,138,184357,1,0,0:0:0:0:
315,86,184500,1,0,0:0:0:0:
77,76,184644,1,0,0:0:0:0:
293,141,184787,5,0,0:0:0:0:
128,295,184929,1,0,0:0:0:0:
189,64,185073,1,0,0:0:0:0:
232,372,185215,1,0,0:0:0:0:
56,239,185357,5,0,0:0:0:0:
364,196,185499,1,0,0:0:0:0:
116,342,185643,1,0,0:0:0:0:
304,93,185785,1,0,0:0:0:0:
232,372,185929,5,0,0:0:0:0:
206,332,186001,1,0,0:0:0:0:
206,285,186072,1,0,0:0:0:0:
232,246,186143,1,0,0:0:0:0:
275,227,186215,1,0,0:0:0:0:
321,233,186286,1,0,0:0:0:0:
357,264,186357,5,0,0:0:0:0:
396,264,186429,1,0,0:0:0:0:
427,242,186501,1,0,0:0:0:0:
438,205,186572,1,0,0:0:0:0:
427,169,186643,2,0,L|416:111,1,42.5
322,8,186786,5,0,0:0:0:0:
315,50,186857,1,0,0:0:0:0:
291,85,186928,1,0,0:0:0:0:
255,108,187000,1,0,0:0:0:0:
213,113,187071,1,0,0:0:0:0:
172,101,187143,1,0,0:0:0:0:
140,73,187215,5,0,0:0:0:0:
106,68,187286,1,0,0:0:0:0:
75,82,187357,1,0,0:0:0:0:
57,111,187429,1,0,0:0:0:0:
57,145,187500,1,0,0:0:0:0:
75,173,187572,1,0,0:0:0:0:
106,188,187643,2,0,L|168:180,1,42.5
414,142,187786,5,0,0:0:0:0:
414,142,188072,6,0,P|383:210|453:283,1,170
465,280,188429,1,0,0:0:0:0:
465,280,188501,1,0,0:0:0:0:
271,262,188643,1,0,0:0:0:0:
354,377,188786,5,0,0:0:0:0:
327,126,188929,1,0,0:0:0:0:
124,275,189072,2,0,L|26:255,1,85
21,54,189358,5,0,0:0:0:0:
170,216,189500,2,0,B|259:196|259:196|319:212,1,127.5
326,217,189786,2,0,L|385:234,1,42.5
429,378,189929,1,0,0:0:0:0:
381,128,190072,1,0,0:0:0:0:
231,295,190215,2,0,L|172:312,1,42.5
469,246,190357,6,0,P|503:210|482:115,1,127.5
481,106,190643,1,0,0:0:0:0:
241,138,190787,1,0,0:0:0:0:
500,112,190929,1,0,0:0:0:0:
469,246,191072,5,0,0:0:0:0:
226,41,191215,1,0,0:0:0:0:
170,354,191357,2,0,L|63:341,1,85
27,111,191643,5,0,0:0:0:0:
218,246,191786,1,0,0:0:0:0:
55,274,191929,5,0,0:0:0:0:
190,83,192072,1,0,0:0:0:0:
190,83,192143,1,0,0:0:0:0:
190,83,192215,1,0,0:0:0:0:
287,295,192357,6,0,P|363:291|383:380,1,170
352,127,192786,1,0,0:0:0:0:
511,232,192929,1,0,0:0:0:0:
511,232,193001,1,0,0:0:0:0:
511,232,193072,1,0,0:0:0:0:
297,261,193215,1,0,0:0:0:0:
378,61,193357,5,0,0:0:0:0:
409,295,193501,1,0,0:0:0:0:
190,204,193643,2,0,L|89:231,1,85
63,361,193929,5,0,0:0:0:0:
10,114,194072,2,0,P|39:61|132:74,1,127.5
130,69,194358,2,0,P|176:79|239:39,1,85
392,0,194644,1,0,0:0:0:0:
360,190,194786,2,0,L|369:243,1,42.5
472,375,194929,6,0,L|487:281,1,85
437,85,195215,1,0,0:0:0:0:
402,60,195286,1,0,0:0:0:0:
360,60,195358,1,0,0:0:0:0:
325,85,195429,1,0,0:0:0:0:
312,125,195501,1,0,0:0:0:0:
325,165,195572,1,0,0:0:0:0:
360,190,195643,6,0,L|432:178,1,42.5
148,255,195786,2,0,L|76:243,1,42.5
298,341,195929,6,0,L|291:392,3,42.5
242,144,196215,5,0,0:0:0:0:
225,92,196286,1,0,0:0:0:0:
242,39,196358,1,0,0:0:0:0:
287,7,196429,1,0,0:0:0:0:
343,7,196501,1,0,0:0:0:0:
388,39,196572,1,0,0:0:0:0:
405,91,196643,1,0,0:0:0:0:
388,144,196715,1,0,0:0:0:0:
343,176,196786,5,0,0:0:0:0:
270,175,196858,1,0,0:0:0:0:
215,128,196929,1,0,0:0:0:0:
143,117,197001,1,0,0:0:0:0:
81,152,197072,1,0,0:0:0:0:
56,220,197143,1,0,0:0:0:0:
82,288,197215,6,0,B|108:338|93:378|93:378|42:382|34:319,1,170
169,220,197643,2,0,L|258:239,1,85
345,360,197929,1,0,0:0:0:0:
468,267,198072,1,0,0:0:0:0:
375,144,198215,1,0,0:0:0:0:
252,237,198357,6,0,B|144:215|144:215|76:231,1,170
13,50,198786,2,0,P|47:74|118:52,1,85
271,0,199072,5,0,0:0:0:0:
291,25,199143,1,0,0:0:0:0:
299,55,199214,1,0,0:0:0:0:
295,87,199286,1,0,0:0:0:0:
279,115,199357,1,0,0:0:0:0:
150,217,199500,6,0,P|146:303|231:325,1,170
331,224,199929,1,0,0:0:0:0:
360,213,200000,1,0,0:0:0:0:
391,217,200071,1,0,0:0:0:0:
417,235,200143,1,0,0:0:0:0:
431,264,200214,1,0,0:0:0:0:
258,376,200357,2,0,L|265:306,1,42.5
167,92,200500,2,0,L|171:134,1,42.5
76,297,200643,5,0,0:0:0:0:
