osu file format v14

[General]
AudioFilename: audio.mp3
AudioLeadIn: 0
PreviewTime: 55396
Countdown: 0
SampleSet: Normal
StackLeniency: 0.7
Mode: 0
LetterboxInBreaks: 0
WidescreenStoryboard: 0

[Editor]
Bookmarks: 114824,160538,176538,179252
DistanceSpacing: 0.5
BeatDivisor: 4
GridSize: 4
TimelineZoom: 2.1

[Metadata]
Title:Fiction
TitleUnicode:Fiction
Artist:Minstrel
ArtistUnicode:Minstrel
Creator:Gravified
Version:Kite's Extra
Source:
Tags:LIQU@. @-dash! yuta オレオレウサギ りくあっと ぎゃぷいち neochi. AutumnLeaves reku C85 Comiket 85 recollection japanese rock jrock doujin Kite Kyubey Deramok
BeatmapID:2257419
BeatmapSetID:975363

[Difficulty]
HPDrainRate:7.8
CircleSize:4.3
OverallDifficulty:9
ApproachRate:9
SliderMultiplier:1.83
SliderTickRate:1

[Events]
//Background and Video events
0,0,"Recollection.jpg",0,0
//Break Periods
2,78632,86939
//Storyboard Layer 0 (Background)
//Storyboard Layer 1 (Fail)
//Storyboard Layer 2 (Pass)
//Storyboard Layer 3 (Foreground)
//Storyboard Layer 4 (Overlay)
//Storyboard Sound Samples

[TimingPoints]
-461,285.714285714286,4,1,4,80,1,0
110,-133.333333333333,4,1,4,80,0,0
681,-111.111111111111,4,2,1,80,0,0
2752,-111.111111111111,4,1,4,80,0,0
3038,-111.111111111111,4,2,1,80,0,0
4038,-111.111111111111,4,1,4,50,0,0
5038,-111.111111111111,4,1,4,80,0,0
5610,-111.111111111111,4,1,4,50,0,0
9252,-66.6666666666667,4,1,4,80,0,0
9681,-66.6666666666667,4,1,4,80,0,0
9824,-100,4,1,1,80,0,0
28395,-111.111111111111,4,1,1,80,0,0
37038,-95.2380952380952,4,1,1,80,0,0
37467,-105.263157894737,4,1,1,80,0,0
43895,-90.9090909090909,4,1,1,80,0,0
44610,-105.263157894737,4,1,1,80,0,0
46395,-90.9090909090909,4,1,1,80,0,0
46967,-111.111111111111,4,1,1,80,0,0
55396,-95.2380952380952,4,1,1,80,0,1
78253,-100,4,1,1,80,0,0
78681,-200,4,2,1,80,0,0
87538,-166.666666666667,4,2,1,80,0,0
92110,-142.857142857143,4,2,1,80,0,0
93538,-125,4,2,1,80,0,0
94681,-111.111111111111,4,2,1,80,0,0
94895,-111.111111111111,4,1,1,50,0,0
95538,-100,4,1,1,80,0,0
96681,-117.647058823529,4,1,1,80,0,0
101395,-117.647058823529,4,1,1,80,0,0
101824,-111.111111111111,4,1,1,80,0,0
103181,-111.111111111111,4,1,4,80,0,0
103324,-111.111111111111,4,1,1,80,0,0
103467,-111.111111111111,4,1,1,40,0,0
104110,-111.111111111111,4,1,1,70,0,0
104681,-111.111111111111,4,1,0,80,0,0
105253,-111.111111111111,4,1,1,80,0,0
105681,-95.2380952380952,4,1,1,80,0,1
139467,-95.2380952380952,4,1,1,85,0,1
139610,-95.2380952380952,4,1,1,90,0,1
139753,-95.2380952380952,4,1,1,95,0,1
139896,-95.2380952380952,4,1,1,80,0,1
142396,-95.2380952380952,4,1,1,80,0,0
146967,-95.2380952380952,4,1,1,80,0,1
151110,-100,4,1,1,80,0,0
151396,-95.2380952380952,4,1,1,80,0,1
168681,-90.9090909090909,4,1,1,80,0,0
169253,-95.2380952380952,4,1,1,80,0,1
177110,-90.9090909090909,4,1,1,80,0,1
177681,-86.9565217391304,4,1,1,80,0,1
178253,-83.3333333333333,4,1,1,80,0,1
179038,-95.2380952380952,4,1,1,80,0,1
185467,-95.2380952380952,4,1,4,80,0,1
185610,-95.2380952380952,4,1,1,80,0,1
187681,-100,4,1,1,80,0,0
187967,-90.9090909090909,4,1,1,80,0,1
197110,-111.111111111111,4,2,1,80,0,0
198896,-111.111111111111,4,1,1,80,0,0
199396,-100,4,1,1,80,0,0
200539,-83.3333333333333,4,1,1,80,0,1
200967,-83.3333333333333,4,1,1,40,0,1
201253,-100,4,1,1,80,0,0

[Colours]
Combo1 : 201,255,185
Combo2 : 202,222,255
Combo3 : 255,213,248
Combo4 : 255,191,191

[HitObjects]
236,238,110,6,0,B|225:212|225:212|225:192|225:192|216:166,2,68.6250026178361,0|0|0,0:0|0:0|0:0,0:0:0:0:
310,337,539,1,4,0:0:0:0:
310,337,967,6,0,B|366:320|411:359|411:359|399:331|417:297,1,164.699994973755,0|2,0:0|0:0,0:0:0:0:
413,304,1396,1,0,0:0:0:0:
467,240,1539,2,0,P|474:198|475:158,1,82.3499974868775,0|0,0:0|0:0,0:0:0:0:
433,80,1824,1,0,0:0:0:0:
345,88,1967,1,0,0:0:0:0:
332,98,2253,6,0,B|284:115|226:99|226:99|244:102|273:131,1,164.699994973755,0|0,0:0|0:0,0:0:0:0:
280,217,2681,1,4,0:0:0:0:
201,182,2824,2,0,B|157:178|128:159|128:159|87:174|87:174|44:160,1,164.699994973755,4|4,0:0|0:0,0:0:0:0:
23,82,3253,1,0,0:0:0:0:
100,47,3396,1,0,0:0:0:0:
183,32,3539,2,0,P|228:27|269:35,1,82.3499974868775,6|0,0:0|0:0,0:0:0:0:
273,130,3824,2,0,P|235:110|193:108,1,82.3499974868775,4|0,0:0|0:0,0:0:0:0:
334,178,4110,6,0,P|345:161|350:140,3,41.1749987434388,8|0|0|0,3:1|3:0|3:0|3:0,0:0:0:0:
377,181,4396,1,0,3:0:0:0:
397,175,4467,1,0,3:0:0:0:
414,164,4539,1,8,3:0:0:0:
430,151,4610,1,0,3:0:0:0:
443,135,4681,2,0,P|456:92|451:52,1,82.3499974868775,8|0,0:0|3:0,0:0:0:0:
334,178,4967,1,10,3:1:0:0:
366,337,5110,6,0,B|414:353|453:289|414:237|414:237|439:257|479:259|507:233,1,247.049992460633,4|4,0:0|0:0,0:0:0:0:
459,179,5681,1,0,0:0:0:0:
342,257,5824,2,0,P|300:265|259:257,1,82.3499974868775,0|0,0:0|0:0,0:0:0:0:
97,262,6110,2,0,P|132:257|174:286,1,82.3499974868775,4|0,0:0|0:0,0:0:0:0:
24,305,6396,1,0,0:0:0:0:
18,224,6539,2,0,L|11:142,1,82.3499974868775,0|4,0:0|0:0,0:0:0:0:
61,20,6824,2,0,B|65:81|65:81|84:113|84:113|90:186,1,164.699994973755,0|0,0:0|0:0,0:0:0:0:
217,317,7253,1,4,0:0:0:0:
413,286,7396,6,0,B|431:240|397:187|397:187|416:122,1,164.699994973755,4|0,0:0|0:0,0:0:0:0:
443,51,7824,1,2,0:0:0:0:
339,20,7967,1,0,0:0:0:0:
339,20,8039,1,0,0:0:0:0:
339,20,8110,2,0,B|307:26|307:26|293:37|293:37|260:44,1,82.3499974868775,8|0,0:0|3:0,0:0:0:0:
178,203,8396,1,2,3:1:0:0:
196,213,8467,1,8,3:0:0:0:
215,218,8539,1,8,3:0:0:0:
235,218,8610,1,0,3:0:0:0:
254,212,8681,2,0,B|263:181|263:181|262:163|262:163|272:131,1,82.3499974868775,8|0,0:0|0:0,0:0:0:0:
130,49,8967,2,0,B|151:72|151:72|167:80|167:80|190:105,1,82.3499974868775,0|0,3:0|0:0,0:0:0:0:
147,338,9253,6,0,B|132:351|132:351|119:320|119:320|92:326|55:318|29:277|37:240|58:213|58:213|30:188|19:147|43:106|43:106|66:68|43:27,1,411.750015707017,0|4,0:0|0:0,0:0:0:0:
44,30,9967,5,0,0:0:0:0:
188,94,10110,2,0,P|204:50|191:6,1,91.5,8|0,0:0|0:0,0:0:0:0:
116,127,10396,1,0,0:0:0:0:
161,196,10539,1,0,0:0:0:0:
236,163,10681,2,0,P|280:154|325:167,1,91.5,8|0,0:0|0:0,0:0:0:0:
414,293,10967,2,0,P|369:304|323:315,1,91.5,0|0,0:0|0:0,0:0:0:0:
457,216,11253,1,8,0:0:0:0:
500,143,11396,2,0,P|508:98|487:58,1,91.5,0|0,0:0|0:0,0:0:0:0:
360,23,11681,1,0,0:0:0:0:
306,134,11824,1,8,0:0:0:0:
345,269,11967,6,0,B|409:304|409:304|436:306|436:306|508:346,1,183,4|0,0:0|0:0,0:0:0:0:
422,226,12396,2,0,L|338:181,1,91.5,8|0,0:0|0:0,0:0:0:0:
168,254,12681,1,0,0:0:0:0:
251,327,12824,1,0,0:0:0:0:
281,225,12967,1,8,0:0:0:0:
227,124,13110,6,0,P|182:88|85:142,1,183,4|0,0:0|0:0,0:0:0:0:
281,225,13539,2,0,L|370:206,1,91.5,8|0,0:0|0:0,0:0:0:0:
451,77,13824,1,8,0:0:0:0:
430,87,13896,1,0,0:0:0:0:
409,98,13967,1,0,0:0:0:0:
479,170,14110,1,8,0:0:0:0:
318,60,14253,6,0,B|272:46|272:46|237:46|237:46|195:19|142:37,1,183,4|0,0:0|0:0,0:0:0:0:
26,170,14681,2,0,P|15:215|30:265,1,91.5,8|0,0:0|0:0,0:0:0:0:
187,354,14967,1,0,0:0:0:0:
210,273,15110,1,0,0:0:0:0:
270,335,15253,2,0,P|314:345|360:330,1,91.5,8|0,0:0|0:0,0:0:0:0:
183,196,15539,2,0,L|92:210,1,91.5,0|0,0:0|0:0,0:0:0:0:
239,118,15824,1,8,0:0:0:0:
292,60,15967,2,0,P|336:46|377:64,1,91.5,0|0,0:0|0:0,0:0:0:0:
458,181,16253,1,0,0:0:0:0:
403,311,16396,1,8,0:0:0:0:
266,262,16539,6,0,B|199:266|150:309|150:309|126:299|88:305,1,183,4|0,0:0|0:0,0:0:0:0:
42,245,16967,2,0,P|80:228|130:231,1,91.5,8|0,0:0|0:0,0:0:0:0:
320,328,17253,1,0,0:0:0:0:
383,210,17396,1,0,0:0:0:0:
346,80,17539,1,8,0:0:0:0:
222,34,17681,6,0,P|158:57|152:161,1,183,0|0,0:0|0:0,0:0:0:0:
344,149,18110,2,0,P|384:134|428:152,1,91.5,8|0,0:0|0:0,0:0:0:0:
298,237,18396,1,0,0:0:0:0:
285,217,18467,1,0,0:0:0:0:
272,198,18539,1,0,0:0:0:0:
393,265,18681,1,8,0:0:0:0:
200,269,18824,5,4,0:0:0:0:
200,269,19110,1,0,0:0:0:0:
143,194,19253,2,0,L|134:98,1,91.5,8|0,0:0|0:0,0:0:0:0:
316,21,19539,1,2,0:0:0:0:
345,106,19681,1,0,0:0:0:0:
257,117,19824,1,8,0:0:0:0:
425,58,19967,1,0,0:0:0:0:
394,175,20110,2,0,P|349:195|308:179,1,91.5,2|0,0:0|0:0,0:0:0:0:
425,58,20396,1,8,0:0:0:0:
505,149,20539,2,0,L|496:244,1,91.5,2|0,0:0|0:0,0:0:0:0:
386,329,20824,1,0,0:0:0:0:
233,358,20967,1,8,0:0:0:0:
98,318,21110,6,0,B|87:257|106:195|106:195|79:217|44:208,1,183,6|0,0:0|0:0,0:0:0:0:
146,140,21539,2,0,P|102:125|61:142,1,91.5,8|0,0:0|0:0,0:0:0:0:
203,251,21824,1,2,0:0:0:0:
283,151,21967,2,0,L|293:57,1,91.5,0|8,0:0|0:0,0:0:0:0:
203,251,22253,6,0,B|255:275|255:275|293:275|293:275|377:311,1,183,6|0,0:0|0:0,0:0:0:0:
483,281,22681,2,0,L|399:243,1,91.5,8|0,0:0|0:0,0:0:0:0:
287,39,22967,1,6,0:0:0:0:
198,181,23110,1,4,0:0:0:0:
375,132,23253,1,12,0:0:0:0:
188,77,23396,6,0,B|154:62|119:76|119:76|97:60|97:60|50:64|14:36,1,183,6|0,0:0|0:0,0:0:0:0:
158,149,23824,2,0,P|203:153|245:131,1,91.5,8|0,0:0|0:0,0:0:0:0:
83,138,24110,1,2,0:0:0:0:
62,217,24253,1,0,0:0:0:0:
43,297,24396,2,0,L|22:386,1,91.5,8|0,0:0|0:0,0:0:0:0:
124,275,24681,2,0,P|169:261|212:277,1,91.5,2|0,0:0|0:0,0:0:0:0:
339,348,24967,1,8,0:0:0:0:
437,251,25110,2,0,L|454:159,1,91.5,2|0,0:0|0:0,0:0:0:0:
334,249,25396,1,0,0:0:0:0:
439,349,25539,1,8,0:0:0:0:
357,174,25681,6,0,B|307:157|269:200|269:200|223:196|193:238,1,183,6|0,0:0|0:0,0:0:0:0:
156,337,26110,2,0,P|139:348|114:353,2,45.75,8|0|0,3:1|0:0|0:0,0:0:0:0:
49,264,26396,2,0,P|25:262|4:253,2,45.75,0|0|0,3:0|0:0|0:0,0:0:0:0:
78,138,26681,2,0,P|57:121|46:100,2,45.75,0|0|0,3:0|0:0|0:0,0:0:0:0:
199,96,26967,5,8,3:1:0:0:
221,90,27039,1,0,3:0:0:0:
243,84,27110,1,8,3:0:0:0:
265,79,27181,1,8,3:0:0:0:
285,69,27253,1,8,3:1:0:0:
307,63,27324,1,0,0:0:0:0:
329,57,27396,1,8,3:0:0:0:
351,52,27467,1,8,3:0:0:0:
373,46,27539,5,4,3:1:0:0:
447,120,27681,1,4,0:0:0:0:
349,144,27824,1,12,0:0:0:0:
373,46,27967,2,0,P|453:39|445:121,1,183,6|0,0:0|0:0,0:0:0:0:
285,189,28396,6,0,L|203:181,1,82.3499974868775,8|0,0:0|0:0,0:0:0:0:
348,144,28681,2,0,P|362:185|351:222,1,82.3499974868775,0|0,0:0|0:0,0:0:0:0:
197,263,28967,1,8,0:0:0:0:
125,220,29110,2,0,B|99:165|143:116|143:116|128:97|122:60,1,164.699994973755,0|0,0:0|0:0,0:0:0:0:
197,263,29539,6,0,L|201:346,1,82.3499974868775,8|0,0:0|0:0,0:0:0:0:
37,213,29824,2,0,L|41:298,1,82.3499974868775,0|0,0:0|0:0,0:0:0:0:
82,140,30110,1,8,0:0:0:0:
163,50,30253,2,0,P|225:21|289:89,1,164.699994973755,4|0,0:0|0:0,0:0:0:0:
395,304,30681,6,0,P|357:320|313:310,1,82.3499974868775,8|0,0:0|0:0,0:0:0:0:
202,179,30967,2,0,L|219:95,1,82.3499974868775,0|0,0:0|0:0,0:0:0:0:
288,215,31253,1,8,0:0:0:0:
176,315,31396,2,0,P|107:332|53:262,1,164.699994973755,4|0,0:0|0:0,0:0:0:0:
52,73,31824,6,0,P|91:51|130:61,1,82.3499974868775,8|0,0:0|0:0,0:0:0:0:
277,180,32110,2,0,P|237:194|201:178,1,82.3499974868775,0|0,0:0|0:0,0:0:0:0:
328,56,32396,1,8,0:0:0:0:
472,156,32539,2,0,B|478:220|478:220|470:251|470:251|478:322,1,164.699994973755,4|0,0:0|0:0,0:0:0:0:
400,203,32967,6,0,L|392:116,1,82.3499974868775,8|0,0:0|0:0,0:0:0:0:
307,281,33253,2,0,L|319:199,1,82.3499974868775,0|0,0:0|0:0,0:0:0:0:
234,84,33539,1,8,0:0:0:0:
152,156,33681,2,0,B|75:171|31:127|31:127|41:141|43:172,1,164.699994973755
80,302,34110,5,8,0:0:0:0:
152,156,34253,1,0,0:0:0:0:
158,251,34396,2,0,L|197:328,1,82.3499974868775,0|0,0:0|0:0,0:0:0:0:
348,357,34681,1,8,0:0:0:0:
457,247,34824,2,0,B|475:181|475:181|472:151|472:151|490:86,1,164.699994973755,4|0,0:0|0:0,0:0:0:0:
382,20,35253,2,0,L|389:105,1,82.3499974868775,8|0,0:0|0:0,0:0:0:0:
271,187,35539,1,0,0:0:0:0:
291,84,35681,1,0,0:0:0:0:
181,62,35824,1,8,0:0:0:0:
157,169,35967,6,0,L|167:340,1,164.699994973755,4|0,0:0|0:0,0:0:0:0:
250,363,36396,1,8,0:0:0:0:
72,279,36539,1,0,0:0:0:0:
254,198,36681,2,0,L|248:112,1,82.3499974868775,0|0,0:0|0:0,0:0:0:0:
248,103,36896,1,0,0:0:0:0:
247,90,36967,1,8,0:0:0:0:
282,277,37110,6,0,B|328:316|393:282|393:282|425:313|471:296,1,192.149994136048,4|0,0:0|0:0,0:0:0:0:
339,216,37539,2,0,L|333:130,1,86.9249976788522,8|0,0:0|0:0,0:0:0:0:
220,233,37824,2,0,P|204:272|218:313,1,86.9249976788522,0|0,0:0|0:0,0:0:0:0:
448,218,38110,1,8,0:0:0:0:
395,121,38253,2,0,L|227:73,1,173.849995357704,0|0,0:0|0:0,0:0:0:0:
89,30,38681,5,8,0:0:0:0:
89,30,38824,1,0,0:0:0:0:
34,144,38967,1,0,0:0:0:0:
34,144,39110,1,0,0:0:0:0:
66,265,39253,1,8,0:0:0:0:
207,196,39396,2,0,P|284:203|297:288,1,173.849995357704,4|0,0:0|0:0,0:0:0:0:
127,202,39824,2,0,L|119:113,1,86.9249976788522,8|0,0:0|0:0,0:0:0:0:
173,275,40110,5,0,0:0:0:0:
196,117,40253,1,0,0:0:0:0:
199,285,40396,1,8,0:0:0:0:
170,105,40539,2,0,P|121:71|41:132,1,173.849995357704,4|0,0:0|0:0,0:0:0:0:
203,197,40967,2,0,P|246:198|283:174,1,86.9249976788522,8|0,0:0|0:0,0:0:0:0:
395,32,41253,2,0,P|346:26|310:49,1,86.9249976788522,0|0,0:0|0:0,0:0:0:0:
357,231,41539,1,8,0:0:0:0:
446,204,41681,2,0,B|465:137|465:137|462:98|462:98|479:33,1,173.849995357704,4|0,0:0|0:0,0:0:0:0:
489,281,42110,6,0,L|462:368,1,86.9249976788522,8|0,0:0|0:0,0:0:0:0:
357,231,42396,2,0,L|344:140,1,86.9249976788522,0|0,0:0|0:0,0:0:0:0:
279,334,42681,1,8,0:0:0:0:
210,247,42824,2,0,P|134:220|80:284,1,173.849995357704,0|0,0:0|0:0,0:0:0:0:
154,298,43253,5,8,0:0:0:0:
154,298,43396,1,0,0:0:0:0:
343,293,43539,2,0,P|355:334|342:375,1,86.9249976788522,0|0,0:0|0:0,0:0:0:0:
284,246,43824,1,8,0:0:0:0:
327,135,43967,2,0,P|388:102|472:183,1,201.300006143189,4|0,0:0|0:0,0:0:0:0:
450,280,44396,5,8,0:0:0:0:
450,280,44539,1,0,0:0:0:0:
360,265,44681,2,0,L|390:184,1,86.9249976788522,0|0,0:0|0:0,0:0:0:0:
396,338,44967,1,10,0:0:0:0:
396,338,45039,1,0,0:0:0:0:
396,338,45110,1,0,0:0:0:0:
284,246,45253,1,2,0:0:0:0:
197,346,45396,1,0,0:0:0:0:
131,178,45539,2,0,P|90:157|50:169,1,86.9249976788522,14|0,0:0|0:0,0:0:0:0:
155,261,45824,5,10,3:1:0:0:
171,255,45896,1,0,3:0:0:0:
187,248,45967,1,8,3:0:0:0:
203,241,46039,1,8,3:0:0:0:
218,232,46110,1,4,3:0:0:0:
231,221,46181,1,0,3:0:0:0:
241,207,46253,1,0,3:0:0:0:
249,191,46324,1,0,3:0:0:0:
252,176,46396,6,0,B|254:147|232:122|232:122|188:180|216:257,1,201.300006143189,4|8,0:0|0:0,0:0:0:0:
476,144,46967,2,0,P|482:101|473:62,1,82.3499974868775,0|0,0:0|0:0,0:0:0:0:
401,18,47253,1,8,0:0:0:0:
391,105,47396,2,0,B|389:166|389:166|400:199|400:199|395:270,1,164.699994973755,0|0,0:0|0:0,0:0:0:0:
467,329,47824,2,0,L|474:245,1,82.3499974868775,8|0,0:0|0:0,0:0:0:0:
324,217,48110,1,0,0:0:0:0:
324,217,48253,1,0,0:0:0:0:
259,289,48396,2,0,P|206:317|128:257,1,164.699994973755,8|0,0:0|0:0,0:0:0:0:
64,131,48824,5,0,0:0:0:0:
64,131,48896,1,0,0:0:0:0:
64,131,48967,1,8,0:0:0:0:
92,53,49110,1,0,0:0:0:0:
159,126,49253,2,0,P|197:136|234:118,1,82.3499974868775,0|0,0:0|0:0,0:0:0:0:
284,50,49539,1,8,0:0:0:0:
92,53,49681,2,0,L|36:212,1,164.699994973755,0|0,0:0|0:0,0:0:0:0:
110,337,50110,2,0,L|120:252,1,82.3499974868775,8|0,0:0|0:0,0:0:0:0:
212,38,50396,2,0,L|230:124,1,82.3499974868775,0|0,0:0|0:0,0:0:0:0:
274,288,50681,1,8,0:0:0:0:
354,160,50824,1,4,0:0:0:0:
371,150,50896,1,0,0:0:0:0:
390,143,50967,6,0,P|445:155|447:252,1,164.699994973755,4|8,0:0|0:0,0:0:0:0:
264,216,51396,1,0,0:0:0:0:
352,79,51539,2,0,P|381:67|432:73,2,82.3499974868775,0|0|8,0:0|0:0|0:0,0:0:0:0:
269,129,51967,2,0,L|256:214,1,82.3499974868775,0|0,0:0|0:0,0:0:0:0:
219,61,52253,1,0,0:0:0:0:
163,192,52396,2,0,L|150:277,1,82.3499974868775,8|0,0:0|0:0,0:0:0:0:
124,131,52681,2,0,P|169:117|211:142,1,82.3499974868775,0|0,0:0|0:0,0:0:0:0:
322,274,52967,1,8,0:0:0:0:
439,232,53110,1,4,0:0:0:0:
446,212,53181,1,0,0:0:0:0:
446,191,53253,6,0,B|446:166|438:151|438:151|442:136|434:108,1,82.3499974868775,4|0,0:0|0:0,0:0:0:0:
124,131,53539,2,0,B|124:106|131:91|131:91|128:76|136:48,1,82.3499974868775,8|0,3:1|3:0,0:0:0:0:
355,313,53824,2,0,B|355:288|347:273|347:273|351:258|343:230,1,82.3499974868775,8|0,3:1|3:0,0:0:0:0:
141,342,54110,2,0,B|141:317|148:302|148:302|145:287|153:259,1,82.3499974868775,8|0,3:1|3:0,0:0:0:0:
241,142,54396,5,8,3:1:0:0:
262,129,54467,1,0,3:0:0:0:
286,125,54539,1,8,3:0:0:0:
310,125,54610,1,8,3:0:0:0:
333,133,54681,1,8,0:1:0:0:
352,147,54753,1,0,3:0:0:0:
367,166,54824,1,8,3:0:0:0:
373,189,54896,1,8,3:0:0:0:
375,213,54967,1,8,0:1:0:0:
373,237,55039,1,0,3:0:0:0:
371,261,55110,2,0,L|367:302,1,41.1749987434388,4|0,3:1|0:0,0:0:0:0:
437,359,55396,6,0,L|452:166,1,192.149994136048,4|2,0:0|0:0,0:0:0:0:
453,145,55753,1,0,0:0:0:0:
453,145,55824,1,8,0:0:0:0:
363,38,55967,1,0,0:0:0:0:
299,149,56110,2,0,P|256:171|212:157,1,96.0749970680238,2|0,0:0|0:0,0:0:0:0:
106,65,56396,1,8,0:0:0:0:
267,46,56539,6,0,L|362:38,1,96.0749970680238,2|0,0:0|0:0,0:0:0:0:
117,166,56824,2,0,L|212:158,1,96.0749970680238,2|8,0:0|0:0,0:0:0:0:
46,126,57110,1,2,0:0:0:0:
179,320,57253,2,0,P|225:336|272:317,1,96.0749970680238,2|0,0:0|0:0,0:0:0:0:
416,227,57539,1,8,0:0:0:0:
297,150,57681,6,0,B|221:167|221:167|184:196|184:196|113:214,1,192.149994136048,6|0,0:0|0:0,0:0:0:0:
95,217,58039,1,0,0:0:0:0:
95,217,58110,1,8,0:0:0:0:
253,240,58253,1,0,0:0:0:0:
145,131,58396,2,0,L|47:153,1,96.0749970680238,2|0,0:0|0:0,0:0:0:0:
51,152,58681,1,8,0:0:0:0:
253,240,58824,6,0,L|346:214,1,96.0749970680238,2|0,0:0|0:0,0:0:0:0:
446,107,59110,1,0,0:0:0:0:
446,107,59181,1,0,0:0:0:0:
446,107,59253,2,0,P|410:80|361:90,1,96.0749970680238,10|0,0:0|0:0,0:0:0:0:
420,276,59539,2,0,P|461:258|477:210,1,96.0749970680238,14|0,0:0|0:0,0:0:0:0:
290,170,59824,1,8,0:0:0:0:
190,283,59967,6,0,P|244:314|329:236,1,192.149994136048,4|2,0:0|0:0,0:0:0:0:
208,189,60396,1,8,0:0:0:0:
81,221,60539,1,0,0:0:0:0:
30,341,60681,2,0,P|59:366|113:358,1,96.0749970680238,2|0,0:0|0:0,0:0:0:0:
81,221,60967,1,8,0:0:0:0:
81,221,61110,2,0,L|66:124,1,96.0749970680238,2|0,0:0|0:0,0:0:0:0:
192,29,61396,5,0,0:0:0:0:
192,29,61467,1,0,0:0:0:0:
192,29,61539,2,0,L|166:173,1,144.112495602036,10|0,0:0|0:0,0:0:0:0:
227,214,61824,2,0,L|245:116,1,96.0749970680238,2|0,0:0|0:0,0:0:0:0:
304,273,62110,1,8,0:0:0:0:
441,220,62253,2,0,B|472:151|410:110|410:110|349:133,1,192.149994136048,6|0,0:0|0:0,0:0:0:0:
382,265,62681,2,0,P|418:293|474:284,1,96.0749970680238,10|0,0:0|0:0,0:0:0:0:
336,204,62967,6,0,L|187:215,1,144.112495602036,2|0,0:0|0:0,0:0:0:0:
137,289,63253,2,0,L|237:280,1,96.0749970680238,10|0,0:0|0:0,0:0:0:0:
349,133,63539,2,0,L|298:137,2,48.0374985340119,0|0|0,0:0|0:0|0:0,0:0:0:0:
264,73,63824,1,8,0:0:0:0:
408,177,63967,2,0,P|425:132|409:85,1,96.0749970680238,2|0,0:0|0:0,0:0:0:0:
263,241,64253,5,10,0:0:0:0:
346,33,64396,1,10,0:0:0:0:
245,216,64539,6,0,B|170:225|170:225|131:216|131:216|53:223,1,192.149994136048,4|2,0:0|0:0,0:0:0:0:
30,226,64896,1,0,0:0:0:0:
30,226,64967,1,8,0:0:0:0:
190,149,65110,1,0,0:0:0:0:
86,292,65253,2,0,L|53:386,1,96.0749970680238,2|0,0:0|0:0,0:0:0:0:
190,149,65539,1,8,0:0:0:0:
323,309,65681,6,0,P|366:327|410:310,1,96.0749970680238,2|0,0:0|0:0,0:0:0:0:
271,237,65967,1,2,0:0:0:0:
271,237,66039,1,0,0:0:0:0:
271,237,66110,2,0,L|176:268,1,96.0749970680238,8|0,0:0|0:0,0:0:0:0:
360,227,66396,2,0,B|352:193|352:193|341:172|341:172|332:133,1,96.0749970680238,2|0,0:0|0:0,0:0:0:0:
323,309,66681,1,8,0:0:0:0:
396,95,66824,6,0,P|338:58|258:131,1,192.149994136048,4|0,0:0|0:0,0:0:0:0:
258,130,67181,1,0,0:0:0:0:
258,130,67253,1,8,0:0:0:0:
466,141,67396,1,0,0:0:0:0:
466,141,67539,2,0,L|485:46,1,96.0749970680238,2|0,0:0|0:0,0:0:0:0:
394,176,67824,5,8,0:0:0:0:
394,176,67967,2,0,B|403:251|403:251|428:287|428:287|438:360,1,192.149994136048,6|0,0:0|0:0,0:0:0:0:
477,217,68396,1,10,0:0:0:0:
354,333,68539,1,0,0:0:0:0:
354,333,68610,1,0,0:0:0:0:
354,333,68681,2,0,P|306:351|263:332,1,96.0749970680238,6|0,0:0|0:0,0:0:0:0:
94,236,68967,1,8,0:0:0:0:
183,212,69110,6,0,B|256:196|256:196|296:201|296:201|374:182,1,192.149994136048,4|2,0:0|0:0,0:0:0:0:
228,128,69539,2,0,L|132:149,1,96.0749970680238,8|0,0:0|0:0,0:0:0:0:
390,253,69824,2,0,L|295:276,1,96.0749970680238,2|0,0:0|0:0,0:0:0:0:
183,212,70110,1,8,0:0:0:0:
408,327,70253,2,0,P|461:284|417:184,1,192.149994136048,2|2,0:0|0:0,0:0:0:0:
330,95,70681,1,8,0:0:0:0:
330,95,70824,1,0,0:0:0:0:
228,128,70967,6,0,P|221:81|240:36,1,96.0749970680238,2|0,0:0|0:0,0:0:0:0:
296,168,71253,1,8,0:0:0:0:
296,168,71396,2,0,P|220:207|147:145,1,192.149994136048,6|0,0:0|0:0,0:0:0:0:
330,95,71824,5,8,3:1:0:0:
351,84,71896,1,0,3:0:0:0:
375,81,71967,1,0,3:0:0:0:
398,84,72039,1,0,3:0:0:0:
420,92,72110,1,8,3:1:0:0:
437,108,72181,1,0,3:0:0:0:
448,128,72253,1,0,3:0:0:0:
449,152,72324,1,0,3:0:0:0:
446,175,72396,2,0,L|435:232,3,48.0374985340119,8|0|0|0,3:1|0:0|0:0|0:0,0:0:0:0:
377,258,72681,6,0,P|412:291|467:282,1,96.0749970680238,8|8,3:1|3:0,0:0:0:0:
457,287,72896,1,8,3:0:0:0:
457,287,72967,1,8,3:1:0:0:
372,185,73110,1,8,3:0:0:0:
372,185,73181,1,8,3:0:0:0:
372,185,73253,2,0,L|276:170,2,96.0749970680238,8|0|0,3:1|3:0|3:0,0:0:0:0:
507,119,73681,2,0,B|429:107|429:107|397:118|397:118|318:106,1,192.149994136048,4|0,3:1|0:0,0:0:0:0:
318,106,74110,1,0,0:0:0:0:
296,75,74396,1,0,0:0:0:0:
273,48,74681,6,0,P|206:15|141:95,1,192.149994136048,4|0,0:0|0:0,0:0:0:0:
241,230,75110,2,0,B|288:263|358:238|358:238|339:209|299:207,1,192.149994136048,0|4,0:0|0:0,0:0:0:0:
241,230,75539,1,0,0:0:0:0:
159,266,75681,1,0,0:0:0:0:
87,318,75824,1,0,0:0:0:0:
28,255,75967,6,0,B|17:178|17:178|25:140|25:140|15:65,1,192.149994136048,4|0,0:0|0:0,0:0:0:0:
106,19,76396,1,8,0:0:0:0:
214,59,76539,1,0,0:0:0:0:
206,168,76681,2,0,P|172:196|120:184,1,96.0749970680238,2|0,0:0|0:0,0:0:0:0:
214,59,76967,1,8,0:0:0:0:
324,46,77110,1,8,3:3:0:0:
324,46,77181,1,0,3:0:0:0:
324,46,77253,2,0,L|421:33,1,96.0749970680238,8|0,3:1|3:0,0:0:0:0:
491,160,77539,5,8,3:0:0:0:
491,160,77610,1,8,3:0:0:0:
491,160,77681,1,12,3:0:0:0:
358,304,77824,1,8,0:0:0:0:
491,160,77967,1,2,0:0:0:0:
366,308,78253,5,4,0:0:0:0:
168,202,87539,6,0,L|177:268,2,54.899998324585,2|0|4,0:0|0:0|0:0,0:0:0:0:
108,148,87967,1,4,0:0:0:0:
181,124,88110,2,0,P|234:109|292:93,1,109.79999664917,2|0,0:0|0:0,0:0:0:0:
359,74,88539,1,0,0:0:0:0:
359,74,88681,1,6,0:0:0:0:
461,198,88967,5,2,0:0:0:0:
461,198,89253,2,0,P|467:233|461:255,2,54.899998324585,0|0|2,0:0|0:0|0:0,0:0:0:0:
390,230,89681,1,4,0:0:0:0:
390,230,89824,2,0,B|349:237|349:237|320:232|320:232|278:240,1,109.79999664917,6|0,0:0|0:0,0:0:0:0:
172,322,90396,1,2,0:0:0:0:
185,325,90467,1,0,0:0:0:0:
198,328,90539,1,0,0:0:0:0:
211,331,90610,1,0,0:0:0:0:
224,334,90681,6,0,L|282:349,1,54.899998324585,2|0,0:0|0:0,0:0:0:0:
283,275,90967,2,0,L|341:290,1,54.899998324585,0|0,0:0|0:0,0:0:0:0:
337,215,91253,2,0,L|390:230,1,54.899998324585,6|4,0:0|0:0,0:0:0:0:
463,184,91539,1,2,0:0:0:0:
497,109,91681,1,0,0:0:0:0:
469,33,91824,2,0,P|441:25|413:31,1,54.899998324585,2|0,0:0|0:0,0:0:0:0:
314,120,92110,6,0,P|344:129|375:122,1,64.0499980453492,4|0,0:0|0:0,0:0:0:0:
303,50,92396,2,0,P|246:91|252:153,2,128.099996090698,6|2|0,0:0|0:0|0:0,0:0:0:0:
377,44,93110,1,0,0:0:0:0:
377,44,93253,1,6,0:0:0:0:
463,244,93539,6,0,L|452:321,1,73.2,6|0,0:0|0:0,0:0:0:0:
359,272,93824,2,0,L|359:349,1,73.2,6|0,0:0|0:0,0:0:0:0:
259,244,94110,1,4,0:0:0:0:
259,244,94253,2,0,L|270:321,2,73.2,6|2|0,0:0|0:0|0:0,0:0:0:0:
307,167,94681,1,4,0:0:0:0:
392,185,94824,1,4,0:0:0:0:
461,135,94967,1,8,3:1:0:0:
472,118,95039,1,0,3:0:0:0:
477,97,95110,1,8,0:3:0:0:
475,76,95181,1,8,3:0:0:0:
467,56,95253,6,0,P|430:36|390:48,1,82.3499974868775,10|4,3:1|0:0,0:0:0:0:
243,157,95539,1,2,0:0:0:0:
270,262,95681,1,4,0:0:0:0:
289,99,95824,2,0,P|248:81|202:94,1,91.5,10|0,0:0|0:0,0:0:0:0:
161,348,96110,1,2,0:0:0:0:
161,348,96181,1,0,0:0:0:0:
161,348,96253,2,0,B|196:354|228:330|228:330|286:357|331:313,1,183,0|4,0:0|0:0,0:0:0:0:
76,291,96824,6,0,B|55:234|55:234|58:202|58:202|39:143,1,155.550002966881,4|0,0:0|3:0,0:0:0:0:
33,123,97181,1,0,3:0:0:0:
27,104,97253,1,8,0:0:0:0:
188,32,97539,1,0,0:0:0:0:
188,32,97681,2,0,B|228:35|252:78|252:78|247:115|265:153,1,155.550002966881,4|0,0:0|0:0,0:0:0:0:
330,204,98110,2,0,P|364:219|401:208,1,77.7750014834404,0|0,0:0|3:0,0:0:0:0:
401,207,98324,1,0,3:0:0:0:
401,207,98396,1,8,0:0:0:0:
371,140,98539,1,0,0:0:0:0:
414,78,98681,2,0,P|445:115|436:157,1,77.7750014834404,0|0,0:0|0:0,0:0:0:0:
341,73,98967,5,4,0:0:0:0:
316,57,99253,1,0,0:0:0:0:
288,57,99539,2,0,B|225:80|225:80|204:99|204:99|145:123,1,155.550002966881,8|0,0:0|0:0,0:0:0:0:
88,223,99967,2,0,L|234:165,1,155.550002966881,4|0,0:0|0:0,0:0:0:0:
232,165,100396,1,0,0:0:0:0:
228,245,100539,2,0,L|193:260,2,38.8875007417202,0|0|8,3:0|3:0|0:0,0:0:0:0:
299,213,100824,1,0,0:0:0:0:
370,182,100967,1,8,0:0:0:0:
441,152,101110,6,0,B|477:74|404:44|404:44|404:57|376:62,1,155.550002966881,4|0,0:0|0:0,0:0:0:0:
388,58,101539,1,0,0:0:0:0:
281,65,101681,1,0,3:0:0:0:
281,65,101753,1,0,3:0:0:0:
281,65,101824,2,0,L|294:151,1,82.3499974868775,8|8,0:0|0:0,0:0:0:0:
196,20,102110,1,0,3:0:0:0:
186,174,102253,2,0,L|181:257,1,82.3499974868775,8|0,0:0|0:0,0:0:0:0:
191,98,102539,1,8,0:0:0:0:
248,308,102681,1,8,0:0:0:0:
325,223,102824,5,8,3:0:0:0:
341,210,102896,1,8,3:0:0:0:
361,204,102967,1,8,0:0:0:0:
381,204,103039,1,0,3:0:0:0:
401,208,103110,1,8,3:0:0:0:
419,217,103181,1,8,3:0:0:0:
432,232,103253,2,0,P|445:275|433:311,1,82.3499974868775,10|0,0:0|0:0,0:0:0:0:
268,351,103539,6,0,B|265:335|265:335|268:323|268:323|265:308,3,41.1749987434388,8|0|0|0,3:1|3:0|3:0|3:0,0:0:0:0:
181,232,103824,2,0,B|176:247|176:247|176:261|176:261|172:275,3,41.1749987434388,0|0|8|8,3:0|3:0|3:0|3:0,0:0:0:0:
94,354,104110,6,0,B|90:342|90:342|90:320|90:320|83:298,2,54.899998324585,8|8|8,0:0|0:0|0:0,0:0:0:0:
45,167,104396,2,0,B|41:179|41:179|41:201|41:201|34:223,2,54.899998324585,8|8|8,3:0|3:0|3:0,0:0:0:0:
2,303,104681,1,4,3:2:0:0:
2,303,105253,5,8,0:0:0:0:
178,34,105396,1,8,0:0:0:0:
189,39,105681,6,0,B|214:67|212:99|212:99|254:42|334:67,1,192.149994136048,4|2,0:0|0:0,0:0:0:0:
347,71,106039,1,0,0:0:0:0:
366,84,106110,1,8,0:0:0:0:
436,276,106253,1,0,0:0:0:0:
294,243,106396,2,0,P|277:210|291:155,1,96.0749970680238,2|0,0:0|0:0,0:0:0:0:
371,320,106681,1,8,0:0:0:0:
259,356,106824,6,0,L|164:345,1,96.0749970680238,2|0,0:0|0:0,0:0:0:0:
414,213,107110,2,0,L|318:237,1,96.0749970680238,2|8,0:0|0:0,0:0:0:0:
474,103,107396,1,2,0:0:0:0:
341,27,107539,2,0,P|292:12|244:37,1,96.0749970680238,2|0,0:0|0:0,0:0:0:0:
197,155,107824,1,8,0:0:0:0:
458,277,107967,6,0,B|494:253|504:194|468:157|468:157|479:134|473:98,1,192.149994136048,6|0,0:0|0:0,0:0:0:0:
468,78,108324,1,0,0:0:0:0:
468,78,108396,1,8,0:0:0:0:
333,224,108539,1,0,0:0:0:0:
419,23,108681,2,0,P|456:4|510:20,1,96.0749970680238,2|0,0:0|0:0,0:0:0:0:
392,144,108967,1,8,0:0:0:0:
220,151,109110,6,0,B|187:159|187:159|160:178|160:178|128:188,1,96.0749970680238,2|0,0:0|0:0,0:0:0:0:
300,94,109396,1,0,0:0:0:0:
300,94,109467,1,0,0:0:0:0:
300,94,109539,2,0,B|308:61|308:61|305:28|305:28|313:-4,1,96.0749970680238,10|0,0:0|0:0,0:0:0:0:
310,194,109824,2,0,B|333:217|333:217|363:231|363:231|388:254,1,96.0749970680238,14|0,0:0|0:0,0:0:0:0:
207,90,110110,1,8,0:0:0:0:
281,263,110253,6,0,B|294:286|317:288|317:288|354:340|412:333|446:300,1,192.149994136048,4|2,0:0|0:0,0:0:0:0:
498,195,110681,1,8,0:0:0:0:
369,150,110824,1,0,0:0:0:0:
492,96,110967,2,0,P|501:46|478:2,1,96.0749970680238,2|0,0:0|0:0,0:0:0:0:
369,150,111253,1,8,0:0:0:0:
369,150,111396,2,0,L|386:248,1,96.0749970680238,2|0,0:0|0:0,0:0:0:0:
405,62,111681,5,0,0:0:0:0:
405,62,111753,1,0,0:0:0:0:
405,62,111824,2,0,B|354:47|354:47|318:50|318:50|263:37,1,144.112495602036,10|0,0:0|0:0,0:0:0:0:
282,113,112110,2,0,L|189:87,1,96.0749970680238,2|0,0:0|0:0,0:0:0:0:
300,188,112396,1,8,0:0:0:0:
448,132,112539,2,0,B|457:175|432:228|368:232|368:232|355:250|359:279,1,192.149994136048,6|0,0:0|0:0,0:0:0:0:
300,188,112967,2,0,P|282:240|279:288,1,96.0749970680238,10|0,0:0|0:0,0:0:0:0:
152,152,113253,6,0,P|163:224|196:293,1,144.112495602036,2|0,0:0|0:0,0:0:0:0:
142,343,113539,2,0,P|186:368|230:370,1,96.0749970680238,10|0,0:0|0:0,0:0:0:0:
88,280,113824,2,0,P|60:282|40:289,2,48.0374985340119,0|0|0,0:0|0:0|0:0,0:0:0:0:
274,288,114110,1,8,0:0:0:0:
396,253,114253,2,0,P|409:200|390:166,1,96.0749970680238,2|0,0:0|0:0,0:0:0:0:
246,60,114539,5,10,0:0:0:0:
272,275,114681,1,10,0:0:0:0:
239,50,114824,6,0,B|199:21|148:27|118:54|118:54|83:45|60:68,1,192.149994136048,4|2,0:0|0:0,0:0:0:0:
44,84,115181,1,0,0:0:0:0:
44,84,115253,1,8,0:0:0:0:
38,205,115396,1,0,0:0:0:0:
151,162,115539,2,0,P|200:148|239:171,1,96.0749970680238,2|0,0:0|0:0,0:0:0:0:
274,332,115824,1,8,0:0:0:0:
424,226,115967,6,0,L|448:133,1,96.0749970680238,2|0,0:0|0:0,0:0:0:0:
344,263,116253,1,2,0:0:0:0:
344,263,116324,1,0,0:0:0:0:
344,263,116396,2,0,L|357:361,1,96.0749970680238,8|0,0:0|0:0,0:0:0:0:
346,180,116681,2,0,B|308:170|308:170|282:173|282:173|245:166,1,96.0749970680238,2|0,0:0|0:0,0:0:0:0:
424,226,116967,1,8,0:0:0:0:
197,218,117110,6,0,P|177:160|271:95,1,192.149994136048,6|0,0:0|0:0,0:0:0:0:
269,94,117467,1,0,0:0:0:0:
269,94,117539,1,8,0:0:0:0:
236,283,117681,1,0,0:0:0:0:
236,283,117824,2,0,P|188:298|148:275,1,96.0749970680238,2|0,0:0|0:0,0:0:0:0:
255,169,118110,1,8,0:0:0:0:
368,280,118253,6,0,B|406:317|464:306|488:268|488:268|472:292|480:338,1,192.149994136048,6|0,0:0|0:0,0:0:0:0:
424,226,118681,1,8,0:0:0:0:
414,130,118824,1,0,0:0:0:0:
404,34,118967,2,0,L|414:131,1,96.0749970680238,14|0,0:0|0:0,0:0:0:0:
424,226,119253,1,8,0:0:0:0:
304,55,119396,6,0,B|232:40|232:40|188:47|188:47|114:34,1,192.149994136048,4|2,0:0|0:0,0:0:0:0:
330,136,119824,2,0,L|237:116,1,96.0749970680238,8|0,0:0|0:0,0:0:0:0:
349,217,120110,2,0,L|255:196,1,96.0749970680238,2|0,0:0|0:0,0:0:0:0:
388,75,120396,1,8,0:0:0:0:
181,178,120539,6,0,B|135:131|153:73|190:46|190:46|205:37|183:44|158:50,1,192.149994136048,2|0,0:0|0:0,0:0:0:0:
46,128,120967,1,8,0:0:0:0:
46,128,121110,1,0,0:0:0:0:
141,249,121253,2,0,P|187:262|240:233,1,96.0749970680238,2|0,0:0|0:0,0:0:0:0:
299,133,121539,1,8,0:0:0:0:
420,181,121681,2,0,B|430:253|430:253|419:297|419:297|434:369,1,192.149994136048,6|0,0:0|0:0,0:0:0:0:
260,199,122110,5,8,3:1:0:0:
241,184,122181,1,0,3:0:0:0:
228,163,122253,1,0,3:0:0:0:
222,139,122324,1,0,3:0:0:0:
223,115,122396,1,8,3:1:0:0:
232,92,122467,1,0,3:0:0:0:
249,75,122539,1,0,3:0:0:0:
270,63,122610,1,0,3:0:0:0:
293,58,122681,2,0,P|312:57|341:71,3,48.0374985340119,8|0|0|0,3:1|3:0|3:0|3:0,0:0:0:0:
385,126,122967,6,0,P|343:147|299:133,1,96.0749970680238,0|8,0:0|3:0,0:0:0:0:
299,133,123181,1,8,3:0:0:0:
299,133,123253,1,8,3:1:0:0:
412,57,123396,1,8,3:0:0:0:
463,122,123539,5,8,3:1:0:0:
462,146,123610,1,0,0:0:0:0:
461,169,123681,1,0,0:0:0:0:
460,192,123753,1,0,0:0:0:0:
459,216,123824,1,0,0:0:0:0:
459,239,123896,1,0,0:0:0:0:
458,263,123967,2,0,B|428:320|372:304|372:304|323:288|287:306,1,192.149994136048,4|0,0:0|0:0,0:0:0:0:
269,322,124324,1,0,0:0:0:0:
257,342,124396,6,0,P|230:352|205:348,3,48.0374985340119,8|0|0|0,0:0|0:0|0:0|0:0,0:0:0:0:
142,331,124681,2,0,P|115:318|100:298,3,48.0374985340119,0|0|0|0,0:0|0:0|3:0|0:0,0:0:0:0:
77,238,124967,2,0,P|66:211|71:186,3,48.0374985340119,8|0|0|0,0:0|0:0|3:0|0:0,0:0:0:0:
79,123,125253,1,0,0:0:0:0:
89,101,125324,1,0,0:0:0:0:
108,86,125396,1,0,3:0:0:0:
131,79,125467,1,0,0:0:0:0:
154,76,125539,1,8,0:0:0:0:
178,78,125610,1,0,0:0:0:0:
201,82,125681,1,0,0:0:0:0:
223,90,125753,1,0,0:0:0:0:
244,101,125824,2,0,P|269:108|291:102,5,48.0374985340119,0|0|0|0|8|0,3:0|0:0|3:0|0:0|0:0|0:0,0:0:0:0:
297,32,126253,6,0,P|354:68|314:169,1,192.149994136048,4|0,0:0|0:0,0:0:0:0:
168,161,126681,2,0,B|152:235|152:235|156:279|156:279|140:358,1,192.149994136048,8|0,0:0|0:0,0:0:0:0:
227,234,127110,2,0,L|246:140,1,96.0749970680238,0|8,0:0|0:0,0:0:0:0:
257,309,127396,2,0,B|284:342|340:337|365:301|365:301|400:316|430:296,1,192.149994136048
306,260,127824,2,0,B|339:217|396:235|396:235|439:212|482:246,1,192.149994136048,8|0,0:0|0:0,0:0:0:0:
500,331,128253,1,0,0:0:0:0:
431,122,128396,1,8,0:0:0:0:
366,304,128539,6,0,B|336:344|272:346|241:295|241:295|192:310,1,192.149994136048,4|0,0:0|0:0,0:0:0:0:
133,204,128967,1,8,0:0:0:0:
96,325,129110,1,0,0:0:0:0:
90,149,129253,2,0,P|130:130|176:149,1,96.0749970680238,0|0,0:0|0:0,0:0:0:0:
306,260,129539,1,8,0:0:0:0:
306,260,129681,1,0,0:0:0:0:
489,216,129824,2,0,P|504:168|486:128,1,96.0749970680238,0|0,0:0|0:0,0:0:0:0:
306,260,130110,2,0,P|340:296|383:301,1,96.0749970680238,8|0,0:0|0:0,0:0:0:0:
359,82,130396,2,0,P|309:93|284:128,1,96.0749970680238,0|0,0:0|0:0,0:0:0:0:
489,216,130681,1,8,0:0:0:0:
359,14,130824,6,0,B|295:4|245:58|245:58|216:50|227:-6,1,192.149994136048,4|0,0:0|0:0,0:0:0:0:
120,147,131253,2,0,P|166:159|208:132,1,96.0749970680238,8|0,0:0|0:0,0:0:0:0:
94,49,131539,1,0,0:0:0:0:
120,147,131681,1,0,0:0:0:0:
149,238,131824,1,8,0:0:0:0:
179,327,131967,2,0,B|218:346|268:322|279:274|279:274|299:297|338:294|338:294|397:301|395:369,2,288.224991204071,0|8|0,0:0|0:0|0:0,0:0:0:0:
33,236,132967,1,8,0:0:0:0:
254,184,133110,6,0,B|281:158|276:122|276:122|291:126|306:115|306:115|287:64|317:23,1,192.149994136048,6|0,0:0|0:0,0:0:0:0:
342,189,133539,2,0,L|352:293,1,96.0749970680238,8|0,0:0|0:0,0:0:0:0:
422,350,133824,1,0,0:0:0:0:
454,270,133967,1,0,0:0:0:0:
486,190,134110,1,8,0:0:0:0:
445,113,134253,6,0,B|414:96|377:113|377:113|368:97|373:86|373:86|330:117|283:89,1,192.149994136048,6|0,0:0|0:0,0:0:0:0:
415,28,134681,2,0,P|370:12|326:30,1,96.0749970680238,8|0,0:0|0:0,0:0:0:0:
222,149,134967,1,0,0:0:0:0:
198,232,135110,2,0,L|171:327,1,96.0749970680238,0|8,0:0|0:0,0:0:0:0:
141,176,135396,5,4,0:0:0:0:
110,57,135539,1,0,0:0:0:0:
44,206,135681,1,0,0:0:0:0:
186,85,135824,2,0,P|225:72|275:98,1,96.0749970680238,8|0,0:0|0:0,0:0:0:0:
337,253,136110,2,0,P|400:282|470:200,1,192.149994136048,2|8,0:0|0:0,0:0:0:0:
272,176,136539,2,0,B|242:244|242:244|240:289|240:289|210:359,1,192.149994136048,6|0,0:0|0:0,0:0:0:0:
158,256,136967,1,8,0:0:0:0:
158,256,137110,2,0,L|198:163,1,96.0749970680238,0|0,0:0|3:0,0:0:0:0:
206,146,137324,1,0,3:0:0:0:
217,124,137396,1,8,3:0:0:0:
227,102,137467,1,0,3:0:0:0:
238,80,137539,1,8,3:1:0:0:
249,58,137610,1,0,3:0:0:0:
259,36,137681,6,0,P|305:19|350:40,1,96.0749970680238,4|0,0:0|0:0,0:0:0:0:
402,178,137967,1,0,3:0:0:0:
469,54,138110,1,12,0:0:0:0:
402,178,138253,2,0,B|434:239|399:302|399:302|404:333|423:364,1,192.149994136048,2|0,0:0|0:0,0:0:0:0:
311,237,138681,1,8,0:0:0:0:
397,96,138824,2,0,B|363:91|326:124|321:153|321:153|266:147|239:194,1,192.149994136048,2|0,0:0|0:0,0:0:0:0:
173,304,139253,2,0,P|123:324|85:307,1,96.0749970680238,8|10,0:0|0:0,0:0:0:0:
21,219,139539,1,8,0:0:0:0:
31,123,139681,1,0,0:0:0:0:
41,27,139824,1,8,0:0:0:0:
135,149,139967,5,8,3:0:0:0:
135,149,140039,1,8,3:0:0:0:
135,149,140110,2,0,L|144:200,5,48.0374985340119,2|0|0|0|8|8,0:0|0:0|0:0|0:0|3:0|3:0,0:0:0:0:
217,130,140539,2,0,L|226:80,5,48.0374985340119,10|0|8|8|0|0,0:0|0:0|3:0|3:0|0:0|0:0,0:0:0:0:
289,161,140967,2,0,L|298:212,3,48.0374985340119,2|0|0|0,3:1|3:0|3:0|3:0,0:0:0:0:
368,144,141253,1,2,3:1:0:0:
381,124,141324,1,8,3:0:0:0:
390,101,141396,1,12,0:0:0:0:
394,77,141467,1,0,0:0:0:0:
392,53,141539,1,14,0:0:0:0:
383,30,141610,1,0,0:0:0:0:
364,15,141681,1,8,3:0:0:0:
339,12,141753,1,8,3:0:0:0:
316,19,141824,2,0,B|288:57|303:97|303:97|274:82|235:91|235:91|193:160|112:127,1,288.224991204071,14|8,0:0|0:0,0:0:0:0:
118,129,142396,1,4,0:0:0:0:
256,192,142467,12,0,146824,3:0:0:0:
370,134,146967,6,0,B|362:99|362:99|349:79|349:79|341:41,1,96.0749970680238,12|0,0:0|3:0,0:0:0:0:
256,192,147253,1,0,3:0:0:0:
327,279,147396,2,0,P|375:287|411:253,1,96.0749970680238,8|0,0:0|3:0,0:0:0:0:
256,192,147681,1,0,3:0:0:0:
142,250,147824,2,0,B|149:284|149:284|162:304|162:304|170:342,1,96.0749970680238,8|0,0:0|3:0,0:0:0:0:
256,192,148110,1,0,3:0:0:0:
184,104,148253,2,0,P|137:97|100:130,1,96.0749970680238,8|8,0:0|0:0,0:0:0:0:
256,192,148539,1,0,3:0:0:0:
370,134,148681,2,0,B|362:99|362:99|349:79|349:79|341:41,1,96.0749970680238,8|0,0:0|0:0,0:0:0:0:
142,250,148967,2,0,B|149:284|149:284|162:304|162:304|170:342,1,96.0749970680238,8|0,0:0|0:0,0:0:0:0:
403,253,149253,5,8,0:0:0:0:
437,173,149396,1,0,0:0:0:0:
472,95,149539,1,8,0:0:0:0:
347,183,149681,1,0,3:0:0:0:
331,201,149753,1,0,3:0:0:0:
320,222,149824,1,8,0:0:0:0:
315,245,149896,1,0,3:0:0:0:
316,268,149967,1,0,3:0:0:0:
323,290,150039,1,0,3:0:0:0:
335,311,150110,1,8,3:0:0:0:
354,325,150181,1,0,3:0:0:0:
375,335,150253,1,0,3:0:0:0:
398,339,150324,1,0,3:0:0:0:
422,336,150396,1,8,0:0:0:0:
444,327,150467,1,0,3:0:0:0:
461,310,150539,6,0,P|484:238|445:183,1,144.112495602036,4|0,0:0|0:0,0:0:0:0:
327,138,150824,2,0,L|181:138,1,144.112495602036,4|0,0:0|0:0,0:0:0:0:
63,185,151110,2,0,P|27:244|51:310,1,137.25,4|0,0:0|0:0,0:0:0:0:
170,344,151396,6,0,B|221:307|187:238|187:238|217:266|269:244,1,192.149994136048,4|2,0:0|0:0,0:0:0:0:
278,240,151753,1,0,0:0:0:0:
278,240,151824,1,8,0:0:0:0:
106,253,151967,1,0,0:0:0:0:
234,169,152110,2,0,P|247:119|230:79,1,96.0749970680238,2|0,0:0|0:0,0:0:0:0:
154,185,152396,1,8,0:0:0:0:
324,106,152539,6,0,L|422:88,1,96.0749970680238,2|0,0:0|0:0,0:0:0:0:
278,240,152824,2,0,L|376:222,1,96.0749970680238,2|8,0:0|0:0,0:0:0:0:
230,79,153110,1,0,0:0:0:0:
52,208,153253,2,0,P|35:255|53:297,1,96.0749970680238,2|0,0:0|0:0,0:0:0:0:
203,244,153539,1,8,0:0:0:0:
230,79,153681,6,0,B|152:59|152:59|121:65|121:65|42:44,1,192.149994136048,6|0,0:0|0:0,0:0:0:0:
21,36,154039,1,0,0:0:0:0:
21,36,154110,1,8,0:0:0:0:
170,146,154253,1,0,0:0:0:0:
293,30,154396,2,0,P|340:14|382:29,1,96.0749970680238,2|0,0:0|0:0,0:0:0:0:
444,146,154681,1,8,0:0:0:0:
344,265,154824,6,0,B|333:299|333:299|333:330|313:355,1,96.0749970680238,2|0,0:0|0:0,0:0:0:0:
350,165,155110,1,0,0:0:0:0:
350,165,155181,1,0,0:0:0:0:
350,165,155253,2,0,B|384:157|384:157|411:142|443:146,1,96.0749970680238,10|0,0:0|0:0,0:0:0:0:
259,208,155539,2,0,B|235:181|235:181|208:165|196:136,1,96.0749970680238,14|0,0:0|0:0,0:0:0:0:
419,227,155824,1,0,0:0:0:0:
244,320,155967,6,0,B|214:348|159:340|136:306|136:306|94:332|58:303,1,192.149994136048,4|2,0:0|0:0,0:0:0:0:
54,210,156396,1,8,0:0:0:0:
200,253,156539,1,0,0:0:0:0:
301,134,156681,2,0,P|317:84|297:40,1,96.0749970680238,2|0,0:0|0:0,0:0:0:0:
195,159,156967,1,8,0:0:0:0:
195,159,157110,2,0,L|200:260,1,96.0749970680238,2|0,0:0|0:0,0:0:0:0:
232,89,157396,5,0,0:0:0:0:
232,89,157467,1,0,0:0:0:0:
232,89,157539,2,0,P|168:53|100:37,1,144.112495602036,10|0,0:0|0:0,0:0:0:0:
119,111,157824,2,0,P|70:105|25:113,1,96.0749970680238,2|0,0:0|0:0,0:0:0:0:
241,271,158110,1,8,0:0:0:0:
363,212,158253,2,0,B|395:177|373:118|331:102|331:102|347:99|370:101|386:120,1,192.149994136048,6|0,0:0|0:0,0:0:0:0:
464,227,158681,2,0,P|475:278|456:318,1,96.0749970680238,10|0,0:0|0:0,0:0:0:0:
301,173,158967,6,0,P|262:131|276:49,1,144.112495602036,2|0,0:0|0:0,0:0:0:0:
345,27,159253,2,0,B|372:22|372:22|402:26|402:26|445:18,1,96.0749970680238,10|0,0:0|0:0,0:0:0:0:
274,50,159539,2,0,L|227:56,2,48.0374985340119,0|0|0,0:0|0:0|0:0,0:0:0:0:
451,136,159824,1,8,0:0:0:0:
346,230,159967,2,0,P|301:249|259:230,1,96.0749970680238,2|0,0:0|0:0,0:0:0:0:
126,64,160253,5,10,0:0:0:0:
157,289,160396,1,10,0:0:0:0:
133,53,160539,6,0,B|181:40|181:40|215:45|215:45|265:18|319:45,1,192.149994136048,4|2,0:0|0:0,0:0:0:0:
338,58,160896,1,0,0:0:0:0:
338,58,160967,1,8,0:0:0:0:
288,256,161110,1,0,0:0:0:0:
200,215,161253,2,0,P|179:166|194:126,1,96.0749970680238,2|0,0:0|0:0,0:0:0:0:
426,64,161539,1,8,0:0:0:0:
416,255,161681,6,0,L|410:351,1,96.0749970680238,2|0,0:0|0:0,0:0:0:0:
372,167,161967,1,2,0:0:0:0:
372,167,162039,1,0,0:0:0:0:
372,167,162110,2,0,L|458:124,1,96.0749970680238,8|0,0:0|0:0,0:0:0:0:
321,245,162396,2,0,B|287:225|287:225|273:204|273:204|242:187,1,96.0749970680238,2|0,0:0|0:0,0:0:0:0:
330,330,162681,1,8,0:0:0:0:
175,206,162824,6,0,P|194:132|300:139,1,192.149994136048,6|0,0:0|0:0,0:0:0:0:
294,133,163181,1,0,0:0:0:0:
294,133,163253,1,8,0:0:0:0:
199,282,163396,1,0,0:0:0:0:
199,282,163539,2,0,L|102:292,1,96.0749970680238,2|0,0:0|0:0,0:0:0:0:
253,346,163824,5,8,0:0:0:0:
253,346,163967,2,0,B|303:338|303:338|343:312|343:312|391:299|437:317,1,192.149994136048,6|0,0:0|0:0,0:0:0:0:
505,224,164396,1,8,0:0:0:0:
400,137,164539,1,0,0:0:0:0:
400,137,164610,1,0,0:0:0:0:
400,137,164681,2,0,P|384:92|401:48,1,96.0749970680238,14|0,0:0|0:0,0:0:0:0:
481,147,164967,1,8,0:0:0:0:
366,232,165110,6,0,B|299:268|238:216|238:216|259:232|265:271,1,192.149994136048,4|2,0:0|0:0,0:0:0:0:
186,366,165539,2,0,P|169:322|187:279,1,96.0749970680238,8|0,0:0|0:0,0:0:0:0:
314,159,165824,2,0,L|301:63,1,96.0749970680238,2|0,0:0|0:0,0:0:0:0:
206,11,166110,1,8,0:0:0:0:
90,137,166253,6,0,B|79:191|79:191|81:239|81:239|65:281|74:336,1,192.149994136048,2|0,0:0|0:0,0:0:0:0:
161,188,166681,2,0,L|179:93,1,96.0749970680238,8|0,0:0|0:0,0:0:0:0:
273,274,166967,2,0,P|318:287|360:266,1,96.0749970680238,2|0,0:0|0:0,0:0:0:0:
413,152,167253,1,8,0:0:0:0:
335,60,167396,6,0,B|261:24|200:90|200:90|193:69|205:49,1,192.149994136048,6|0,0:0|3:0,0:0:0:0:
135,137,167824,2,0,P|120:92|125:45,1,96.0749970680238,8|0,3:1|0:0,0:0:0:0:
208,178,168110,1,8,0:1:0:0:
213,201,168181,1,0,0:0:0:0:
218,224,168253,1,0,0:0:0:0:
223,247,168324,1,0,0:0:0:0:
228,270,168396,2,0,L|217:367,1,96.0749970680238,10|0,3:1|0:0,0:0:0:0:
300,189,168681,5,2,0:0:0:0:
340,104,168824,2,0,L|326:53,2,50.3250015357972,0|0|8,3:0|0:0|3:1,0:0:0:0:
386,208,169110,1,0,3:0:0:0:
386,208,169181,1,0,3:0:0:0:
386,208,169253,2,0,B|416:300|377:379|377:379|401:324|446:292,1,288.224991204071,10|4,0:0|0:0,0:0:0:0:
493,89,169967,5,0,0:0:0:0:
493,89,170110,2,0,B|465:63|413:67|384:99|384:99|349:81|314:99,1,192.149994136048,8|0,0:0|0:0,0:0:0:0:
449,153,170539,2,0,L|475:247,1,96.0749970680238,0|8,0:0|0:0,0:0:0:0:
357,349,170824,1,0,0:0:0:0:
321,270,170967,1,0,0:0:0:0:
285,190,171110,2,0,P|234:181|199:212,1,96.0749970680238,0|8,0:0|0:0,0:0:0:0:
142,271,171396,2,0,B|112:308|51:301|21:259|21:259|16:286|36:314,1,192.149994136048,0|0,0:0|0:0,0:0:0:0:
91,210,171824,1,8,0:0:0:0:
117,127,171967,1,4,0:0:0:0:
312,48,172253,5,0,0:0:0:0:
312,48,172396,2,0,B|356:110|313:184|313:184|342:174|352:146,1,192.149994136048,8|0,0:0|0:0,0:0:0:0:
453,130,172824,2,0,P|459:83|442:35,1,96.0749970680238,0|8,0:0|0:0,0:0:0:0:
413,202,173110,1,0,0:0:0:0:
413,288,173253,2,0,B|411:326|411:326|418:348|418:348|415:385,1,96.0749970680238,0|0,0:0|0:0,0:0:0:0:
348,241,173539,2,0,B|330:274|330:274|327:297|327:297|308:329,1,96.0749970680238,8|0,0:0|0:0,0:0:0:0:
316,170,173824,2,0,B|285:192|285:192|273:212|273:212|242:233,1,96.0749970680238,0|0,0:0|0:0,0:0:0:0:
380,126,174110,1,8,0:0:0:0:
380,126,174253,1,4,0:0:0:0:
212,33,174539,5,0,0:0:0:0:
212,33,174681,2,0,B|164:25|164:25|130:38|130:38|73:14|26:46,1,192.149994136048,8|0,0:0|0:0,0:0:0:0:
177,104,175110,2,0,L|272:120,1,96.0749970680238,0|8,0:0|0:0,0:0:0:0:
96,129,175396,1,0,0:0:0:0:
77,212,175539,1,0,0:0:0:0:
94,296,175681,2,0,P|136:316|180:299,1,96.0749970680238,0|8,0:0|0:0,0:0:0:0:
238,234,175967,2,0,B|267:191|328:191|363:230|363:230|379:208|365:178,1,192.149994136048,0|0,0:0|0:0,0:0:0:0:
338,102,176396,1,8,0:0:0:0:
302,285,176539,6,0,P|362:311|445:231,1,192.149994136048,4|0,0:0|0:0,0:0:0:0:
441,147,176967,1,8,0:0:0:0:
249,46,177110,6,0,B|215:41|215:41|167:47|167:47|124:60|89:44|89:44|106:57|113:78,1,201.300006143189,4|0,0:0|0:0,0:0:0:0:
131,169,177539,1,8,0:0:0:0:
237,335,177681,6,0,B|309:374|377:322|377:322|351:303|319:312,1,210.450004014015,4|0,0:0|0:0,0:0:0:0:
155,353,178110,1,8,0:0:0:0:
341,206,178253,6,0,B|363:173|363:134|363:134|335:109|328:75|328:75|348:45|341:0,1,219.59999329834,4|0,0:0|0:0,0:0:0:0:
275,158,178681,1,8,0:0:0:0:
275,158,178824,1,4,0:0:0:0:
471,85,179110,5,0,0:0:0:0:
471,85,179253,2,0,B|479:137|479:137|472:179|472:179|494:225|475:273,1,192.149994136048,8|0,0:0|0:0,0:0:0:0:
403,133,179681,2,0,L|390:34,1,96.0749970680238,0|8,0:0|0:0,0:0:0:0:
314,164,179967,1,0,0:0:0:0:
300,249,180110,1,0,0:0:0:0:
280,333,180253,2,0,P|234:353|194:329,1,96.0749970680238,0|8,0:0|0:0,0:0:0:0:
148,261,180539,2,0,B|136:249|133:246|115:225|115:225|104:188|104:188|69:161|14:167|-3:210,1,192.149994136048,0|0,0:0|0:0,0:0:0:0:
148,261,180967,1,8,0:0:0:0:
208,197,181110,1,4,0:0:0:0:
112,52,181396,5,0,0:0:0:0:
112,52,181539,2,0,B|129:32|152:35|152:35|196:0|257:11|281:53,1,192.149994136048,8|0,0:0|0:0,0:0:0:0:
208,196,181967,2,0,L|211:97,1,96.0749970680238,0|8,0:0|0:0,0:0:0:0:
294,228,182253,2,0,B|357:273|417:223|417:223|419:255|399:275,1,192.149994136048,4|0,0:0|0:0,0:0:0:0:
353,166,182681,1,8,0:0:0:0:
353,166,182824,1,0,0:0:0:0:
289,75,182967,1,8,3:1:0:0:
267,63,183039,1,0,3:0:0:0:
243,56,183110,1,8,3:0:0:0:
219,57,183181,1,8,3:0:0:0:
195,63,183253,1,8,3:1:0:0:
174,75,183324,1,0,3:0:0:0:
157,92,183396,6,0,B|122:160|122:160|123:198|123:198|87:268,1,192.149994136048,4|8,3:1|3:0,0:0:0:0:
206,168,183824,2,0,P|249:150|292:168,1,96.0749970680238,8|0,0:0|0:0,0:0:0:0:
365,295,184110,1,0,0:0:0:0:
365,295,184253,1,0,0:0:0:0:
457,171,184396,2,0,L|473:73,1,96.0749970680238,0|0,0:0|0:0,0:0:0:0:
407,225,184681,2,0,P|445:247|496:232,1,96.0749970680238,0|0,0:0|0:0,0:0:0:0:
390,58,184967,2,0,P|352:36|301:51,1,96.0749970680238,0|0,0:0|0:0,0:0:0:0:
206,168,185253,1,0,0:0:0:0:
258,296,185396,1,0,0:0:0:0:
305,147,185539,1,10,0:0:0:0:
258,296,185681,5,0,3:0:0:0:
240,312,185753,1,8,3:0:0:0:
217,320,185824,1,8,3:1:0:0:
192,321,185896,1,0,3:0:0:0:
168,316,185967,1,0,3:0:0:0:
146,305,186039,1,0,3:0:0:0:
128,288,186110,1,8,3:0:0:0:
111,270,186181,1,8,3:0:0:0:
94,252,186253,2,0,L|64:215,5,48.0374985340119,4|0|8|8|4|0,3:0|3:0|3:0|3:0|3:0|3:0,0:0:0:0:
118,162,186681,2,0,L|98:117,5,48.0374985340119,8|8|4|4|8|8,3:0|3:0|3:0|3:0|3:0|3:0,0:0:0:0:
40,77,187110,2,0,P|77:47|125:54,1,96.0749970680238,8|8,0:0|0:0,0:0:0:0:
312,158,187396,5,8,3:0:0:0:
312,158,187467,1,8,3:0:0:0:
312,158,187539,1,8,0:0:0:0:
378,40,187681,1,12,0:0:0:0:
382,48,187967,6,0,B|398:71|391:115|391:115|411:128|438:128|438:128|434:175|462:204,1,201.300006143189,4|0,0:0|0:0,0:0:0:0:
426,280,188396,2,0,P|393:243|373:195,1,100.650003071594,8|0,0:0|0:0,0:0:0:0:
469,51,188681,1,2,0:0:0:0:
479,133,188824,1,0,0:0:0:0:
382,48,188967,2,0,P|333:31|290:49,1,100.650003071594,8|0,0:0|0:0,0:0:0:0:
186,208,189253,2,0,B|213:218|236:217|236:217|261:211|285:217,1,100.650003071594,2|0,0:0|0:0,0:0:0:0:
341,309,189539,1,8,0:0:0:0:
122,254,189681,2,0,P|106:203|124:160,1,100.650003071594,2|0,0:0|0:0,0:0:0:0:
271,66,189967,5,0,0:0:0:0:
379,155,190110,1,8,0:0:0:0:
420,303,190253,2,0,P|361:386|278:359,1,201.300006143189,6|0,0:0|0:0,0:0:0:0:
376,242,190681,2,0,P|419:225|468:243,1,100.650003071594,10|0,0:0|0:0,0:0:0:0:
293,283,190967,1,2,0:0:0:0:
230,182,191110,1,0,0:0:0:0:
271,66,191253,6,0,B|307:54|307:54|335:53|335:53|371:42,1,100.650003071594,10|0,0:0|0:0,0:0:0:0:
230,181,191539,2,0,B|197:192|197:192|169:193|169:193|133:205,1,100.650003071594
23,354,191824,2,0,B|59:342|59:342|87:341|87:341|123:330,1,100.650003071594,10|0,0:0|0:0,0:0:0:0:
144,322,192039,1,0,0:0:0:0:
144,322,192110,1,0,0:0:0:0:
29,235,192253,1,0,0:0:0:0:
3,126,192396,1,8,0:0:0:0:
61,33,192539,6,0,B|116:27|116:27|159:38|159:38|205:17|257:35,1,201.300006143189,4|0,0:0|0:0,0:0:0:0:
385,146,192967,2,0,P|401:197|386:244,1,100.650003071594,8|0,0:0|0:0,0:0:0:0:
329,95,193253,2,0,P|365:70|419:79,1,100.650003071594,2|0,0:0|0:0,0:0:0:0:
309,169,193539,1,8,0:0:0:0:
227,113,193681,1,0,0:0:0:0:
220,209,193824,2,0,L|212:315,1,100.650003071594,2|0,0:0|0:0,0:0:0:0:
227,113,194110,1,8,0:0:0:0:
142,42,194253,2,0,P|92:24|48:49,1,100.650003071594,2|0,0:0|0:0,0:0:0:0:
145,257,194539,5,0,0:0:0:0:
259,301,194681,1,8,0:0:0:0:
395,298,194824,2,0,B|436:287|455:234|433:196|433:196|463:172|456:126,1,201.300006143189,6|0,0:0|0:0,0:0:0:0:
384,138,195253,2,0,P|359:180|368:229,1,100.650003071594,8|0,0:0|0:0,0:0:0:0:
411,63,195539,2,0,L|310:43,1,100.650003071594,2|0,3:1|0:0,0:0:0:0:
176,159,195824,1,8,3:0:0:0:
256,192,195967,12,4,197110,1:0:0:0:
56,225,197396,5,2,3:0:0:0:
116,284,197539,2,0,L|130:369,1,82.3499974868775,2|0,0:2|0:0,0:0:0:0:
184,196,197824,2,0,L|198:281,1,82.3499974868775,2|0,0:2|0:0,0:0:0:0:
170,116,198110,1,2,0:2:0:0:
159,32,198253,5,4,1:0:0:0:
346,156,198539,1,2,3:0:0:0:
413,191,198681,2,0,P|426:155|410:112,1,82.3499974868775,2|0,0:0|0:0,0:0:0:0:
290,214,198967,1,8,3:1:0:0:
283,233,199039,1,8,3:0:0:0:
276,252,199110,1,8,3:0:0:0:
269,271,199181,1,0,3:0:0:0:
263,290,199253,1,8,3:1:0:0:
257,309,199324,1,0,3:0:0:0:
250,328,199396,6,0,B|194:349|194:349|162:345|162:345|121:367|72:341,1,183,4|0,0:0|0:0,0:0:0:0:
21,217,199824,2,0,P|9:171|23:129,1,91.5,8|8,0:0|3:0,0:0:0:0:
123,259,200110,1,4,3:0:0:0:
208,112,200253,1,0,0:0:0:0:
258,226,200396,1,8,0:0:0:0:
160,49,200539,2,0,B|201:17|259:32|281:81|281:81|300:31|367:32|367:32|391:66|430:73,1,329.39998994751,4|0,0:0|0:0,0:0:0:0:
