osu file format v14

[General]
AudioFilename: audio.mp3
AudioLeadIn: 0
PreviewTime: 55396
Countdown: 0
SampleSet: Normal
StackLeniency: 0
Mode: 0
LetterboxInBreaks: 0
WidescreenStoryboard: 0

[Editor]
Bookmarks: 5110,9681,27967,37110,46253,55396,73681,78253,87396,95396,105681,123967,137681,142253,146824,151396,160538,169681,183396,187967,197110,200538
DistanceSpacing: 0.2
BeatDivisor: 8
GridSize: 8
TimelineZoom: 3.599999

[Metadata]
Title:Fiction
TitleUnicode:Fiction
Artist:Minstrel
ArtistUnicode:Minstrel
Creator:Gravified
Version:Deramok's Expert
Source:
Tags:LIQU@. @-dash! yuta オレオレウサギ りくあっと ぎゃぷいち neochi. AutumnLeaves reku C85 Comiket 85 recollection japanese rock jrock doujin Kite Kyubey Deramok
BeatmapID:2296795
BeatmapSetID:975363

[Difficulty]
HPDrainRate:6
CircleSize:3.8
OverallDifficulty:9
ApproachRate:9
SliderMultiplier:2
SliderTickRate:1

[Events]
//Background and Video events
0,0,"Recollection.jpg",0,0
//Break Periods
//Storyboard Layer 0 (Background)
//Storyboard Layer 1 (Fail)
//Storyboard Layer 2 (Pass)
//Storyboard Layer 3 (Foreground)
//Storyboard Layer 4 (Overlay)
//Storyboard Sound Samples

[TimingPoints]
-461,285.714285714286,4,1,90,70,1,0
824,-200,4,2,90,70,0,0
2610,-200,4,1,90,5,0,0
2681,-200,4,2,90,70,0,0
2824,-80,4,1,90,70,0,0
3038,-80,4,1,90,5,0,0
3110,-80,4,2,90,70,0,0
4110,-80,4,1,90,70,0,0
5324,-80,4,1,90,5,0,0
5396,-80,4,1,90,70,0,0
7038,-80,4,1,90,5,0,0
7110,-80,4,1,90,70,0,0
7610,-80,4,1,90,5,0,0
7681,-80,4,1,90,70,0,0
9253,-80,4,2,90,70,0,0
9538,-80,4,1,90,70,0,0
9896,-80,4,1,90,5,0,0
9967,-80,4,1,90,70,0,0
11467,-80,4,1,90,5,0,0
11538,-80,4,1,90,70,0,0
12181,-80,4,1,90,5,0,0
12253,-80,4,1,90,70,0,0
13324,-80,4,1,90,5,0,0
13396,-80,4,1,90,70,0,0
14467,-80,4,1,90,5,0,0
14538,-80,4,1,90,70,0,0
16038,-80,4,1,90,5,0,0
16110,-80,4,1,90,70,0,0
16753,-80,4,1,90,5,0,0
16824,-80,4,1,90,70,0,0
17896,-80,4,1,90,5,0,0
17967,-80,4,1,90,70,0,0
19038,-80,4,1,90,5,0,0
19110,-80,4,1,90,70,0,0
20753,-80,4,1,90,5,0,0
20824,-80,4,1,90,70,0,0
21324,-80,4,1,90,5,0,0
21396,-80,4,1,90,70,0,0
22467,-80,4,1,90,5,0,0
22538,-80,4,1,90,70,0,0
23610,-80,4,1,90,5,0,0
23681,-80,4,1,90,70,0,0
25324,-80,4,1,90,5,0,0
25396,-80,4,1,90,70,0,0
25896,-80,4,1,90,5,0,0
25967,-80,4,1,90,70,0,0
27967,-100,4,1,90,70,0,0
45467,-100,4,1,90,5,0,0
45538,-100,4,1,90,70,0,0
45753,-100,4,1,90,5,0,0
45824,-100,4,1,90,70,0,0
46610,-100,4,1,90,5,0,0
46681,-100,4,1,90,70,0,0
46896,-100,4,1,90,5,0,0
46967,-100,4,1,90,70,0,0
47610,-100,4,1,90,5,0,0
47681,-100,4,1,90,70,0,0
48038,-100,4,1,90,5,0,0
48110,-100,4,1,90,70,0,0
48753,-100,4,1,90,5,0,0
48824,-100,4,1,90,70,0,0
50896,-100,4,1,90,5,0,0
50967,-100,4,1,90,70,0,0
51181,-100,4,1,90,5,0,0
51253,-100,4,1,90,70,0,0
51467,-100,4,1,90,5,0,0
51538,-100,4,1,90,70,0,0
52181,-100,4,1,90,5,0,0
52253,-100,4,1,90,70,0,0
55396,-80,4,1,90,70,0,0
56753,-80,4,1,90,5,0,0
56824,-80,4,1,90,70,0,0
57896,-80,4,1,90,5,0,0
57967,-80,4,1,90,70,0,0
58467,-80,4,1,90,35,0,0
58538,-80,4,1,90,70,0,0
58610,-80,4,1,90,35,0,0
58681,-80,4,1,90,70,0,0
58753,-80,4,1,90,35,0,0
58824,-80,4,1,90,70,0,0
59038,-80,4,1,90,5,0,0
59110,-80,4,1,90,70,0,0
59753,-80,4,1,90,5,0,0
59824,-80,4,1,90,70,0,0
61324,-80,4,1,90,5,0,0
61396,-80,4,1,90,70,0,0
64753,-80,4,1,90,5,0,0
64824,-80,4,1,90,70,0,0
65467,-80,4,1,90,5,0,0
65538,-80,4,1,90,70,0,0
66181,-80,4,1,90,5,0,0
66253,-80,4,1,90,70,0,0
67038,-80,4,1,90,5,0,0
67110,-80,4,1,90,70,0,0
67610,-80,4,1,90,35,0,0
67681,-80,4,1,90,70,0,0
67753,-80,4,1,90,35,0,0
67824,-80,4,1,90,70,0,0
67896,-80,4,1,90,35,0,0
67967,-80,4,1,90,70,0,0
68181,-80,4,1,90,5,0,0
68253,-80,4,1,90,70,0,0
68896,-80,4,1,90,5,0,0
68967,-80,4,1,90,70,0,0
69324,-80,4,1,90,5,0,0
69396,-80,4,1,90,70,0,0
70038,-80,4,1,90,5,0,0
70110,-80,4,1,90,70,0,0
70896,-80,4,1,90,5,0,0
70967,-80,4,1,90,70,0,0
71610,-80,4,1,90,5,0,0
71681,-80,4,1,90,70,0,0
73681,-100,4,1,90,70,0,0
75967,-80,4,1,90,70,0,0
76181,-80,4,1,90,5,0,0
76253,-80,4,1,90,70,0,0
78253,-133.333333333333,4,1,90,70,0,0
78729,-133.333333333333,4,2,90,45,0,0
87538,-133.333333333333,4,2,90,60,0,0
87967,-133.333333333333,4,1,90,70,0,0
88110,-133.333333333333,4,2,90,60,0,0
91109,-133.333333333333,4,2,90,70,0,0
91253,-133.333333333333,4,1,90,60,0,0
91396,-133.333333333333,4,1,90,70,0,0
91538,-133.333333333333,4,2,90,70,0,0
92252,-133.333333333333,4,1,90,70,0,0
92396,-133.333333333333,4,2,90,70,0,0
93395,-133.333333333333,4,1,90,70,0,0
93538,-133.333333333333,4,2,90,70,0,0
93680,-133.333333333333,4,1,90,70,0,0
93824,-133.333333333333,4,2,90,70,0,0
93967,-133.333333333333,4,1,90,70,0,0
94110,-133.333333333333,4,2,90,70,0,0
94967,-133.333333333333,4,1,90,70,0,0
95396,-100,4,1,90,70,0,0
96967,-100,4,1,90,60,0,0
98538,-100,4,1,90,70,0,0
98681,-100,4,1,90,60,0,0
98823,-100,4,1,90,70,0,0
98967,-100,4,1,90,60,0,0
99467,-100,4,1,90,5,0,0
99538,-100,4,1,90,60,0,0
99752,-100,4,1,90,5,0,0
99824,-100,4,1,90,60,0,0
101467,-100,4,1,90,5,0,0
101538,-100,4,1,90,60,0,0
101824,-100,4,1,90,70,0,0
102467,-100,4,1,90,5,0,0
102538,-100,4,1,90,70,0,0
103253,-100,4,1,90,70,0,0
103396,-100,4,1,90,70,0,0
104681,-400,4,1,90,70,0,0
105253,-100,4,1,90,70,0,0
105681,-80,4,1,90,70,0,0
105896,-80,4,1,90,5,0,0
105967,-80,4,1,90,70,0,0
107038,-80,4,1,90,5,0,0
107110,-80,4,1,90,70,0,0
107753,-80,4,1,90,5,0,0
107824,-80,4,1,90,70,0,0
108181,-80,4,1,90,5,0,0
108253,-80,4,1,90,70,0,0
108324,-80,4,1,90,35,0,0
108396,-80,4,1,90,70,0,0
108467,-80,4,1,90,35,0,0
108538,-80,4,1,90,70,0,0
108753,-80,4,1,90,35,0,0
108824,-80,4,1,90,70,0,0
108896,-80,4,1,90,35,0,0
108967,-80,4,1,90,70,0,0
109038,-80,4,1,90,35,0,0
109110,-80,4,1,90,70,0,0
109324,-80,4,1,90,5,0,0
109396,-80,4,1,90,70,0,0
109753,-80,4,1,90,5,0,0
109824,-80,4,1,90,70,0,0
110038,-80,4,1,90,5,0,0
110110,-80,4,1,90,70,0,0
110467,-80,4,1,90,5,0,0
110538,-80,4,1,90,70,0,0
112038,-80,4,1,90,5,0,0
112110,-80,4,1,90,70,0,0
112324,-80,4,1,90,5,0,0
112396,-80,4,1,90,70,0,0
113181,-80,4,1,90,5,0,0
113253,-80,4,1,90,70,0,0
115038,-80,4,1,90,5,0,0
115110,-80,4,1,90,70,0,0
115324,-80,4,1,90,5,0,0
115396,-80,4,1,90,70,0,0
115753,-80,4,1,90,5,0,0
115824,-80,4,1,90,70,0,0
116181,-80,4,1,90,5,0,0
116253,-80,4,1,90,70,0,0
117324,-80,4,1,90,5,0,0
117396,-80,4,1,90,70,0,0
117610,-80,4,1,90,5,0,0
117681,-80,4,1,90,70,0,0
117896,-80,4,1,90,35,0,0
117967,-80,4,1,90,70,0,0
118038,-80,4,1,90,35,0,0
118110,-80,4,1,90,70,0,0
118181,-80,4,1,90,35,0,0
118253,-80,4,1,90,70,0,0
118467,-80,4,1,90,5,0,0
118538,-80,4,1,90,70,0,0
119181,-80,4,1,90,5,0,0
119253,-80,4,1,90,70,0,0
119610,-80,4,1,90,5,0,0
119681,-80,4,1,90,70,0,0
120753,-80,4,1,90,5,0,0
120824,-80,4,1,90,70,0,0
124181,-80,4,1,90,5,0,0
124253,-80,4,1,90,70,0,0
125681,-133.333333333333,4,1,90,70,0,0
125967,-80,4,1,90,70,0,0
126467,-80,4,1,90,5,0,0
126538,-80,4,1,90,70,0,0
126896,-80,4,1,90,5,0,0
126967,-80,4,1,90,70,0,0
127610,-80,4,1,90,5,0,0
127681,-80,4,1,90,70,0,0
128753,-80,4,1,90,5,0,0
128824,-80,4,1,90,70,0,0
131038,-80,4,1,90,5,0,0
131110,-80,4,1,90,70,0,0
132610,-80,4,1,90,45,0,0
132681,-80,4,1,90,70,0,0
132753,-80,4,1,90,45,0,0
132824,-80,4,1,90,70,0,0
132896,-80,4,1,90,45,0,0
132967,-80,4,1,90,70,0,0
133038,-80,4,1,90,45,0,0
133110,-80,4,1,90,70,0,0
134324,-80,4,1,90,45,0,0
134396,-80,4,1,90,70,0,0
134467,-80,4,1,90,45,0,0
134538,-80,4,1,90,70,0,0
134610,-80,4,1,90,45,0,0
134681,-80,4,1,90,70,0,0
134896,-80,4,1,90,5,0,0
134967,-80,4,1,90,70,0,0
136324,-80,4,1,90,5,0,0
136396,-80,4,1,90,70,0,0
136753,-80,4,1,90,5,0,0
136824,-80,4,1,90,70,0,0
137038,-80,4,1,90,5,0,0
137110,-80,4,1,90,70,0,0
138467,-80,4,1,90,5,0,0
138538,-80,4,1,90,70,0,0
139038,-80,4,1,90,5,0,0
139110,-80,4,1,90,70,0,0
142181,-80,4,1,90,5,0,0
142253,-100,4,1,90,70,0,0
143967,-100,4,1,90,70,0,0
144110,-100,4,1,90,30,0,0
144253,-100,4,1,90,70,0,0
146110,-100,4,2,90,70,0,0
146538,-100,4,1,90,70,0,0
150753,-100,4,1,90,5,0,0
150824,-100,4,1,90,70,0,0
151038,-100,4,1,90,5,0,0
151110,-80,4,1,90,70,0,0
151324,-80,4,1,90,5,0,0
151396,-80,4,1,90,70,0,0
151610,-80,4,1,90,5,0,0
151681,-80,4,1,90,70,0,0
152753,-80,4,1,90,5,0,0
152824,-80,4,1,90,70,0,0
153896,-80,4,1,90,5,0,0
153967,-80,4,1,90,70,0,0
154038,-80,4,1,90,35,0,0
154110,-80,4,1,90,70,0,0
154181,-80,4,1,90,35,0,0
154253,-80,4,1,90,70,0,0
154467,-80,4,1,90,35,0,0
154538,-80,4,1,90,70,0,0
154610,-80,4,1,90,35,0,0
154681,-80,4,1,90,70,0,0
154753,-80,4,1,90,35,0,0
154824,-80,4,1,90,70,0,0
155038,-80,4,1,90,5,0,0
155110,-80,4,1,90,70,0,0
155467,-80,4,1,90,5,0,0
155538,-80,4,1,90,70,0,0
155753,-80,4,1,90,5,0,0
155824,-80,4,1,90,70,0,0
157324,-80,4,1,90,5,0,0
157396,-80,4,1,90,70,0,0
157753,-80,4,1,90,5,0,0
157824,-80,4,1,90,70,0,0
158467,-80,4,1,90,5,0,0
158538,-80,4,1,90,70,0,0
158896,-80,4,1,90,5,0,0
158967,-80,4,1,90,70,0,0
159181,-80,4,1,90,5,0,0
159253,-80,4,1,90,70,0,0
160181,-80,4,1,90,5,0,0
160253,-80,4,1,90,70,0,0
160753,-80,4,1,90,5,0,0
160824,-80,4,1,90,70,0,0
161038,-80,4,1,90,5,0,0
161110,-80,4,1,90,70,0,0
161896,-80,4,1,90,5,0,0
161967,-80,4,1,90,70,0,0
162181,-80,4,1,90,5,0,0
162253,-80,4,1,90,70,0,0
163038,-80,4,1,90,5,0,0
163110,-80,4,1,90,70,0,0
163610,-80,4,1,90,35,0,0
163681,-80,4,1,90,70,0,0
163753,-80,4,1,90,35,0,0
163824,-80,4,1,90,70,0,0
163896,-80,4,1,90,35,0,0
163967,-80,4,1,90,70,0,0
164181,-80,4,1,90,5,0,0
164253,-80,4,1,90,70,0,0
164896,-80,4,1,90,5,0,0
164967,-80,4,1,90,70,0,0
165324,-80,4,1,90,5,0,0
165396,-80,4,1,90,70,0,0
166038,-80,4,1,90,5,0,0
166110,-80,4,1,90,70,0,0
166467,-80,4,1,90,5,0,0
166538,-80,4,1,90,70,0,0
166896,-80,4,1,90,5,0,0
166967,-80,4,1,90,70,0,0
167610,-80,4,1,90,5,0,0
167681,-80,4,1,90,70,0,0
171324,-80,4,1,90,5,0,0
171396,-80,4,1,90,70,0,0
173753,-80,4,1,90,5,0,0
173824,-80,4,1,90,70,0,0
176181,-80,4,1,90,5,0,0
176253,-80,4,1,90,70,0,0
176753,-80,4,1,90,5,0,0
176824,-80,4,1,90,70,0,0
177324,-80,4,1,90,5,0,0
177396,-80,4,1,90,70,0,0
177896,-80,4,1,90,5,0,0
177967,-80,4,1,90,70,0,0
178467,-80,4,1,90,5,0,0
178538,-80,4,1,90,70,0,0
179038,-80,4,1,90,5,0,0
179110,-80,4,1,90,70,0,0
179467,-80,4,1,90,5,0,0
179538,-80,4,1,90,70,0,0
182467,-80,4,1,90,5,0,0
182538,-80,4,1,90,70,0,0
183610,-80,4,1,90,5,0,0
183681,-80,4,1,90,70,0,0
185538,-80,4,1,90,70,0,0
185753,-80,4,1,90,70,0,0
186038,-80,4,1,90,5,0,0
186110,-80,4,1,90,70,0,0
188181,-80,4,1,90,5,0,0
188253,-80,4,1,90,70,0,0
189896,-80,4,1,90,5,0,0
189967,-80,4,1,90,70,0,0
190467,-80,4,1,90,5,0,0
190538,-80,4,1,90,70,0,0
194467,-80,4,1,90,5,0,0
194538,-80,4,1,90,70,0,0
195038,-80,4,1,90,5,0,0
195110,-80,4,1,90,70,0,0
197110,-80,4,2,90,70,0,0
198967,-80,4,1,90,70,0,0
200538,-80,4,2,90,70,0,0
200966,-80,4,1,90,5,0,0

[Colours]
Combo1 : 201,255,185
Combo2 : 202,222,255
Combo3 : 255,213,248
Combo4 : 255,191,191

[HitObjects]
512,256,110,5,12,0:0:0:0:
342,213,253,1,12,0:0:0:0:
172,170,396,1,12,0:0:0:0:
0,128,539,2,0,P|91:88|128:0,1,200,4|0,0:0|0:0,0:0:0:0:
11,2,967,6,0,P|0:42|0:69,1,50,0|0,0:0|0:0,0:0:0:0:
75,122,1253,2,0,P|71:146|63:170,1,50,4|0,0:2|0:0,0:0:0:0:
4,277,1539,1,0,0:0:0:0:
0,281,1681,1,0,0:0:0:0:
34,348,1824,1,0,0:0:0:0:
134,297,1967,1,0,0:0:0:0:
134,297,2253,5,0,0:0:0:0:
100,230,2396,2,0,P|127:276|157:298,1,75,4|0,0:2|0:0,0:0:0:0:
134,297,2681,5,2,0:1:0:0:
222,171,2824,2,0,P|308:136|400:144,1,187.5,0|0,0:0|0:0,0:0:0:0:
433,165,3110,5,0,0:0:0:0:
421,263,3253,1,0,0:0:0:0:
357,223,3396,1,0,0:0:0:0:
448,97,3539,1,4,0:2:0:0:
512,137,3681,1,0,0:0:0:0:
380,210,3824,1,2,0:1:0:0:
429,240,3967,1,0,0:0:0:0:
373,372,4110,5,0,3:0:0:0:
381,366,4181,1,0,3:0:0:0:
390,362,4253,1,0,3:0:0:0:
399,360,4324,1,0,3:0:0:0:
408,361,4396,1,0,3:0:0:0:
418,343,4467,1,0,3:0:0:0:
426,349,4539,1,0,3:0:0:0:
432,356,4610,1,0,3:0:0:0:
436,364,4681,1,0,3:0:0:0:
364,295,4824,1,0,3:0:0:0:
367,286,4896,1,0,3:0:0:0:
371,278,4967,1,0,3:0:0:0:
238,347,5110,6,0,P|159:297|67:292,1,187.5,4|0,0:2|0:0,0:0:0:0:
32,308,5396,1,0,0:0:0:0:
93,192,5539,1,4,0:0:0:0:
29,232,5681,1,0,0:0:0:0:
90,116,5824,1,0,0:0:0:0:
26,156,5967,1,0,0:0:0:0:
32,308,6110,1,4,0:0:0:0:
0,328,6253,1,0,0:0:0:0:
29,232,6396,5,0,0:0:0:0:
157,152,6539,1,0,0:0:0:0:
93,192,6681,1,4,0:0:0:0:
240,153,6824,2,0,P|287:122|317:-8,1,187.5,0|0,0:0|0:0,0:0:0:0:
216,47,7110,1,0,0:0:0:0:
257,243,7253,5,4,0:2:0:0:
454,34,7396,2,0,P|420:119|453:205,1,187.5,4|0,0:2|0:0,0:0:0:0:
482,232,7681,1,0,0:0:0:0:
395,276,7824,1,0,0:0:0:0:
439,254,7967,1,0,0:0:0:0:
283,252,8110,1,0,0:0:0:0:
347,379,8253,1,0,0:0:0:0:
351,298,8396,1,0,0:0:0:0:
342,303,8467,1,0,0:0:0:0:
333,307,8539,1,0,0:0:0:0:
211,368,8681,1,0,0:0:0:0:
205,371,8824,5,0,2:0:0:0:
164,344,8967,1,0,2:0:0:0:
102,303,9110,1,0,2:0:0:0:
2,379,9253,6,0,B|62:335|79:261|59:200|59:200|94:209|118:228,1,250,8|0,0:0|0:0,0:0:0:0:
245,130,9681,6,0,B|242:89|205:71|166:115|125:118|90:73|86:39,1,187.5,4|0,0:2|0:0,0:0:0:0:
155,27,9967,1,0,0:0:0:0:
104,218,10110,2,0,P|157:172|216:140,1,125,10|0,0:2|0:0,0:0:0:0:
337,245,10396,2,0,P|290:203|236:172,1,125,0|0,0:0|0:0,0:0:0:0:
347,321,10681,1,8,0:0:0:0:
407,274,10824,1,0,0:0:0:0:
494,124,10967,1,2,0:2:0:0:
337,245,11110,1,0,0:0:0:0:
416,185,11253,1,8,0:0:0:0:
466,383,11396,6,0,P|437:371|417:349,1,62.5,2|0,0:2|0:0,0:0:0:0:
407,274,11539,1,0,3:0:0:0:
347,321,11681,1,0,3:0:0:0:
287,368,11824,1,10,3:2:0:0:
347,154,11967,6,0,B|286:82|286:82|166:67,1,187.5,4|0,0:2|0:0,0:0:0:0:
111,60,12253,1,0,0:0:0:0:
30,185,12396,1,8,0:0:0:0:
55,302,12539,1,0,0:0:0:0:
213,145,12681,1,2,0:2:0:0:
30,185,12824,1,0,0:0:0:0:
55,302,12967,1,8,0:0:0:0:
239,263,13110,6,0,B|271:237|309:253|303:311|328:344|385:340|413:320,1,187.5,4|0,0:2|0:0,0:0:0:0:
295,384,13396,1,0,0:0:0:0:
379,257,13539,2,0,P|337:198|286:173,1,125,10|0,0:3|0:0,0:0:0:0:
55,302,13824,1,12,0:0:0:0:
239,263,13967,1,0,0:0:0:0:
213,145,14110,1,2,0:1:0:0:
397,106,14253,6,0,B|351:45|447:12|505:87|446:173,1,187.5,4|0,0:2|0:0,0:0:0:0:
407,182,14539,1,0,0:0:0:0:
261,48,14681,2,0,P|200:35|140:51,1,125,10|0,0:2|0:0,0:0:0:0:
291,174,14967,2,0,P|345:205|379:257,1,125,0|0,0:0|0:0,0:0:0:0:
187,288,15253,1,8,0:0:0:0:
135,345,15396,1,0,0:0:0:0:
230,379,15539,1,0,0:0:0:0:
144,197,15681,1,2,0:2:0:0:
187,288,15824,1,8,0:0:0:0:
101,106,15967,6,0,P|106:154|95:179,1,62.5,2|0,0:2|0:0,0:0:0:0:
34,137,16110,1,0,3:0:0:0:
39,62,16253,1,0,3:0:0:0:
110,32,16396,1,2,3:2:0:0:
281,167,16539,6,0,B|376:171|376:171|458:95,1,187.5,4|0,0:2|0:0,0:0:0:0:
497,36,16824,1,0,0:0:0:0:
492,159,16967,1,8,0:0:0:0:
401,243,17110,1,0,0:0:0:0:
397,55,17253,1,2,0:2:0:0:
277,238,17396,1,0,0:0:0:0:
401,243,17539,1,8,0:0:0:0:
273,50,17681,6,0,B|215:0|153:36|141:122|241:94,1,187.5,0|0,0:0|0:0,0:0:0:0:
290,123,17967,1,0,0:0:0:0:
16,87,18110,2,0,P|39:42|108:19,1,125,2|0,0:3|0:0,0:0:0:0:
96,99,18396,1,0,0:0:0:0:
153,307,18539,1,12,0:0:0:0:
218,98,18681,1,12,0:0:0:0:
71,239,18824,6,0,P|135:201|242:248,1,187.5,4|0,0:0|0:0,0:0:0:0:
260,309,19110,1,0,0:0:0:0:
329,342,19253,1,8,0:0:0:0:
401,316,19396,1,0,0:0:0:0:
434,247,19539,1,0,0:0:0:0:
408,174,19681,1,0,0:0:0:0:
337,140,19824,1,8,0:0:0:0:
311,67,19967,1,0,0:0:0:0:
511,78,20110,5,2,0:2:0:0:
408,174,20253,1,0,0:2:0:0:
311,67,20396,1,8,0:0:0:0:
208,163,20539,2,0,P|136:183|25:109,1,187.5,2|0,0:2|0:0,0:0:0:0:
18,62,20824,1,0,3:0:0:0:
105,259,20967,5,2,3:2:0:0:
142,37,21110,2,0,P|213:16|325:91,1,187.5,4|0,0:2|0:0,0:0:0:0:
391,37,21396,1,0,0:0:0:0:
469,74,21539,1,8,0:0:0:0:
497,154,21681,1,0,0:0:0:0:
461,230,21824,1,0,0:0:0:0:
489,309,21967,1,0,0:0:0:0:
453,384,22110,1,8,0:0:0:0:
285,237,22253,6,0,P|327:155|310:65,1,187.5,6|0,0:2|0:0,0:0:0:0:
227,17,22539,1,0,0:0:0:0:
135,42,22681,1,10,0:3:0:0:
87,124,22824,1,0,0:0:0:0:
194,263,22967,1,12,0:0:0:0:
169,171,23110,1,0,0:0:0:0:
87,123,23253,1,2,0:1:0:0:
98,323,23396,6,0,P|180:365|270:348,1,187.5,4|0,0:2|0:0,0:0:0:0:
325,297,23681,1,0,0:0:0:0:
500,297,23824,1,8,0:0:0:0:
462,231,23967,1,0,0:0:0:0:
287,231,24110,1,0,0:0:0:0:
325,165,24253,1,0,0:0:0:0:
500,165,24396,1,8,0:0:0:0:
462,99,24539,1,0,0:0:0:0:
287,99,24681,5,2,0:2:0:0:
183,205,24824,1,0,0:0:0:0:
325,165,24967,1,8,0:0:0:0:
145,139,25110,2,0,P|78:169|14:282,1,187.5,2|0,0:2|0:0,0:0:0:0:
13,338,25396,1,0,3:0:0:0:
91,302,25539,5,2,3:2:0:0:
26,108,25681,2,0,P|105:61|198:65,1,187.5,4|0,0:0|0:0,0:0:0:0:
235,139,25967,1,0,0:0:0:0:
352,56,26110,1,8,0:0:0:0:
318,136,26253,1,0,0:0:0:0:
467,157,26396,1,0,0:0:0:0:
476,311,26539,1,0,0:0:0:0:
396,277,26681,1,8,0:0:0:0:
386,190,26824,1,0,0:0:0:0:
302,242,26967,5,2,3:2:0:0:
283,246,27039,1,0,3:0:0:0:
263,242,27110,1,0,3:0:0:0:
245,232,27181,1,0,3:0:0:0:
217,254,27253,1,0,3:0:0:0:
200,243,27324,1,0,3:0:0:0:
167,257,27396,1,0,3:0:0:0:
161,237,27467,1,0,3:0:0:0:
201,223,27539,6,0,P|223:177|227:150,1,62.5,2|0,0:2|3:0,0:0:0:0:
209,73,27681,2,0,P|177:35|153:20,1,62.5,2|0,0:2|3:0,0:0:0:0:
74,6,27824,2,0,P|31:18|6:33,1,62.5,2|0,0:2|3:0,0:0:0:0:
73,203,27967,2,0,P|139:125|75:88,1,200,4|0,0:2|0:0,0:0:0:0:
5,315,28396,6,0,P|63:282|108:282,1,100,8|0,0:0|0:0,0:0:0:0:
278,222,28681,2,0,P|342:239|374:271,2,100,2|0|8,0:2|0:0|0:0,0:0:0:0:
435,180,29110,2,0,P|468:238|396:364,1,200,2|0,0:2|0:0,0:0:0:0:
276,295,29539,6,0,P|317:267|367:260,1,100,8|0,0:0|0:0,0:0:0:0:
470,271,29824,1,2,0:2:0:0:
329,165,29967,2,0,L|366:259,1,100,0|8,0:0|0:0,0:0:0:0:
430,25,30253,2,0,P|429:91|304:164,1,200,6|0,0:2|0:0,0:0:0:0:
232,44,30681,2,0,P|281:40|327:58,1,100,8|0,0:0|0:0,0:0:0:0:
413,122,30967,1,2,0:2:0:0:
191,135,31110,2,0,L|231:43,1,100,0|8,0:0|0:0,0:0:0:0:
21,165,31396,6,0,P|113:192|191:134,1,200,6|0,0:2|0:0,0:0:0:0:
36,7,31824,2,0,P|74:39|94:85,1,100,8|0,0:0|0:0,0:0:0:0:
112,192,32110,1,2,0:2:0:0:
156,6,32253,2,0,L|94:85,1,100,0|8,3:0|0:0,3:0:0:0:
253,291,32539,2,0,P|206:206|111:191,1,200,6|0,0:2|0:0,0:0:0:0:
16,142,32967,6,0,P|48:104|93:84,1,100,8|0,0:0|0:0,0:0:0:0:
232,7,33253,2,0,P|281:3|327:21,2,100,2|0|8,0:2|0:0|0:0,0:0:0:0:
285,128,33681,2,0,P|381:130|442:54,1,200,2|0,0:2|0:0,0:0:0:0:
285,128,34110,2,0,P|309:170|351:198,1,100,8|0,0:0|0:0,0:0:0:0:
449,210,34396,1,0,0:0:0:0:
442,54,34539,1,0,0:0:0:0:
327,21,34681,1,10,0:3:0:0:
449,210,34824,6,0,P|388:285|291:283,1,200,4|0,0:2|0:0,0:0:0:0:
449,210,35253,2,0,P|465:256|460:305,1,100,10|0,0:2|0:0,0:0:0:0:
400,382,35539,1,0,0:0:0:0:
291,283,35681,1,0,0:0:0:0:
278,311,35824,1,10,0:2:0:0:
285,128,35967,2,0,P|188:117|122:187,1,200,4|0,0:2|0:0,0:0:0:0:
285,128,36396,2,0,P|263:83|225:52,1,100,8|0,0:0|0:0,0:0:0:0:
122,187,36681,5,8,0:0:0:0:
62,111,36824,1,0,0:0:0:0:
27,200,36967,1,0,0:2:0:0:
60,335,37110,6,0,P|126:265|222:276,1,200,4|0,0:2|0:0,0:0:0:0:
278,328,37539,1,8,0:0:0:0:
222,276,37681,1,0,0:0:0:0:
312,178,37824,1,2,0:2:0:0:
295,253,37967,1,0,0:2:0:0:
256,127,38110,1,2,0:2:0:0:
295,253,38253,1,8,0:0:0:0:
239,202,38396,1,0,0:0:0:0:
182,150,38539,1,0,0:0:0:0:
53,120,38681,5,8,0:0:0:0:
109,171,38824,1,0,0:0:0:0:
70,47,38967,1,0,0:0:0:0:
126,98,39110,1,0,0:0:0:0:
256,127,39253,1,10,0:2:0:0:
38,196,39396,6,0,P|97:271|194:269,1,200,4|0,0:2|0:0,0:0:0:0:
230,349,39824,1,8,0:0:0:0:
281,276,39967,1,0,0:0:0:0:
386,133,40110,1,2,0:2:0:0:
439,61,40253,1,0,0:0:0:0:
333,204,40396,1,10,0:2:0:0:
499,373,40539,6,0,P|403:359|357:275,1,200,4|0,0:2|0:0,0:0:0:0:
408,219,40967,1,8,0:0:0:0:
333,204,41110,1,0,0:0:0:0:
183,174,41253,1,2,0:2:0:0:
108,159,41396,1,0,0:0:0:0:
258,189,41539,1,10,0:2:0:0:
9,197,41681,6,0,P|22:101|107:54,1,200,4|0,0:2|0:0,0:0:0:0:
247,0,42110,1,8,0:0:0:0:
295,55,42253,1,0,0:0:0:0:
398,95,42396,1,2,0:2:0:0:
393,167,42539,1,0,0:0:0:0:
437,268,42681,1,8,0:0:0:0:
324,272,42824,1,2,0:2:0:0:
329,200,42967,1,0,0:0:0:0:
393,167,43110,1,0,0:0:0:0:
462,62,43253,5,10,0:2:0:0:
398,95,43396,1,0,0:0:0:0:
437,268,43539,1,0,0:0:0:0:
439,234,43681,1,0,3:0:0:0:
398,95,43824,1,10,3:2:0:0:
317,285,43967,2,0,P|221:299|152:232,1,200,4|0,0:2|0:0,0:0:0:0:
268,152,44396,2,0,P|278:103|267:55,1,100,8|0,0:0|0:0,0:0:0:0:
104,105,44681,1,0,0:0:0:0:
190,103,44824,1,0,0:0:0:0:
26,56,44967,5,10,0:2:0:0:
29,226,45110,1,4,0:2:0:0:
146,30,45253,2,0,P|241:15|291:60,1,150,0|0,0:0|0:0,0:0:0:0:
478,171,45539,2,0,P|492:75|448:26,1,150,12|0,0:0|0:0,0:0:0:0:
391,212,45824,1,2,3:2:0:0:
397,225,45896,1,0,3:0:0:0:
405,236,45967,1,0,3:0:0:0:
415,245,46039,1,0,3:0:0:0:
427,251,46110,1,0,3:0:0:0:
502,262,46253,1,0,0:0:0:0:
364,365,46396,6,0,P|349:330|253:362,1,150,4|0,0:2|0:0,0:0:0:0:
0,384,46681,2,0,P|90:319|105:271,1,150,12|0,0:0|0:0,0:0:0:0:
121,115,46967,6,0,P|85:149|38:167,1,100,0|0,0:0|0:0,0:0:0:0:
143,44,47253,1,10,0:2:0:0:
334,87,47396,2,0,P|266:115|194:99,1,150,0|0,0:0|0:0,0:0:0:0:
143,44,47681,1,0,0:0:0:0:
21,213,47824,2,0,P|54:147|120:114,1,150,10|0,0:2|0:0,0:0:0:0:
335,88,48110,1,2,0:2:0:0:
413,106,48253,1,0,0:0:0:0:
260,71,48396,5,0,0:2:0:0:
413,106,48539,2,0,B|473:125|492:77|479:16|453:-1,1,150,0|0,0:0|0:0,0:0:0:0:
389,30,48824,1,0,0:0:0:0:
437,182,48967,5,10,0:2:0:0:
412,106,49110,1,0,0:0:0:0:
359,166,49253,1,0,0:2:0:0:
384,242,49396,1,0,0:0:0:0:
437,182,49539,5,8,0:0:0:0:
487,334,49681,1,2,0:2:0:0:
462,258,49824,2,0,P|412:303|410:342,1,100,0|0,0:0|0:0,0:0:0:0:
117,326,50110,2,0,P|105:278|65:251,1,100,8|0,0:0|0:0,0:0:0:0:
328,331,50396,1,2,0:2:0:0:
198,329,50539,1,0,0:0:0:0:
39,326,50681,1,8,0:0:0:0:
214,259,50824,6,0,P|239:261|262:255,1,50,4|0,0:2|0:0,0:0:0:0:
335,258,50967,2,0,P|311:200|216:200,1,150,4|0,0:2|0:0,0:0:0:0:
392,35,51253,2,0,P|352:71|336:169,1,150,8|0,0:0|0:0,0:0:0:0:
405,323,51539,6,0,P|410:254|437:214,1,100,0|0,0:0|0:0,0:0:0:0:
512,183,51824,1,10,0:2:0:0:
485,1,51967,2,0,P|477:74|427:128,1,150,0|0,0:0|0:0,0:0:0:0:
512,183,52253,1,0,0:0:0:0:
404,322,52396,2,0,P|424:277|424:228,1,100,8|0,0:0|0:0,0:0:0:0:
392,35,52681,1,2,3:2:0:0:
327,111,52824,1,0,3:0:0:0:
427,128,52967,5,0,3:0:0:0:
268,0,53110,2,0,P|192:0|93:91,1,200,4|0,0:2|0:0,0:0:0:0:
198,179,53539,6,0,L|228:139,3,50,10|0|0|0,0:2|0:0|0:0|0:0,0:0:0:0:
109,303,53824,2,0,L|79:263,3,50,8|0|0|0,0:3|0:0|0:0|0:0,0:0:0:0:
258,215,54110,2,0,L|288:175,1,50,8|0,3:3|3:0,3:0:0:0:
167,104,54253,2,0,L|137:144,1,50,8|0,3:3|3:0,3:0:0:0:
231,341,54396,1,2,0:2:0:0:
351,341,54539,1,0,3:0:0:0:
365,326,54610,1,0,3:0:0:0:
375,309,54681,1,0,3:0:0:0:
300,138,54824,1,2,3:2:0:0:
291,155,54896,1,0,3:0:0:0:
288,175,54967,1,8,3:1:0:0:
331,242,55110,1,0,0:0:0:0:
491,84,55396,6,0,L|367:13,1,125,4|0,0:0|0:0,0:0:0:0:
297,300,55681,1,2,0:2:0:0:
344,218,55824,1,8,0:0:0:0:
391,136,55967,1,0,0:0:0:0:
391,299,56110,2,0,L|455:187,1,125,2|0,0:2|0:0,0:0:0:0:
250,382,56396,1,8,0:0:0:0:
168,335,56539,2,0,L|271:151,1,187.5,2|0,0:2|0:0,0:0:0:0:
491,84,56824,2,0,L|367:13,1,125,0|8,0:0|0:0,0:0:0:0:
344,218,57110,5,0,0:0:0:0:
382,21,57253,2,0,L|239:21,1,125,2|0,0:2|0:0,0:0:0:0:
391,137,57539,1,8,0:0:0:0:
453,377,57681,2,0,L|453:190,1,187.5,4|0,0:2|0:0,0:0:0:0:
257,21,57967,2,0,L|382:21,1,125,2|8,0:2|0:0,0:0:0:0:
256,195,58253,1,0,0:0:0:0:
131,147,58396,6,0,P|173:106|184:99,1,62.5,2|0,0:2|0:0,0:0:0:0:
225,83,58539,2,0,P|268:78|310:84,1,62.5,2|0,0:2|0:0,0:0:0:0:
338,97,58681,2,0,P|365:112|395:145,1,62.5,10|0,0:2|0:0,0:0:0:0:
257,384,58824,2,0,L|256:196,1,187.5,12|0,0:2|0:0,0:0:0:0:
132,21,59110,1,0,0:0:0:0:
257,21,59253,2,0,L|132:21,1,125,10|0,0:3|0:0,0:0:0:0:
131,336,59539,2,0,L|131:148,1,187.5,12|0,0:0|0:0,0:0:0:0:
256,196,59824,5,10,0:0:0:0:
132,21,59967,2,0,L|23:83,1,125,2|0,0:0|0:0,0:0:0:0:
223,310,60253,1,2,0:2:0:0:
177,229,60396,1,8,0:0:0:0:
131,148,60539,1,0,0:0:0:0:
271,229,60681,2,0,L|208:120,1,125,2|0,0:2|0:0,0:0:0:0:
177,228,60967,1,8,0:0:0:0:
365,230,61110,2,0,L|262:52,1,187.5,2|0,0:2|0:0,0:0:0:0:
365,68,61396,1,0,0:0:0:0:
271,229,61539,6,0,L|333:337,1,125,8|0,0:0|0:0,0:0:0:0:
365,230,61824,1,2,0:2:0:0:
271,229,61967,1,0,0:0:0:0:
83,227,62110,5,2,0:2:0:0:
240,120,62253,2,0,L|176:228,1,125,6|0,0:2|0:0,0:0:0:0:
233,316,62539,1,0,0:0:0:0:
132,21,62681,2,0,L|68:129,1,125,10|0,0:2|0:0,0:0:0:0:
320,167,62967,1,0,0:0:0:0:
239,119,63110,1,0,0:0:0:0:
68,128,63253,1,8,0:0:0:0:
21,208,63396,1,0,0:0:0:0:
188,370,63539,6,0,L|189:245,1,125,2|0,0:2|0:0,0:0:0:0:
68,128,63824,1,10,0:1:0:0:
303,12,63967,2,0,L|239:120,1,125,2|0,0:1|0:0,0:0:0:0:
21,208,64253,1,12,0:0:0:0:
239,119,64396,1,12,0:0:0:0:
359,284,64539,6,0,P|264:233|164:261,1,187.5
65,289,64824,1,2,0:2:0:0:
144,337,64967,1,8,0:0:0:0:
237,326,65110,1,0,0:0:0:0:
21,208,65253,2,0,P|112:197|190:246,1,187.5,2|0,0:2|0:0,0:0:0:0:
237,326,65539,1,8,0:0:0:0:
243,170,65681,2,0,P|289:211|312:268,1,125,2|0,0:2|0:0,0:0:0:0:
501,374,65967,2,0,P|446:299|449:207,1,187.5
495,148,66253,5,0,0:2:0:0:
243,170,66396,2,0,P|289:211|312:268,1,125,10|0,0:2|0:0,0:0:0:0:
237,326,66681,1,0,0:0:0:0:
448,207,66824,2,0,P|450:114|396:40,1,187.5,4|0,0:2|0:0,0:0:0:0:
140,41,67110,1,2,0:2:0:0:
221,87,67253,1,8,0:0:0:0:
315,87,67396,1,0,0:0:0:0:
448,207,67539,6,0,P|410:208|363:226,1,62.5,2|0,0:2|0:0,0:0:0:0:
337,232,67681,2,0,P|300:257|280:277,1,62.5,2|0,0:2|0:0,0:0:0:0:
254,308,67824,2,0,P|239:335|230:365,1,62.5,10|0,0:2|0:0,0:0:0:0:
114,131,67967,2,0,P|111:223|165:297,1,187.5,12|0,0:2|0:0,0:0:0:0:
337,232,68253,1,0,0:0:0:0:
398,336,68396,2,0,P|378:277|336:231,1,125,10|0,0:3|0:0,0:0:0:0:
0,350,68681,2,0,P|74:295|166:298,1,187.5,4|0,0:0|0:0,0:0:0:0:
230,365,68967,5,10,0:0:0:0:
191,207,69110,2,0,P|136:132|139:40,1,187.5,2|0,0:0|0:0,0:0:0:0:
396,40,69396,1,2,0:2:0:0:
315,87,69539,1,8,0:0:0:0:
221,87,69681,1,0,0:0:0:0:
396,40,69824,2,0,P|406:131|357:209,1,187.5,2|0,0:2|0:0,0:0:0:0:
264,232,70110,1,8,0:0:0:0:
433,361,70253,2,0,P|359:333|321:287,1,125,2|0,0:2|0:0,0:0:0:0:
357,209,70539,1,0,0:0:0:0:
186,373,70681,6,0,P|94:383|16:334,1,187.5,8|0,0:0|0:0,0:0:0:0:
133,173,70967,1,0,0:0:0:0:
84,90,71110,1,0,0:0:0:0:
133,173,71253,1,8,0:0:0:0:
226,1,71396,2,0,P|317:-9|395:39,1,187.5,6|0,0:2|0:0,0:0:0:0:
407,131,71681,1,0,0:0:0:0:
179,89,71824,1,8,0:0:0:0:
131,6,71967,1,0,0:0:0:0:
227,172,72110,1,8,3:0:0:0:
179,89,72253,1,0,0:0:0:0:
276,255,72396,5,8,3:0:0:0:
227,172,72539,1,0,0:0:0:0:
372,254,72681,2,0,L|409:317,1,62.5,2|0,3:2|3:0,3:0:0:0:
434,360,72824,2,0,L|402:306,1,62.5,0|0,3:0|3:0,3:0:0:0:
317,165,72967,1,8,3:0:0:0:
320,168,73039,1,0,3:0:0:0:
323,171,73110,2,0,L|360:234,1,62.5,0|0,3:0|3:0,3:0:0:0:
434,360,73253,1,10,3:2:0:0:
372,254,73396,1,0,0:0:0:0:
280,94,73539,1,0,3:0:0:0:
277,91,73610,1,0,3:0:0:0:
274,88,73681,6,0,P|304:36|443:38,1,200,6|0,0:2|0:0,0:0:0:0:
473,121,74110,2,0,P|423:125|377:106,1,100,8|0,2:0|0:0,0:0:0:0:
274,88,74396,1,0,0:0:0:0:
377,107,74539,1,0,0:0:0:0:
274,88,74681,1,8,2:0:0:0:
221,139,74824,6,0,L|223:178,1,33.3333333333333
274,88,74931,1,0,0:0:0:0:
24,102,75110,1,4,0:2:0:0:
377,107,75396,1,4,0:2:0:0:
274,88,75681,1,8,0:0:0:0:
221,139,75824,1,0,0:0:0:0:
24,102,75967,6,0,P|129:55|226:76,1,187.5,4|0,0:1|0:0,0:0:0:0:
274,88,76253,1,0,0:0:0:0:
221,139,76396,1,0,0:0:0:0:
237,210,76539,1,0,0:0:0:0:
404,53,76681,1,2,0:2:0:0:
290,159,76824,1,2,0:2:0:0:
319,282,76967,1,2,0:2:0:0:
266,333,77110,5,0,0:0:0:0:
160,243,77253,1,0,3:0:0:0:
141,241,77324,1,0,3:0:0:0:
122,239,77396,1,0,3:0:0:0:
213,288,77539,1,0,3:0:0:0:
194,286,77610,1,0,3:0:0:0:
175,284,77681,1,0,3:0:0:0:
266,333,77824,1,0,0:0:0:0:
290,159,77967,1,10,0:2:0:0:
487,384,78253,1,4,0:0:0:0:
376,358,78729,6,0,P|422:287|492:272,1,150.000005722046
487,384,79253,1,0,0:0:0:0:
376,358,79443,2,0,P|358:275|397:215,1,150.000005722046,2|0,0:0|0:0,0:0:0:0:
461,121,79824,2,0,P|398:177|326:174,2,150.000005722046,0|0|0,0:0|0:0|0:0,0:0:0:0:
257,78,80539,6,0,P|297:139|368:157,1,150.000005722046,2|0,0:0|0:0,0:0:0:0:
366,44,80967,1,0,0:0:0:0:
335,177,81253,2,0,P|408:172|461:121,1,150.000005722046,0|0,0:0|0:0,0:0:0:0:
257,78,81681,2,0,P|297:139|368:157,1,150.000005722046,2|0,0:0|0:0,0:0:0:0:
461,120,82110,1,2,0:0:0:0:
455,216,82396,1,0,0:0:0:0:
493,278,82681,1,0,0:0:0:0:
308,357,83253,6,0,P|379:339|419:278,1,150.000005722046,0|0,0:0|0:0,0:0:0:0:
381,215,83824,1,0,0:0:0:0:
380,72,83967,2,0,P|308:89|268:150,1,150.000005722046,2|0,0:0|0:0,0:0:0:0:
195,292,84396,2,0,P|266:274|306:213,1,150.000005722046,0|0,0:0|0:0,0:0:0:0:
268,150,84967,5,2,0:0:0:0:
120,290,85110,2,0,P|80:351|9:369,1,150.000005722046,0|0,0:0|0:0,0:0:0:0:
82,227,85539,1,2,0:0:0:0:
195,292,85824,2,0,P|266:274|306:213,1,150.000005722046,0|0,0:0|0:0,0:0:0:0:
193,148,86253,2,0,P|121:165|81:226,1,150.000005722046,2|0,0:0|0:0,0:0:0:0:
120,290,86681,1,2,0:0:0:0:
159,228,86967,1,0,0:0:0:0:
147,79,87253,1,2,0:0:0:0:
195,292,87539,5,0,0:0:0:0:
327,219,87824,1,0,0:0:0:0:
294,238,87967,1,0,0:0:0:0:
352,142,88110,1,2,0:0:0:0:
327,219,88396,5,0,0:0:0:0:
275,125,88539,1,2,0:0:0:0:
403,201,88967,1,0,0:0:0:0:
400,349,89253,1,0,0:0:0:0:
401,312,89396,1,0,0:0:0:0:
400,349,89539,5,0,0:0:0:0:
403,201,89681,2,0,L|545:125,1,150.000005722046,2|0,0:0|0:0,0:0:0:0:
339,162,90110,2,0,P|330:200|355:262,1,75.0000028610231,2|0,0:0|0:0,0:0:0:0:
400,120,90396,1,0,0:0:0:0:
402,118,90467,1,0,0:0:0:0:
404,116,90539,1,0,0:0:0:0:
284,71,90681,1,0,0:0:0:0:
273,197,90824,6,0,L|140:267,1,150.000005722046,2|0,0:0|0:0,0:0:0:0:
40,245,91253,1,0,0:0:0:0:
9,261,91396,1,0,0:0:0:0:
171,250,91539,1,2,3:2:0:0:
140,266,91681,1,0,3:0:0:0:
100,118,91824,1,2,3:2:0:0:
69,134,91967,2,0,L|140:267,1,150.000005722046,0|0,0:0|0:0,0:0:0:0:
152,87,92396,6,0,L|226:44,1,75.0000028610231,0|0,0:0|1:0,0:0:0:0:
335,134,92681,2,0,L|251:113,1,75.0000028610231,2|0,1:2|0:0,0:0:0:0:
320,43,92967,1,0,0:0:0:0:
400,96,93110,2,0,L|335:133,1,75.0000028610231,2|0,0:0|2:0,0:0:0:0:
398,206,93539,6,0,L|463:169,1,75.0000028610231,0|0,0:0|2:0,0:0:0:0:
357,337,93824,2,0,L|422:300,1,75.0000028610231,0|0,0:0|2:0,0:0:0:0:
463,169,94110,1,2,1:2:0:0:
483,347,94253,2,0,P|416:375|356:336,1,150.000005722046,2|0,0:0|0:0,0:0:0:0:
422,300,94681,5,0,0:0:0:0:
343,251,94824,1,0,0:0:0:0:
231,236,94967,1,0,3:0:0:0:
219,245,95039,1,0,3:0:0:0:
204,249,95110,1,0,3:0:0:0:
81,202,95253,1,10,0:2:0:0:
0,384,95396,5,4,0:0:0:0:
100,360,95539,2,0,P|53:329|40:279,1,100,2|4,0:2|0:2,0:0:0:0:
162,20,95824,1,0,0:0:0:0:
121,111,95967,1,8,2:0:0:0:
121,111,96253,1,8,2:0:0:0:
412,24,96539,6,0,P|459:55|411:169,1,200,4|0,0:0|0:0,0:0:0:0:
398,96,96967,1,0,0:0:0:0:
491,210,97110,1,0,3:0:0:0:
485,228,97181,1,0,3:0:0:0:
477,246,97253,2,0,P|430:277|417:327,1,100,10|0,3:2|0:0,0:0:0:0:
492,320,97539,1,0,0:0:0:0:
397,94,97681,2,0,P|341:168|401:239,1,200,0|0,0:0|0:0,0:0:0:0:
415,167,98110,1,0,0:0:0:0:
327,50,98253,1,0,3:0:0:0:
307,46,98324,1,0,3:0:0:0:
287,42,98396,2,0,P|236:16|186:30,1,100,10|0,3:2|0:0,0:0:0:0:
63,161,98681,2,0,P|113:135|163:149,1,100,0|0,0:0|0:0,0:0:0:0:
291,358,98967,1,8,2:0:0:0:
79,332,99253,6,0,P|132:283|119:213,1,150,0|0,0:0|0:0,0:0:0:0:
102,41,99539,2,0,P|49:89|62:160,1,150,10|0,0:2|0:0,0:0:0:0:
122,114,99824,1,0,0:0:0:0:
173,345,99967,2,0,P|199:256|118:212,1,200,0|0,0:0|0:0,0:0:0:0:
129,285,100396,1,2,0:2:0:0:
198,132,100539,1,0,3:0:0:0:
198,111,100610,1,0,3:0:0:0:
198,91,100681,1,8,3:0:0:0:
129,285,100967,5,12,0:2:0:0:
273,108,101110,2,0,P|344:95|342:236,1,250,4|0,0:2|0:0,0:0:0:0:
320,166,101539,1,0,0:0:0:0:
438,81,101681,1,0,3:0:0:0:
438,60,101753,1,0,3:0:0:0:
438,40,101824,1,10,3:1:0:0:
320,166,101967,1,10,0:1:0:0:
438,122,102110,1,0,3:0:0:0:
438,101,102181,1,0,3:0:0:0:
438,81,102253,2,0,P|376:43|309:80,1,150,12|0,3:0|0:0,0:0:0:0:
320,166,102539,1,12,0:2:0:0:
446,291,102681,1,12,0:2:0:0:
435,159,102824,1,0,3:0:0:0:
426,140,102896,1,0,3:0:0:0:
438,122,102967,1,0,3:0:0:0:
458,123,103039,1,0,3:0:0:0:
467,142,103110,1,0,3:0:0:0:
455,160,103181,1,0,3:0:0:0:
410,193,103253,6,0,P|398:219|401:250,1,50,2|0,0:1|0:0,0:0:0:0:
501,327,103396,2,0,P|513:353|510:384,1,50,2|0,0:1|0:0,0:0:0:0:
258,369,103539,1,0,3:0:0:0:
262,359,103610,1,0,3:0:0:0:
268,350,103681,1,0,3:0:0:0:
276,343,103753,1,0,3:0:0:0:
307,338,103824,6,0,P|328:325|339:303,3,50,0|0|0|0,3:0|3:0|3:0|3:0,3:0:0:0:
274,272,104110,1,8,3:0:0:0:
263,226,104205,1,0,3:0:0:0:
275,187,104300,1,0,3:0:0:0:
402,202,104396,1,0,3:0:0:0:
382,228,104491,1,0,3:0:0:0:
357,237,104586,1,0,3:0:0:0:
337,230,104681,1,0,3:0:0:0:
337,230,105253,5,8,0:0:0:0:
410,1,105396,1,8,0:0:0:0:
512,192,105681,6,0,P|462:126|359:58,1,187.5,4|0,0:0|0:0,0:0:0:0:
224,41,105967,1,2,0:2:0:0:
303,44,106110,1,8,0:0:0:0:
256,192,106253,1,0,0:0:0:0:
0,192,106396,2,0,P|50:126|122:72,1,125,2|0,0:2|0:0,0:0:0:0:
256,192,106681,1,8,0:0:0:0:
0,192,106824,2,0,P|50:258|153:326,1,187.5,2|0,0:2|0:0,0:0:0:0:
378,317,107110,2,0,P|312:339|248:344,1,125,0|8,0:2|0:0,0:0:0:0:
256,192,107396,1,0,0:0:0:0:
512,192,107539,2,0,P|462:258|359:326,1,187.5,2|0,0:2|0:0,0:0:0:0:
256,192,107824,5,8,0:0:0:0:
134,65,107967,2,0,P|57:118|0:192,1,187.5,4|0,0:2|0:0,0:0:0:0:
112,306,108253,2,0,P|86:289|61:271,1,62.5,2|0,0:2|0:0,0:0:0:0:
35,242,108396,2,0,P|16:217|0:191,1,62.5,10|0,0:2|0:0,0:0:0:0:
178,190,108539,1,0,0:0:0:0:
206,41,108681,2,0,P|176:49|147:60,1,62.5,2|0,0:2|0:0,0:0:0:0:
114,76,108824,2,0,P|87:92|62:111,1,62.5,2|0,0:2|0:0,0:0:0:0:
34,140,108967,2,0,P|15:164|0:191,1,62.5,10|0,0:2|0:0,0:0:0:0:
332,191,109110,6,0,P|256:146|178:190,1,187.5,4|0,0:2|0:0,0:0:0:0:
256,344,109396,1,0,0:0:0:0:
332,192,109539,2,0,P|254:236|178:191,1,187.5,10|0,0:3|0:0,0:0:0:0:
512,192,109824,2,0,P|466:255|368:321,1,187.5,12|0,0:0|0:0,0:0:0:0:
256,192,110110,1,10,0:0:0:0:
135,317,110253,2,0,P|57:265|0:191,1,187.5,2|0,0:0|0:0,0:0:0:0:
45,131,110539,5,2,0:2:0:0:
104,84,110681,1,8,0:0:0:0:
256,192,110824,1,0,0:0:0:0:
172,52,110967,2,0,P|258:40|341:54,1,125,2|0,0:2|0:0,0:0:0:0:
256,192,111253,1,8,0:0:0:0:
366,62,111396,2,0,P|439:104|495:169,2,125,2|0|0,0:2|0:0|0:0,0:0:0:0:
376,316,111824,2,0,P|454:265|512:192,1,187.5,8|0,0:0|0:0,0:0:0:0:
257,343,112110,2,0,P|349:327|431:283,1,187.5,2|0,0:2|0:0,0:0:0:0:
256,192,112396,5,10,0:2:0:0:
0,191,112539,2,0,P|57:265|204:339,1,250,6|0,0:2|0:0,0:0:0:0:
134,66,112967,2,0,P|57:118|0:192,1,187.5,10|0,0:2|0:0,0:0:0:0:
146,323,113253,1,0,0:0:0:0:
256,344,113396,1,0,0:0:0:0:
54,264,113539,1,8,0:0:0:0:
146,323,113681,1,0,0:0:0:0:
376,319,113824,6,0,P|444:275|483:236,1,125,2|0,0:2|0:0,0:0:0:0:
256,192,114110,1,8,0:0:0:0:
376,65,114253,2,0,P|444:109|483:148,1,125,2|0,0:2|0:0,0:0:0:0:
256,344,114539,1,12,0:0:0:0:
256,40,114681,1,12,0:0:0:0:
256,192,114824,6,0,L|105:79,1,187.5,0|0,0:0|0:0,0:0:0:0:
10,7,115110,2,0,L|197:6,1,187.5,2|0,0:2|0:0,0:0:0:0:
256,64,115396,1,0,0:0:0:0:
502,7,115539,2,0,L|314:6,1,187.5,2|0,0:2|0:0,0:0:0:0:
256,64,115824,1,8,0:0:0:0:
256,192,115967,2,0,L|406:79,1,187.5,2|0,0:2|0:0,0:0:0:0:
501,6,116253,2,0,L|501:180,1,125,0|8,0:0|0:0,0:0:0:0:
502,377,116539,1,0,0:0:0:0:
501,131,116681,2,0,L|500:304,1,125,2|0,0:2|0:0,0:0:0:0:
256,320,116967,5,8,0:0:0:0:
256,192,117110,2,0,L|406:304,1,187.5,4|0,0:2|0:0,0:0:0:0:
502,377,117396,2,0,L|314:377,1,187.5,2|0,0:2|0:0,0:0:0:0:
256,320,117681,1,0,0:0:0:0:
10,377,117824,2,0,P|56:379|81:375,1,62.5,2|0,0:2|0:0,0:0:0:0:
105,353,117967,2,0,P|151:355|176:351,1,62.5,2|0,0:2|0:0,0:0:0:0:
193,320,118110,2,0,P|224:317|256:320,1,62.5,10|0,0:2|0:0,0:0:0:0:
10,377,118253,6,0,L|197:377,1,187.5,4|0,0:2|0:0,0:0:0:0:
256,320,118539,1,0,0:0:0:0:
256,192,118681,1,10,0:3:0:0:
256,320,118824,1,0,0:0:0:0:
10,377,118967,2,0,L|11:190,1,187.5,12|0,0:0|0:0,0:0:0:0:
10,7,119253,1,10,0:0:0:0:
197,6,119396,2,0,L|10:7,1,187.5,2|0,0:0|0:0,0:0:0:0:
181,136,119681,5,2,0:2:0:0:
104,78,119824,1,8,0:0:0:0:
256,192,119967,1,0,0:0:0:0:
355,116,120110,2,0,L|256:192,2,125,2|0|8,0:2|0:0|0:0,0:0:0:0:
197,6,120539,2,0,L|47:119,1,187.5,2|0,0:2|0:0,0:0:0:0:
181,136,120824,1,0,0:0:0:0:
356,116,120967,2,0,L|256:192,1,125,8|0,0:0|0:0,0:0:0:0:
501,6,121253,5,0,0:0:0:0:
501,100,121396,1,0,0:0:0:0:
501,192,121539,1,10,0:2:0:0:
256,192,121681,2,0,L|465:349,1,250,6|0,0:2|0:0,0:0:0:0:
473,262,122110,1,0,3:0:0:0:
460,261,122181,1,0,3:0:0:0:
447,262,122253,1,0,3:0:0:0:
434,265,122324,1,0,3:0:0:0:
434,290,122396,1,0,3:0:0:0:
421,289,122467,1,0,3:0:0:0:
408,290,122539,1,0,3:0:0:0:
395,293,122610,1,0,3:0:0:0:
395,318,122681,5,2,3:2:0:0:
382,321,122753,1,0,3:0:0:0:
369,322,122824,1,0,3:0:0:0:
356,321,122896,1,0,3:0:0:0:
313,290,122967,1,2,3:2:0:0:
183,194,123110,1,0,3:0:0:0:
158,195,123181,1,0,3:0:0:0:
135,206,123253,1,8,3:0:0:0:
321,220,123396,1,0,3:0:0:0:
296,221,123467,1,0,3:0:0:0:
273,232,123539,6,0,P|245:271|243:295,1,62.5,10|0,0:2|0:0,0:0:0:0:
127,284,123681,1,0,0:0:0:0:
97,274,123753,1,0,0:0:0:0:
69,249,123824,1,0,0:0:0:0:
57,206,123896,1,0,0:0:0:0:
73,159,123967,6,0,P|155:102|134:29,1,187.5,6|0,0:2|0:0,0:0:0:0:
129,96,124253,1,2,0:2:0:0:
153,120,124324,1,2,0:2:0:0:
182,128,124396,1,10,0:2:0:0:
206,122,124467,1,0,0:0:0:0:
219,107,124539,1,0,0:0:0:0:
235,67,124610,1,2,0:2:0:0:
257,45,124681,1,2,0:2:0:0:
281,39,124753,1,0,0:0:0:0:
300,43,124824,1,0,0:0:0:0:
333,69,124896,1,0,0:0:0:0:
360,78,124967,6,0,P|340:108|343:149,1,62.5,10|0,0:2|0:0,0:0:0:0:
411,177,125110,2,0,P|407:207|389:232,1,62.5,2|0,0:2|0:0,0:0:0:0:
500,174,125253,1,0,0:0:0:0:
497,149,125324,1,0,0:0:0:0:
467,124,125396,1,2,0:2:0:0:
438,137,125467,1,2,0:2:0:0:
429,158,125539,1,8,0:0:0:0:
417,172,125610,1,0,0:0:0:0:
411,177,125681,2,0,P|391:192|381:210,3,37.5000014305115
372,193,125967,1,0,0:0:0:0:
353,192,126039,1,0,0:0:0:0:
331,183,126110,1,8,0:0:0:0:
311,164,126181,1,0,0:0:0:0:
297,134,126253,6,0,P|356:84|439:143,1,187.5,6|0,0:2|0:0,0:0:0:0:
436,324,126539,1,0,0:0:0:0:
236,272,126681,2,0,P|309:249|342:371,1,187.5,10|0,0:2|0:0,0:0:0:0:
285,326,126967,1,0,3:0:0:0:
291,320,127110,1,0,3:0:0:0:
436,324,127253,1,8,0:0:0:0:
362,329,127396,6,0,P|397:260|507:323,1,187.5,0|0,0:2|0:0,0:0:0:0:
436,324,127681,1,0,0:0:0:0:
365,189,127824,2,0,P|286:168|227:180,1,125,10|0,0:2|0:0,0:0:0:0:
199,233,128110,1,0,3:0:0:0:
154,293,128253,1,0,3:0:0:0:
109,353,128396,1,8,0:0:0:0:
21,146,128539,6,0,P|75:200|177:147,1,187.5,6|0,0:2|0:0,0:0:0:0:
197,95,128824,1,0,0:0:0:0:
179,22,128967,1,8,0:0:0:0:
325,64,129110,1,2,0:2:0:0:
252,43,129253,1,0,0:0:0:0:
343,137,129396,1,0,0:0:0:0:
416,158,129539,1,10,0:2:0:0:
470,105,129681,1,0,0:0:0:0:
288,189,129824,1,2,0:2:0:0:
306,262,129967,1,0,0:0:0:0:
215,168,130110,1,10,0:2:0:0:
197,95,130253,1,0,0:0:0:0:
233,241,130396,1,0,0:0:0:0:
251,314,130539,1,0,0:0:0:0:
197,367,130681,1,10,0:2:0:0:
288,189,130824,6,0,P|361:164|471:193,1,187.5,6|0,0:2|0:0,0:0:0:0:
442,384,131110,1,0,0:0:0:0:
384,334,131253,1,8,0:0:0:0:
377,234,131396,1,2,0:2:0:0:
284,341,131539,1,0,0:0:0:0:
277,241,131681,1,0,0:0:0:0:
361,145,131824,1,10,0:2:0:0:
471,124,131967,5,2,0:2:0:0:
448,134,132110,2,0,P|393:78|71:128,1,437.5,0|0,0:2|0:0,0:0:0:0:
72,125,132681,2,0,P|55:153|39:189,1,62.5
41,178,132824,2,0,P|75:167|106:160,1,62.5
101,160,132967,2,0,P|84:188|68:224,1,62.5,8|0,0:0|0:0,0:0:0:0:
123,279,133110,6,0,B|101:220|10:202|-28:286|-23:354|48:443|164:454|229:413|421:278|481:113|501:-25,1,875,6|0,0:2|0:0,0:0:0:0:
512,207,134253,2,0,P|480:164|459:145,1,62.5,2|0,0:2|0:0,0:0:0:0:
473,157,134396,2,0,P|439:132|401:119,1,62.5,0|0,0:2|0:0,0:0:0:0:
420,124,134539,2,0,P|371:110|338:109,1,62.5,0|0,0:2|0:0,0:0:0:0:
195,182,134681,2,0,P|268:124|359:109,1,187.5,10|0,0:2|0:0,0:0:0:0:
187,256,134967,5,0,0:0:0:0:
255,225,135110,1,0,0:0:0:0:
195,182,135253,1,8,0:0:0:0:
239,373,135396,5,4,0:1:0:0:
179,330,135539,1,2,0:2:0:0:
105,322,135681,1,0,0:0:0:0:
37,352,135824,1,8,0:0:0:0:
105,322,135967,1,2,0:2:0:0:
195,182,136110,2,0,P|122:124|31:109,1,187.5,2|0,0:2|0:0,0:0:0:0:
187,256,136396,1,8,0:0:0:0:
198,44,136539,2,0,P|105:54|30:108,1,187.5,4|0,0:2|0:0,0:0:0:0:
30,109,136824,6,0,P|122:124|194:182,1,187.5,2|0,0:2|0:0,0:0:0:0:
187,256,137110,1,0,0:0:0:0:
298,380,137253,1,8,3:0:0:0:
289,378,137324,1,0,3:0:0:0:
259,343,137396,1,8,3:0:0:0:
250,345,137467,1,0,3:0:0:0:
207,325,137539,1,8,0:3:0:0:
138,360,137681,1,4,0:2:0:0:
187,256,137824,5,0,0:2:0:0:
253,221,137967,1,0,0:0:0:0:
340,225,138110,1,12,0:0:0:0:
482,321,138253,2,0,P|426:315|336:208,1,187.5,2|0,0:2|0:0,0:0:0:0:
249,111,138539,5,0,0:2:0:0:
348,113,138681,1,2,0:2:0:0:
491,210,138824,2,0,P|435:204|345:97,1,187.5,2|0,0:2|0:0,0:0:0:0:
244,0,139110,5,0,0:0:0:0:
356,3,139253,1,2,0:2:0:0:
499,100,139396,5,2,0:2:0:0:
348,113,139539,1,8,0:0:0:0:
260,121,139681,1,0,0:0:0:0:
172,129,139824,1,8,0:3:0:0:
260,121,139967,1,0,0:0:0:0:
51,142,140110,5,10,0:2:0:0:
71,129,140181,1,0,0:0:0:0:
51,116,140253,1,2,0:2:0:0:
71,129,140324,1,0,0:0:0:0:
73,104,140396,1,0,0:0:0:0:
71,129,140467,1,0,0:0:0:0:
88,177,140539,5,10,0:2:0:0:
120,159,140610,1,0,0:0:0:0:
118,198,140681,1,2,0:2:0:0:
120,159,140753,1,0,0:0:0:0:
152,181,140824,1,2,0:2:0:0:
120,159,140896,1,0,0:0:0:0:
141,116,140967,5,10,0:2:0:0:
184,139,141039,1,2,0:2:0:0:
185,90,141110,1,2,0:2:0:0:
184,139,141181,1,2,0:2:0:0:
226,114,141253,2,0,L|281:157,1,62.5,2|0,0:2|0:0,0:0:0:0:
387,67,141396,6,0,L|395:136,1,62.5,12|0,0:0|0:0,0:0:0:0:
438,276,141539,1,14,0:2:0:0:
436,272,141610,1,2,0:2:0:0:
434,268,141681,1,2,0:2:0:0:
432,264,141753,1,2,0:2:0:0:
503,219,141824,6,0,P|476:354|358:243,1,312.5,12|0,0:0|0:0,0:0:0:0:
438,276,142253,1,8,0:0:0:0:
273,317,142396,1,14,0:2:0:0:
172,302,142539,2,0,L|26:280,2,100,0|0|0,0:0|0:2|0:0,0:0:0:0:
273,317,142967,1,0,0:0:0:0:
222,309,143110,1,0,0:0:0:0:
172,302,143396,1,0,0:0:0:0:
121,294,143681,1,0,0:0:0:0:
70,286,143967,1,0,0:0:0:0:
147,191,144110,1,0,0:0:0:0:
70,128,144253,1,0,0:0:0:0:
19,278,144396,1,12,0:2:0:0:
70,286,144539,1,0,0:2:0:0:
70,128,144681,5,12,0:2:0:0:
121,136,144824,1,0,0:0:0:0:
172,144,145110,1,0,0:0:0:0:
223,152,145253,1,0,0:0:0:0:
274,160,145396,1,0,0:0:0:0:
325,168,145681,1,0,0:0:0:0:
376,176,145967,1,0,0:0:0:0:
362,98,146110,5,2,0:3:0:0:
411,11,146253,1,2,0:1:0:0:
325,168,146396,1,2,0:1:0:0:
376,176,146539,5,0,0:3:0:0:
362,98,146681,1,8,0:3:0:0:
325,168,146824,1,0,0:0:0:0:
290,333,146967,1,12,0:0:0:0:
341,341,147253,5,0,0:0:0:0:
274,160,147396,1,8,0:0:0:0:
210,241,147539,1,0,0:0:0:0:
172,144,147681,1,0,0:0:0:0:
376,176,147824,1,12,0:0:0:0:
440,95,147967,1,0,0:0:0:0:
478,192,148110,1,0,0:0:0:0:
274,160,148253,5,12,0:0:0:0:
144,320,148396,1,12,3:1:0:0:
140,310,148467,1,0,3:0:0:0:
136,300,148539,1,0,3:0:0:0:
132,290,148610,1,0,3:0:0:0:
81,282,148681,1,12,0:0:0:0:
274,160,148824,1,0,3:0:0:0:
267,168,148896,1,0,3:0:0:0:
318,176,148967,5,12,0:0:0:0:
216,160,149110,1,0,0:0:0:0:
440,95,149253,1,12,0:0:0:0:
338,79,149396,1,0,0:0:0:0:
458,270,149539,1,12,0:0:0:0:
356,254,149681,1,0,0:0:0:0:
509,169,149824,5,0,3:0:0:0:
495,163,149896,1,0,3:0:0:0:
479,160,149967,1,0,3:0:0:0:
463,161,150039,1,0,3:0:0:0:
448,166,150110,1,0,3:0:0:0:
435,175,150181,1,0,3:0:0:0:
425,187,150253,1,0,3:0:0:0:
418,201,150324,1,0,3:0:0:0:
414,217,150396,1,8,3:1:0:0:
255,375,150539,6,0,P|277:312|240:214,1,150,12|0,0:0|0:0,0:0:0:0:
455,354,150824,2,0,P|426:293|330:250,1,150,12|0,0:0|0:0,0:0:0:0:
155,354,151110,2,0,P|90:318|59:197,1,187.5,12|0,0:0|0:0,0:0:0:0:
145,4,151396,6,0,P|208:57|251:168,1,187.5,4|0,0:0|0:0,0:0:0:0:
244,235,151681,1,2,0:2:0:0:
211,304,151824,1,8,0:0:0:0:
155,354,151967,1,0,0:0:0:0:
82,151,152110,2,0,P|145:204|176:263,1,125,2|0,0:2|0:0,0:0:0:0:
155,354,152396,1,8,0:0:0:0:
244,235,152539,2,0,P|307:288|350:399,1,187.5,2|0,0:2|0:0,0:0:0:0:
70,265,152824,2,0,P|133:318|164:377,1,125,0|8,0:0|0:0,0:0:0:0:
244,235,153110,1,0,0:0:0:0:
175,25,153253,1,2,0:2:0:0:
224,82,153396,1,0,0:0:0:0:
244,235,153539,1,8,0:0:0:0:
488,99,153681,6,0,P|425:152|382:263,1,187.5,4|0,2:0|0:0,0:0:0:0:
406,364,153967,2,0,P|413:333|427:299,1,62.5,2|0,0:2|0:0,0:0:0:0:
454,264,154110,2,0,P|488:232|512:216,1,62.5,10|0,0:2|0:0,0:0:0:0:
492,325,154253,1,0,0:0:0:0:
288,275,154396,2,0,P|295:244|309:210,1,62.5,2|0,0:2|0:0,0:0:0:0:
335,173,154539,2,0,P|369:141|393:125,1,62.5,2|0,0:2|0:0,0:0:0:0:
426,108,154681,2,0,P|456:101|488:99,1,62.5,10|0,0:2|0:0,0:0:0:0:
226,219,154824,6,0,P|191:132|121:71,1,187.5,4|0,2:0|0:0,0:0:0:0:
33,52,155110,1,0,0:0:0:0:
330,71,155253,2,0,P|267:124|224:235,1,187.5,10|0,0:3|0:0,0:0:0:0:
487,99,155539,2,0,P|416:160|381:246,1,187.5,12|0,0:0|0:0,0:0:0:0:
394,321,155824,1,10,0:0:0:0:
240,362,155967,1,2,0:0:0:0:
39,309,156253,5,2,0:2:0:0:
98,356,156396,1,8,0:0:0:0:
39,309,156539,1,0,0:0:0:0:
54,172,156681,2,0,P|90:222|109:281,2,125,2|0|8,0:2|0:0|0:0,0:0:0:0:
103,43,157110,2,0,P|166:96|209:207,1,187.5,2|0,0:2|0:0,0:0:0:0:
109,281,157396,1,0,0:0:0:0:
285,214,157539,2,0,P|348:267|391:378,1,187.5,8|0,0:0|0:0,0:0:0:0:
496,165,157824,1,2,0:2:0:0:
438,212,157967,1,0,0:0:0:0:
400,277,158110,1,10,0:2:0:0:
389,66,158253,6,0,P|326:119|283:230,1,187.5,6|0,0:2|0:0,0:0:0:0:
400,277,158539,1,0,0:0:0:0:
207,237,158681,2,0,P|144:290|101:401,1,187.5,8|0,0:0|0:0,0:0:0:0:
111,170,158967,2,0,P|48:223|5:334,1,187.5,2|0,0:2|0:0,0:0:0:0:
207,237,159253,1,8,0:0:0:0:
217,120,159396,1,0,0:0:0:0:
389,66,159539,5,2,0:2:0:0:
379,183,159681,1,0,0:0:0:0:
496,193,159824,1,10,0:1:0:0:
506,76,159967,2,0,P|443:129|400:240,1,187.5,2|0,0:2|0:0,0:0:0:0:
236,298,160253,1,12,0:0:0:0:
216,119,160396,1,12,0:0:0:0:
38,146,160539,6,0,P|118:112|220:121,1,187.5,0|0,0:0|0:0,0:0:0:0:
411,16,160824,2,0,P|318:7|232:42,1,187.5,2|0,0:2|0:0,0:0:0:0:
216,119,161110,1,0,0:0:0:0:
396,157,161253,2,0,P|356:121|279:92,1,125,2|0,0:2|0:0,0:0:0:0:
216,119,161539,1,8,0:0:0:0:
287,349,161681,2,0,P|303:257|273:170,1,187.5,0|0,0:0|0:0,0:0:0:0:
38,146,161967,2,0,P|118:112|220:121,1,187.5,2|0,0:2|0:0,0:0:0:0:
272,169,162253,1,0,0:0:0:0:
122,305,162396,1,2,0:2:0:0:
171,248,162539,1,0,0:0:0:0:
120,381,162681,5,8,0:0:0:0:
287,349,162824,2,0,P|378:333|452:277,1,187.5,4|0,0:2|0:0,0:0:0:0:
487,63,163110,1,2,0:2:0:0:
504,138,163253,1,8,0:0:0:0:
490,210,163396,1,0,0:0:0:0:
319,21,163539,2,0,P|355:51|370:72,1,62.5,2|0,0:2|0:0,0:0:0:0:
386,106,163681,2,0,P|397:142|401:182,1,62.5,2|0,0:2|0:0,0:0:0:0:
394,213,163824,2,0,P|387:243|373:271,1,62.5,10|0,0:2|0:0,0:0:0:0:
176,82,163967,6,0,P|262:114|324:183,1,187.5,4|0,0:2|0:0,0:0:0:0:
373,272,164253,1,0,0:0:0:0:
212,186,164396,1,10,0:3:0:0:
139,201,164539,1,0,0:0:0:0:
246,21,164681,2,0,P|304:92|324:183,1,187.5,12|0,0:0|0:0,0:0:0:0:
212,186,164967,1,10,0:0:0:0:
373,272,165110,2,0,P|312:342|226:377,1,187.5,2|0,0:0|0:0,0:0:0:0:
32,281,165396,5,2,0:2:0:0:
151,365,165539,1,8,0:0:0:0:
83,334,165681,1,0,0:0:0:0:
129,108,165824,2,0,P|114:199|142:288,1,187.5,2|0,0:2|0:0,0:0:0:0:
225,377,166110,1,8,0:0:0:0:
330,122,166253,2,0,P|254:176|211:258,1,187.5,2|0,0:2|0:0,0:0:0:0:
225,377,166539,1,0,0:0:0:0:
291,247,166681,6,0,P|379:219|471:233,1,187.5,8|0,0:0|0:0,0:0:0:0:
259,312,166967,1,2,0:2:0:0:
239,197,167110,1,0,0:0:0:0:
313,362,167253,1,8,0:0:0:0:
471,233,167396,6,0,P|411:160|328:121,1,187.5,6|0,0:2|0:0,0:0:0:0:
239,197,167681,1,0,3:0:0:0:
247,187,167753,1,0,3:0:0:0:
224,179,167824,1,0,3:0:0:0:
217,168,167896,1,0,3:0:0:0:
212,156,167967,1,0,3:0:0:0:
209,143,168039,1,0,3:0:0:0:
236,145,168110,1,0,3:0:0:0:
243,134,168181,1,0,3:0:0:0:
248,122,168253,1,0,3:0:0:0:
251,109,168324,1,0,3:0:0:0:
299,99,168396,6,0,P|283:67|285:37,3,62.5,2|0|0|0,3:2|3:0|3:0|3:0,3:0:0:0:
334,208,168681,1,10,3:2:0:0:
444,124,168824,1,0,3:0:0:0:
432,146,168896,1,0,3:0:0:0:
421,168,168967,1,8,3:0:0:0:
477,361,169110,1,0,3:0:0:0:
466,339,169181,1,0,3:0:0:0:
454,317,169253,5,10,2:2:0:0:
409,293,169396,1,0,2:0:0:0:
342,258,169539,1,0,2:0:0:0:
224,373,169681,6,0,P|100:381|-8:303,1,250,4|0,0:2|0:0,0:0:0:0:
0,73,170110,2,10,P|93:8|126:2,1,125,10|10,0:2|0:2,0:2:0:0:
72,288,170396,1,0,0:0:0:0:
0,313,170539,1,0,0:0:0:0:
0,192,170681,1,8,0:0:0:0:
72,288,170824,1,0,0:0:0:0:
0,192,170967,1,2,0:2:0:0:
0,73,171110,6,0,P|102:4|176:0,1,187.5
251,95,171396,2,0,P|192:99|122:134,2,125,2|8|0,0:2|0:0|0:0,0:0:0:0:
214,179,171824,1,0,0:0:0:0:
288,11,171967,2,0,P|412:3|520:81,1,250,6|0,0:2|0:0,0:0:0:0:
511,191,172396,6,0,P|454:166|409:124,1,125,10|0,0:2|0:0,0:0:0:0:
214,179,172681,1,2,0:2:0:0:
251,95,172824,1,0,0:0:0:0:
288,11,172967,1,8,0:0:0:0:
306,168,173110,5,0,0:0:0:0:
510,190,173253,2,0,P|464:148|408:123,1,125,2|0,0:2|0:0,0:0:0:0:
177,263,173539,2,0,P|222:305|356:334,1,187.5,8|0,0:0|0:0,0:0:0:0:
214,179,173824,1,2,0:2:0:0:
177,263,173967,1,0,0:0:0:0:
160,105,174110,1,2,0:2:0:0:
14,297,174253,2,0,P|76:294|219:157,1,250,6|0,0:2|0:0,0:0:0:0:
420,241,174681,6,0,P|373:282|341:335,1,125,10|0,0:2|0:0,0:0:0:0:
491,269,174967,1,0,0:0:0:0:
480,194,175110,1,0,0:0:0:0:
469,119,175253,1,8,0:0:0:0:
420,241,175396,5,0,0:0:0:0:
458,44,175539,1,2,0:2:0:0:
469,119,175681,1,0,0:0:0:0:
480,194,175824,1,8,0:0:0:0:
398,90,175967,2,0,P|339:71|209:89,1,187.5,2|0,0:2|0:0,0:0:0:0:
81,112,176253,1,0,0:0:0:0:
155,125,176396,1,8,0:0:0:0:
398,90,176539,6,0,P|335:91|219:152,1,187.5,6|0,0:2|0:0,0:0:0:0:
149,127,176824,1,0,0:0:0:0:
182,207,176967,1,2,0:2:0:0:
398,90,177110,2,0,P|339:112|251:209,1,187.5,2|0,0:2|0:0,0:0:0:0:
169,201,177396,1,0,0:0:0:0:
235,274,177539,1,0,0:0:0:0:
398,90,177681,2,0,P|351:131|301:252,1,187.5,10|0,0:2|0:0,0:0:0:0:
210,268,177967,1,0,0:0:0:0:
307,318,178110,1,2,0:2:0:0:
398,90,178253,2,0,P|368:144|363:275,1,187.5,14|0,0:2|0:0,0:0:0:0:
267,321,178539,5,0,0:0:0:0:
391,336,178681,1,0,0:0:0:0:
255,202,178824,2,0,P|314:130|398:90,1,187.5,14|0,0:2|0:0,0:0:0:0:
478,93,179110,1,0,0:0:0:0:
221,92,179253,6,0,P|130:68|59:9,1,187.5,10|0,0:2|0:0,0:0:0:0:
78,155,179539,1,0,0:0:0:0:
43,224,179681,1,0,0:0:0:0:
8,293,179824,1,8,0:0:0:0:
121,220,179967,5,0,0:0:0:0:
35,90,180110,1,2,0:2:0:0:
78,155,180253,1,0,0:0:0:0:
121,220,180396,1,8,0:0:0:0:
221,92,180539,2,0,P|311:115|357:148,1,125,2|0,0:2|0:0,0:0:0:0:
409,230,180824,5,0,0:0:0:0:
334,255,180967,1,8,0:0:0:0:
220,92,181110,2,0,P|281:102|416:251,1,250,6|0,0:2|0:0,0:0:0:0:
182,337,181539,1,8,0:0:0:0:
455,128,181824,5,2,0:2:0:0:
383,76,181967,1,0,0:0:0:0:
313,24,182110,1,8,0:0:0:0:
59,9,182253,2,0,P|130:68|221:92,1,187.5,6|0,0:2|0:0,0:0:0:0:
313,24,182539,1,0,0:0:0:0:
455,128,182681,1,8,3:0:0:0:
383,76,182824,1,0,3:0:0:0:
373,217,182967,5,2,3:2:0:0:
373,204,183039,1,0,3:0:0:0:
373,191,183110,1,0,3:0:0:0:
373,178,183181,1,0,3:0:0:0:
374,165,183253,1,8,3:0:0:0:
454,255,183396,2,0,P|410:236|268:283,1,187.5,6|0,0:2|0:0,0:0:0:0:
221,335,183681,1,0,0:0:0:0:
215,346,183753,1,0,0:0:0:0:
264,354,183824,5,12,0:0:0:0:
335,331,183967,1,0,0:0:0:0:
384,275,184110,1,2,0:2:0:0:
399,202,184253,1,0,0:0:0:0:
376,131,184396,1,0,0:0:0:0:
320,81,184539,1,0,0:0:0:0:
176,88,184681,5,2,0:2:0:0:
247,65,184824,1,0,0:0:0:0:
126,143,184967,1,0,0:0:0:0:
176,88,185110,1,0,0:0:0:0:
110,215,185253,1,10,0:2:0:0:
133,286,185396,1,8,0:3:0:0:
264,354,185539,1,12,0:0:0:0:
252,201,185681,5,0,3:0:0:0:
255,204,185753,1,0,3:0:0:0:
258,207,185824,2,0,P|309:142|421:141,1,187.5,2|0,0:2|0:0,0:0:0:0:
488,241,186110,1,0,3:0:0:0:
481,230,186181,1,0,3:0:0:0:
478,217,186253,1,2,3:2:0:0:
377,323,186396,1,0,3:0:0:0:
384,312,186467,1,0,3:0:0:0:
387,299,186539,1,2,3:2:0:0:
302,146,186681,1,2,3:2:0:0:
285,137,186753,1,0,3:0:0:0:
266,133,186824,1,0,3:0:0:0:
247,133,186896,1,0,3:0:0:0:
229,138,186967,1,0,3:0:0:0:
213,147,187039,1,0,3:0:0:0:
258,182,187110,5,4,0:0:0:0:
257,0,187253,1,4,0:0:0:0:
197,156,187396,1,0,3:0:0:0:
179,161,187467,1,0,3:0:0:0:
160,161,187539,1,10,3:2:0:0:
0,66,187681,1,10,0:2:0:0:
105,78,187967,6,0,P|66:160|106:241,1,187.5,4|0,0:0|0:0,0:0:0:0:
181,240,188253,1,0,0:0:0:0:
216,305,188396,1,8,0:0:0:0:
290,303,188539,1,0,0:0:0:0:
325,368,188681,1,0,0:0:0:0:
399,366,188824,1,0,0:0:0:0:
431,297,188967,1,8,0:0:0:0:
386,235,189110,1,0,0:0:0:0:
245,185,189253,5,2,0:2:0:0:
295,45,189396,1,0,0:0:0:0:
435,94,189539,1,8,0:0:0:0:
386,235,189681,2,0,P|412:164|537:118,1,187.5,2|0,0:2|0:0,0:0:0:0:
431,297,189967,1,0,0:0:0:0:
435,94,190110,5,10,0:2:0:0:
245,185,190253,2,0,P|173:167|113:46,1,187.5,4|0,0:2|0:0,0:0:0:0:
35,36,190539,1,0,0:0:0:0:
40,122,190681,1,8,0:0:0:0:
45,208,190824,1,0,0:0:0:0:
50,294,190967,1,0,0:0:0:0:
136,289,191110,1,0,0:0:0:0:
308,279,191253,2,0,P|375:303|413:350,1,125,10|4,0:2|0:2,0:0:0:0:
222,284,191539,1,2,0:2:0:0:
257,190,191681,1,0,0:0:0:0:
450,190,191824,1,10,0:2:0:0:
485,96,191967,1,0,0:0:0:0:
292,96,192110,1,12,0:0:0:0:
257,190,192253,1,0,0:0:0:0:
308,279,192396,1,2,0:1:0:0:
396,49,192539,6,0,P|285:0|177:55,1,250,4|0,0:2|0:0,0:0:0:0:
168,262,192967,2,0,P|184:202|173:141,1,125,8|0,0:0|0:0,0:0:0:0:
0,30,193253,2,0,P|43:74|101:95,2,125,0|0|8,0:0|0:0|0:0,0:0:0:0:
177,55,193681,1,0,0:0:0:0:
173,141,193824,1,2,0:2:0:0:
59,234,193967,1,0,0:0:0:0:
60,197,194110,1,8,0:0:0:0:
231,272,194253,2,0,P|144:302|57:271,1,187.5,2|0,0:2|0:0,0:0:0:0:
12,328,194539,1,0,0:0:0:0:
60,197,194681,5,10,0:2:0:0:
231,272,194824,2,0,P|272:222|263:92,1,187.5,4|0,0:2|0:0,0:0:0:0:
206,44,195110,1,0,0:0:0:0:
358,92,195253,1,8,0:3:0:0:
441,119,195396,1,0,0:0:0:0:
387,285,195539,1,10,0:2:0:0:
354,374,195681,1,0,3:0:0:0:
357,371,195753,1,0,3:0:0:0:
360,368,195824,1,10,3:2:0:0:
387,285,195967,1,0,0:0:0:0:
282,87,196110,5,2,3:2:0:0:
286,111,196181,1,0,3:0:0:0:
295,133,196253,1,0,3:0:0:0:
312,150,196324,1,0,3:0:0:0:
357,149,196396,2,0,P|404:145|437:153,1,62.5,8|0,0:0|3:0,0:0:0:0:
302,304,196539,1,0,3:0:0:0:
285,287,196610,1,0,3:0:0:0:
240,288,196681,2,0,P|193:292|160:284,1,62.5,2|0,0:2|3:0,0:0:0:0:
113,255,196824,2,0,P|85:220|71:186,1,62.5,2|0,0:2|3:0,0:0:0:0:
72,129,196967,2,0,P|92:82|108:66,1,62.5,2|0,0:2|3:0,0:0:0:0:
246,194,197110,6,0,P|195:213|238:112,1,250,10|0,0:2|0:0,0:0:0:0:
427,173,197539,2,0,P|374:141|313:131,1,125,2|0,0:2|0:0,0:0:0:0:
264,375,197824,1,0,0:0:0:0:
267,284,197967,1,0,0:0:0:0:
333,221,198110,1,0,0:0:0:0:
180,258,198253,6,0,P|170:311|104:223,1,250,12|0,0:2|0:0,0:0:0:0:
252,90,198681,2,0,P|197:120|158:168,1,125,2|0,0:2|0:0,0:0:0:0:
244,195,198967,1,8,3:0:0:0:
241,213,199039,1,0,3:0:0:0:
283,242,199110,1,8,3:0:0:0:
293,256,199181,1,0,3:0:0:0:
343,247,199253,1,8,3:0:0:0:
323,34,199396,6,0,P|275:17|67:34,1,250,14|0,0:2|0:0,0:0:0:0:
6,187,199824,1,2,0:2:0:0:
74,345,199967,1,0,3:0:0:0:
71,348,200039,1,0,3:0:0:0:
68,351,200110,1,10,3:2:0:0:
6,187,200253,1,2,0:2:0:0:
170,125,200396,1,2,0:2:0:0:
232,289,200539,6,0,P|214:200|300:306,1,375,14|0,0:2|0:0,0:0:0:0:
