osu file format v14

[General]
AudioFilename: dif.mp3
AudioLeadIn: 0
PreviewTime: 61654
Countdown: 1
SampleSet: Soft
StackLeniency: 0.7
Mode: 0
LetterboxInBreaks: 0
WidescreenStoryboard: 1

[Editor]
Bookmarks: 62543
DistanceSpacing: 1.1
BeatDivisor: 2
GridSize: 4
TimelineZoom: 1

[Metadata]
Title:Full Swing
TitleUnicode:フルスイング
Artist:Minori Kushieda(CV: Horie Yui)
ArtistUnicode:櫛枝 実乃梨 (CV: 堀江 由衣)
Creator:_Ensi_
Version:Normal
Source:とらドラ!
Tags:m3gB3g character song toradora cut short
BeatmapID:1200279
BeatmapSetID:566071

[Difficulty]
HPDrainRate:2.5
CircleSize:3.5
OverallDifficulty:4
ApproachRate:5
SliderMultiplier:1.1
SliderTickRate:1

[Events]
//Background and Video events
0,0,"toradora-anime-girls-anime-kushieda-minori.jpg",0,0
//Break Periods
//Storyboard Layer 0 (Background)
//Storyboard Layer 1 (Fail)
//Storyboard Layer 2 (Pass)
//Storyboard Layer 3 (Foreground)
//Storyboard Sound Samples

[TimingPoints]
1190,444.444444444444,4,2,1,60,1,0
11634,-100,4,2,1,60,0,0
26078,-100,4,2,1,60,0,0
32967,-100,4,2,1,60,0,0
40301,-100,4,2,1,60,0,0
47412,-100,4,2,1,60,0,0
61634,-100,4,2,1,60,0,1
68078,-100,4,2,1,60,0,1
68523,-100,4,2,1,60,0,0
68745,-100,4,2,1,60,0,1
75856,-100,4,2,1,60,0,0

[Colours]
Combo1 : 128,64,64
Combo2 : 255,128,128
Combo3 : 192,192,192
Combo4 : 255,128,64

[HitObjects]
96,96,1190,6,0,L|96:160,1,55
96,260,1856,2,0,L|154:302,1,55
244,328,2523,2,0,L|308:328,1,55
404,292,3190,2,0,L|448:240,1,55
512,164,3856,1,0,0:0:0:0:
440,80,4301,1,0,0:0:0:0:
332,64,4745,6,0,L|254:66,2,55
408,144,5634,1,0,0:0:0:0:
300,152,6078,1,0,0:0:0:0:
220,112,6523,6,0,L|110:189,2,110
308,52,7856,1,0,0:0:0:0:
300,159,8301,6,0,P|302:132|312:107,2,55
291,267,9190,2,0,P|317:277|344:282,2,55
196,204,10078,6,0,P|177:149|125:101,1,110
68,32,10967,1,0,0:0:0:0:
176,28,11412,1,0,0:0:0:0:
284,40,11856,6,0,L|348:136,1,110
388,232,12745,2,0,P|374:277|309:316,1,110
216,304,13634,6,0,P|152:280|109:246,1,110
104,148,14523,2,0,P|64:100|36:36,1,110
152,68,15412,6,0,P|192:36|262:14,1,110
356,24,16301,1,0,0:0:0:0:
416,116,16745,1,0,0:0:0:0:
404,224,17190,6,0,P|383:279|338:327,1,110
244,340,18078,2,0,L|128:284,1,110
68,232,18967,5,0,0:0:0:0:
124,136,19412,1,0,0:0:0:0:
228,100,19856,2,0,P|289:95|338:111,1,110
272,200,20745,6,0,L|280:323,1,110
180,356,21634,2,0,L|132:256,1,110
116,156,22523,6,0,L|200:84,1,110
300,40,23412,1,0,0:0:0:0:
288,148,23856,1,0,0:0:0:0:
388,188,24301,6,0,L|360:252,1,55
344,288,24745,1,0,0:0:0:0:
236,312,25190,1,0,0:0:0:0:
152,244,25634,1,0,0:0:0:0:
120,140,26078,6,0,L|121:85,1,55
192,88,26523,2,0,L|192:148,1,55
264,148,26967,2,0,L|264:84,1,55
336,92,27412,2,0,L|336:148,1,55
328,216,27856,5,0,0:0:0:0:
280,244,28078,1,0,0:0:0:0:
228,260,28301,2,0,P|172:260|120:228,1,110
88,188,28967,1,0,0:0:0:0:
120,136,29189,2,0,P|148:112|176:92,1,55
204,80,29634,6,0,P|252:68|320:84,1,110
360,104,30301,1,0,0:0:0:0:
396,144,30523,2,0,L|428:228,1,55
396,248,30967,2,0,L|352:316,1,55
316,316,31412,6,0,B|244:312|200:352,1,110
104,356,32301,2,0,B|36:332|12:280,1,110
48,172,33190,6,0,P|56:108|96:72,1,110
192,44,34078,2,0,P|260:40|323:63,1,110
396,80,34967,6,0,P|408:120|394:153,1,55
388,184,35412,1,0,0:0:0:0:
360,232,35634,1,0,0:0:0:0:
328,276,35856,2,0,L|271:326,1,55
240,344,36301,1,0,0:0:0:0:
184,348,36523,1,0,0:0:0:0:
76,324,36967,6,0,L|76:256,1,55
24,172,37634,2,0,L|76:136,1,55
56,32,38301,2,0,L|168:50,1,110
220,60,38967,1,0,0:0:0:0:
276,64,39189,1,0,0:0:0:0:
332,72,39412,1,0,0:0:0:0:
440,60,39856,1,0,0:0:0:0:
460,164,40301,6,0,B|486:313|384:360,1,220
304,344,41634,1,0,0:0:0:0:
188,308,42078,2,0,B|73:261|58:201|58:201|93:130|242:131,1,330
268,228,43856,2,0,B|368:268|368:268|490:200,1,220
480,92,45190,1,0,0:0:0:0:
376,156,45634,5,0,0:0:0:0:
260,120,46078,1,0,0:0:0:0:
224,236,46523,1,0,0:0:0:0:
340,272,46967,1,0,0:0:0:0:
256,360,47412,6,0,P|219:319|215:265,1,110
108,212,48301,2,0,P|144:172|212:164,1,110
320,160,49190,5,0,0:0:0:0:
384,56,49634,1,0,0:0:0:0:
472,140,50078,1,0,0:0:0:0:
472,140,50301,2,0,L|432:188,1,55
400,228,50745,1,0,0:0:0:0:
360,272,50967,6,0,B|292:268|236:308,1,110
152,360,51856,2,0,B|72:341|48:276,1,110
168,248,52745,6,0,B|155:189|211:153,1,110
260,120,53412,1,0,0:0:0:0:
332,216,53856,1,0,0:0:0:0:
372,260,54078,1,0,0:0:0:0:
432,272,54301,1,0,0:0:0:0:
484,244,54523,6,0,B|536:206|510:141,1,110
392,172,55412,2,0,P|337:172|291:144,1,110
180,196,56301,6,0,L|244:224,1,55
284,248,56745,1,0,0:0:0:0:
340,276,56967,1,0,0:0:0:0:
444,340,57412,2,0,L|332:360,1,110
216,336,58301,2,0,L|156:240,1,110
60,172,59189,2,0,L|131:88,1,110
172,44,59856,5,0,0:0:0:0:
244,140,60301,1,0,0:0:0:0:
188,248,60745,1,0,0:0:0:0:
80,304,61190,1,0,0:0:0:0:
20,200,61634,6,0,P|72:180|126:174,1,110
208,88,62523,6,0,P|260:104|307:133,1,110
408,200,63412,6,0,P|343:254|277:275,1,110
264,284,64078,1,0,0:0:0:0:
144,264,64523,1,0,0:0:0:0:
144,264,64745,2,0,L|76:320,1,55
52,332,65190,6,0,P|40:254|56:189,1,110
72,108,66078,2,0,P|114:165|189:184,1,110
252,244,66967,6,0,P|293:177|297:113,1,110
296,88,67634,1,0,0:0:0:0:
192,24,68078,1,0,0:0:0:0:
192,24,68301,2,0,L|129:8,1,55
80,28,68745,6,0,P|107:94|168:145,1,110
236,184,69634,2,0,P|294:236|302:311,1,110
376,364,70523,6,0,P|432:300|434:234,1,110
444,216,71190,1,0,0:0:0:0:
368,132,71634,1,0,0:0:0:0:
368,132,71856,2,0,L|288:124,1,55
204,124,72523,5,0,0:0:0:0:
204,124,72745,2,0,L|134:188,1,55
248,228,73412,1,0,0:0:0:0:
248,228,73634,2,0,L|155:231,1,55
140,232,74078,5,0,0:0:0:0:
88,136,74523,1,0,0:0:0:0:
172,68,74967,1,0,0:0:0:0:
232,160,75412,1,0,0:0:0:0:
232,160,75856,5,0,0:0:0:0:
