osu file format v14

[General]
AudioFilename: audio.mp3
AudioLeadIn: 0
PreviewTime: 66689
Countdown: 0
SampleSet: Soft
StackLeniency: 0.7
Mode: 0
LetterboxInBreaks: 0
WidescreenStoryboard: 0

[Editor]
DistanceSpacing: 1.5
BeatDivisor: 4
GridSize: 4
TimelineZoom: 1

[Metadata]
Title:Michishirube
TitleUnicode:みちしるべ
Artist:Minori Chihara
ArtistUnicode:茅原実里
Creator:Kibbleru
Version:Doormat's Normal
Source:ヴァイオレット・エヴァーガーデン
Tags:violet evergarden ending ed tv size doormat
BeatmapID:1537532
BeatmapSetID:725514

[Difficulty]
HPDrainRate:3
CircleSize:3.5
OverallDifficulty:3
ApproachRate:4
SliderMultiplier:1.1
SliderTickRate:1

[Events]
//Background and Video events
Video,0,"ending.avi"
0,0,"PV1_16.jpg",0,0
//Break Periods
//Storyboard Layer 0 (Background)
//Storyboard Layer 1 (Fail)
//Storyboard Layer 2 (Pass)
//Storyboard Layer 3 (Foreground)
//Storyboard Sound Samples

[TimingPoints]
569,689.655172413793,4,2,1,20,1,0
569,-111.111111111111,4,2,1,20,0,0
11603,-100,4,2,1,20,0,0
22637,-111.111111111111,4,2,1,20,0,0
33672,-100,4,2,1,20,0,0
41948,-111.111111111111,4,2,1,20,0,0
44706,-100,4,2,1,20,0,0
59879,-111.111111111111,4,2,1,20,0,0
66775,-100,4,2,1,20,0,0

[Colours]
Combo1 : 255,162,85
Combo2 : 72,150,255
Combo3 : 197,201,218

[HitObjects]
112,176,569,6,0,L|224:160,1,98.9999969787599,0|0,0:0|0:0,0:0:0:0:
284,120,1603,1,0,0:0:0:0:
325,193,1948,2,0,L|309:305,1,98.9999969787599,0|0,0:0|0:0,0:0:0:0:
244,344,2982,1,0,0:0:0:0:
191,277,3327,2,0,B|124:176|192:88|192:88|252:84|288:136,1,296.99999093628,0|0,0:0|0:0,0:0:0:0:
400,232,6086,6,0,L|392:344,1,98.9999969787599,0|0,0:0|0:0,0:0:0:0:
228,356,7465,2,0,L|216:204,1,148.49999546814,0|0,0:0|0:0,0:0:0:0:
236,124,8844,2,0,B|332:176|396:88|396:88|372:152|403:214,1,296.99999093628,0|0,0:3|0:3,0:0:0:0:
308,340,11603,6,0,P|196:316|176:312,1,110,2|2,0:0|0:0,0:0:0:0:
124,348,12637,1,2,0:0:0:0:
68,288,12982,2,0,P|60:240|104:184,1,110,0|2,0:0|0:0,0:0:0:0:
168,160,14017,1,0,0:0:0:0:
240,200,14362,6,0,L|246:254,1,55,0|2,0:0|0:0,0:0:0:0:
328,232,15051,2,0,L|334:177,1,55,2|0,0:0|0:0,0:0:0:0:
304,100,15741,2,0,P|253:117|203:97,1,110,2|0,0:0|0:0,0:0:0:0:
152,32,16775,1,0,0:0:0:0:
88,84,17120,6,0,P|96:120|108:200,1,110,2|0,0:0|0:0,0:0:0:0:
92,272,18155,1,2,0:0:0:0:
171,287,18500,2,0,P|207:279|287:267,1,110,2|2,0:0|0:0,0:0:0:0:
356,300,19534,1,0,0:0:0:0:
404,232,19879,6,0,P|412:200|384:132,2,110,2|0|2,0:0|0:0|0:0,0:0:0:0:
296,356,21948,1,2,0:0:0:0:
180,232,22637,6,0,B|236:208|236:208|308:244|308:244|360:216,1,197.99999395752,2|2,0:0|0:0,0:0:0:0:
64,52,25396,2,0,P|100:138|39:209,1,197.99999395752,2|2,0:0|0:0,0:0:0:0:
376,200,28155,2,0,B|326:150|262:160|262:160|241:199|262:241,1,197.99999395752,2|2,0:0|0:0,0:0:0:0:
512,16,30913,1,2,0:0:0:0:
404,132,33672,6,0,P|352:128|288:120,1,110,2|2,0:0|0:0,0:0:0:0:
216,96,34706,1,0,0:0:0:0:
180,172,35051,2,0,L|188:236,1,55,2|0,0:0|0:0,0:0:0:0:
104,220,35741,2,0,L|96:156,1,55,0|0,0:0|0:0,0:0:0:0:
60,92,36431,6,0,P|100:80|120:72,1,55,0|2,0:0|0:0,0:0:0:0:
184,32,37120,2,0,P|248:56|272:104,2,110,2|2|2,0:0|0:0|0:0,0:0:0:0:
84,164,39189,6,0,P|96:216|98:235,1,55,2|2,0:0|0:0,0:0:0:0:
80,300,39879,2,0,L|189:292,1,110,0|2,0:0|0:0,0:0:0:0:
472,200,41948,6,0,P|412:172|308:252,1,197.99999395752,2|2,0:0|0:0,0:0:0:0:
16,92,44706,6,0,L|20:20,2,55,2|0|0,0:0|0:0|0:0,0:0:0:0:
72,152,45741,1,2,0:0:0:0:
156,152,46086,1,2,0:0:0:0:
224,200,46431,2,0,L|220:272,2,55,0|0|0,0:0|0:0|0:0,0:0:0:0:
284,144,47465,6,0,P|292:108|288:80,1,55,2|0,0:0|0:3,0:0:0:0:
236,28,48155,1,0,0:3:0:0:
160,64,48500,2,0,P|144:108|168:184,1,110,2|2,0:3|0:0,0:0:0:0:
208,236,49534,1,2,0:0:0:0:
284,92,50224,6,0,L|360:80,2,55,2|0|0,0:0|0:0|0:0,0:0:0:0:
224,148,51258,1,2,0:0:0:0:
228,232,51603,1,2,0:0:0:0:
180,300,51948,2,0,L|104:312,2,55,0|0|0,0:0|0:0|0:0,0:0:0:0:
252,340,52982,6,0,P|279:338|306:332,1,55,2|0,0:0|0:0,0:0:0:0:
372,284,53672,2,0,P|396:296|422:304,1,55,0|0,0:0|0:0,0:0:0:0:
496,268,54362,2,0,P|508:208|480:152,1,110,2|2,0:0|0:0,0:0:0:0:
332,124,55741,6,0,L|328:196,2,55,2|0|0,0:0|0:0|0:0,0:0:0:0:
260,88,56775,1,2,0:0:0:0:
176,96,57120,1,2,0:0:0:0:
104,56,57465,2,0,L|108:-16,2,55,0|0|0,0:0|0:0|0:0,0:0:0:0:
44,115,58500,6,0,P|37:142|41:169,1,55,2|0,0:0|0:3,0:0:0:0:
100,228,59189,2,0,P|126:219|147:203,1,55,0|0,0:3|0:3,0:0:0:0:
208,144,59879,2,0,B|256:116|308:144|308:144|360:172|401:145,1,197.99999395752,2|2,0:0|0:0,0:0:0:0:
480,160,61603,5,0,0:0:0:0:
512,240,61948,1,2,0:0:0:0:
452,300,62293,2,0,B|382:320|314:272|314:272|326:332|298:372,1,247.4999924469,2|2,0:0|0:0,0:0:0:0:
218,384,64362,1,0,0:0:0:0:
146,340,64706,2,0,L|150:272,1,49.4999984893799,2|0,0:0|0:0,0:0:0:0:
70,256,65396,2,0,L|64:354,1,98.9999969787599,2|2,0:0|0:0,0:0:0:0:
212,284,66775,6,0,L|208:224,1,55,2|0,0:0|0:0,0:0:0:0:
164,160,67465,1,0,0:0:0:0:
216,96,67809,1,2,0:0:0:0:
291,125,68155,2,0,P|319:124|346:121,1,55,2|0,0:0|0:0,0:0:0:0:
360,204,68844,2,0,P|332:204|305:207,1,55,2|0,0:0|0:0,0:0:0:0:
232,248,69534,6,0,P|248:288|264:364,1,110,2|0,0:0|0:0,0:0:0:0:
340,384,70568,1,2,0:0:0:0:
396,324,70913,2,0,L|456:316,2,55,2|0|2,0:0|0:0|0:0,0:0:0:0:
316,180,72293,6,0,L|261:172,1,55,2|0,0:0|0:0,0:0:0:0:
180,168,72982,2,0,L|187:113,1,55,0|0,0:0|0:0,0:0:0:0:
228,40,73672,2,0,P|272:68|336:60,1,110,2|0,0:0|0:0,0:0:0:0:
404,32,74706,1,2,0:0:0:0:
464,88,75051,6,0,L|464:152,1,55,2|0,0:0|0:0,0:0:0:0:
416,212,75741,1,0,0:0:0:0:
335,187,76086,1,0,0:0:0:0:
287,256,76431,2,0,L|287:320,2,55,2|0|2,0:0|0:0|0:0,0:0:0:0:
176,136,77810,6,0,P|136:148|64:132,1,110,2|0,0:0|0:0,0:0:0:0:
20,72,78844,1,2,0:0:0:0:
76,12,79189,2,0,L|136:24,1,55,2|0,0:0|0:0,0:0:0:0:
200,68,79879,1,2,0:0:0:0:
274,29,80224,1,0,0:0:0:0:
344,74,80568,6,0,L|340:140,1,55,2|0,0:0|0:0,0:0:0:0:
276,180,81258,2,0,L|279:234,1,55,0|0,0:0|0:0,0:0:0:0:
316,308,81948,2,0,P|376:292|424:296,2,110,2|2|0,0:0|0:0|0:0,0:0:0:0:
