osu file format v14

[General]
AudioFilename: audio.mp3
AudioLeadIn: 0
PreviewTime: 66689
Countdown: 0
SampleSet: Soft
StackLeniency: 0.7
Mode: 0
LetterboxInBreaks: 0
WidescreenStoryboard: 0

[Editor]
DistanceSpacing: 1.2
BeatDivisor: 4
GridSize: 4
TimelineZoom: 1

[Metadata]
Title:Michishirube
TitleUnicode:みちしるべ
Artist:Minori Chihara
ArtistUnicode:茅原実里
Creator:Kibbleru
Version:Sentimental
Source:ヴァイオレット・エヴァーガーデン
Tags:violet evergarden ending ed tv size doormat
BeatmapID:1531858
BeatmapSetID:725514

[Difficulty]
HPDrainRate:5
CircleSize:4
OverallDifficulty:5
ApproachRate:6
SliderMultiplier:1.4
SliderTickRate:1

[Events]
//Background and Video events
Video,0,"ending.avi"
0,0,"PV1_16.jpg",0,0
//Break Periods
//Storyboard Layer 0 (Background)
//Storyboard Layer 1 (Fail)
//Storyboard Layer 2 (Pass)
//Storyboard Layer 3 (Foreground)
//Storyboard Sound Samples

[TimingPoints]
569,689.655172413793,4,2,1,20,1,0
569,-142.857142857143,4,2,1,20,0,0
11603,-100,4,2,1,20,0,0
22637,-142.857142857143,4,2,1,20,0,0
33672,-100,4,2,1,20,0,0
41948,-142.857142857143,4,2,1,20,0,0
44706,-100,4,2,1,20,0,0
59879,-142.857142857143,4,2,1,20,0,0
66775,-100,4,2,1,20,0,0

[Colours]
Combo1 : 255,162,85
Combo2 : 72,150,255
Combo3 : 197,201,218

[HitObjects]
100,155,569,6,0,L|203:172,1,97.9999970092774
263,228,1603,1,0,0:0:0:0:
329,145,1948,2,0,P|305:144|281:141,1,48.9999985046387
133,249,2637,2,0,P|167:251|191:256,1,48.9999985046387
471,259,3327,2,0,B|403:218|343:253|349:295|355:333|290:368|220:335,1,293.999991027832
32,147,6086,6,0,L|21:263,1,97.9999970092774
104,353,7465,2,0,L|118:206,1,146.999995513916
204,114,8844,2,0,B|185:72|133:71|133:71|84:149|166:235|248:182,1,293.999991027832,0|0,0:3|0:3,0:3:0:0:
401,120,11603,6,0,L|321:115,1,70,2|0,0:0|0:0,0:0:0:0:
262,161,12293,1,2,0:0:0:0:
262,161,12637,1,2,0:0:0:0:
192,113,12982,2,0,P|188:78|180:45,1,70
316,232,13672,2,0,P|308:266|304:301,1,70,2|0,0:0|0:0,0:0:0:0:
223,242,14362,5,0,0:0:0:0:
387,169,14706,1,2,0:0:0:0:
317,121,15051,1,2,0:0:0:0:
243,160,15396,1,0,0:0:0:0:
223,242,15741,2,0,L|315:258,1,70,2|0,0:0|0:0,0:0:0:0:
342,320,16431,1,0,0:0:0:0:
449,168,16775,1,0,0:0:0:0:
506,228,17120,6,0,P|434:216|368:204,1,140,2|0,0:0|0:0,0:0:0:0:
283,202,18155,1,2,0:0:0:0:
52,122,18500,2,0,P|104:130|175:78,1,140,2|2,0:0|0:0,0:0:0:0:
247,120,19534,1,0,0:0:0:0:
196,187,19879,6,0,P|188:221|186:256,1,70,2|0,0:0|0:0,0:0:0:0:
238,321,20568,1,0,0:0:0:0:
94,221,20913,2,0,L|43:225,2,35,2|0|2,0:0|0:0|0:0,0:0:0:0:
98,234,21948,1,2,0:0:0:0:
102,247,22637,6,0,B|204:227|189:299|296:288,1,195.999994018555,2|2,0:0|0:0,0:0:0:0:
326,124,25396,2,0,P|245:104|258:185,1,195.999994018555,2|2,0:0|0:0,0:0:0:0:
414,334,28155,2,0,B|372:294|365:227|365:227|350:266|301:292,1,195.999994018555,2|2,0:0|0:0,0:0:0:0:
316,283,30913,1,2,0:0:0:0:
386,291,33672,6,0,L|316:283,1,70,2|0,0:0|0:0,0:0:0:0:
299,106,34362,2,0,L|368:96,1,70,2|0,0:0|0:0,0:0:0:0:
344,201,35051,2,0,P|283:193|204:239,1,140,2|0,0:0|0:0,0:0:0:0:
64,207,36086,1,0,0:0:0:0:
139,337,36431,6,0,P|136:282|131:247,1,70,0|2,0:0|0:0,0:0:0:0:
232,120,37120,2,0,L|234:267,1,140,2|2,0:0|0:0,0:0:0:0:
234,351,38155,1,0,0:0:0:0:
85,182,38500,1,2,0:0:0:0:
85,182,38844,6,0,L|144:185,2,35,0|0|2,0:0|0:0|0:0,0:0:0:0:
216,57,39534,1,2,0:0:0:0:
118,93,39879,2,0,P|187:95|243:146,1,140,0|2,0:0|0:0,0:0:0:0:
356,144,41948,2,0,B|288:124|288:124|241:161|246:237,1,195.999994018555,2|2,0:0|0:0,0:0:0:0:
343,238,44706,6,0,L|351:321,2,70,2|0|0,0:0|0:0|0:0,0:0:0:0:
343,238,45741,1,2,0:0:0:0:
121,291,46086,1,2,0:0:0:0:
176,227,46431,2,0,L|182:157,2,70
260,89,47465,5,2,0:0:0:0:
103,89,47810,1,0,0:3:0:0:
169,138,48155,1,0,0:3:0:0:
92,173,48500,1,2,0:3:0:0:
92,173,49189,5,2,0:0:0:0:
193,124,49534,1,2,0:0:0:0:
290,179,49879,1,0,0:0:0:0:
274,289,50224,6,0,L|265:362,2,70,2|0|0,0:0|0:0|0:0,0:0:0:0:
274,289,51258,1,2,0:0:0:0:
105,155,51603,1,2,0:0:0:0:
182,108,51948,2,0,L|191:181,2,70
95,31,52982,6,0,B|172:39|172:39|210:83|210:83|283:91,1,210,2|0,0:0|0:0,0:0:0:0:
115,127,54362,1,2,0:0:0:0:
212,30,54706,1,0,0:0:0:0:
294,194,55051,5,2,0:0:0:0:
102,112,55396,2,0,L|95:49,2,35,2|0|2,0:0|0:0|0:0,0:0:0:0:
81,208,56086,6,0,L|8:218,2,70,0|0|2,0:0|0:0|0:0,0:0:0:0:
219,91,57120,1,2,0:0:0:0:
292,144,57465,2,0,L|365:154,2,70
310,233,58500,5,2,0:0:0:0:
141,119,58844,1,0,0:3:0:0:
207,180,59189,1,0,0:3:0:0:
119,206,59534,1,0,0:3:0:0:
212,39,59879,2,0,B|157:43|122:20|122:20|149:69|139:130,1,195.999994018555,2|2,0:0|0:0,0:0:0:0:
127,208,61603,5,0,0:0:0:0:
228,127,61948,1,2,0:0:0:0:
30,236,62293,2,0,B|85:204|147:237|137:268|127:298|183:334|258:304,1,244.999992523194,2|2,0:0|0:0,0:0:0:0:
420,219,64706,1,2,0:0:0:0:
339,182,65051,1,0,0:0:0:0:
346,269,65396,2,0,L|363:385,1,97.9999970092774,2|2,0:0|0:0,0:0:0:0:
391,187,66775,5,2,0:0:0:0:
332,247,67120,1,0,0:0:0:0:
249,231,67465,1,0,0:0:0:0:
375,102,67810,1,2,0:0:0:0:
288,80,68155,2,0,L|301:170,1,70,2|0,0:0|0:0,0:0:0:0:
327,227,68844,1,2,0:0:0:0:
189,57,69189,1,0,0:0:0:0:
221,277,69534,6,0,P|215:207|208:137,1,140,2|0,0:0|0:0,0:0:0:0:
301,91,70568,2,0,P|295:125|293:160,1,70,2|2,0:0|0:0,0:0:0:0:
128,184,71258,2,0,P|122:149|120:114,1,70,0|2,0:0|0:0,0:0:0:0:
40,219,72293,6,0,P|108:221|162:263,1,140,2|0,0:0|0:0,0:0:0:0:
168,347,73327,1,0,0:0:0:0:
243,309,73672,2,0,P|251:277|251:220,1,70,2|0,0:0|0:0,0:0:0:0:
196,177,74362,1,0,0:0:0:0:
238,104,74706,1,2,0:0:0:0:
243,309,75051,5,2,0:0:0:0:
82,216,75396,1,0,0:0:0:0:
159,183,75741,1,0,0:0:0:0:
233,225,76086,1,0,0:0:0:0:
129,97,76431,5,2,0:0:0:0:
158,274,76775,1,0,0:0:0:0:
266,199,77120,1,2,0:0:0:0:
266,199,77810,5,2,0:0:0:0:
186,171,78155,1,0,0:0:0:0:
115,216,78500,1,0,0:0:0:0:
106,299,78844,1,2,0:0:0:0:
15,142,79189,2,0,L|26:228,1,70,2|0,0:0|0:0,0:0:0:0:
191,343,79879,2,0,L|199:273,1,70,2|0,0:0|0:0,0:0:0:0:
155,151,80568,6,0,P|123:207|110:291,1,140,2|0,0:0|0:0,0:0:0:0:
61,123,81603,1,0,0:0:0:0:
208,245,81948,2,0,L|348:239,1,140,2|2,0:0|0:0,0:0:0:0:
348,239,82982,2,0,L|342:294,2,35,2|0|0,0:0|0:0|0:0,0:0:0:0:
