osu file format v14

[General]
AudioFilename: audio.mp3
AudioLeadIn: 0
PreviewTime: 52573
Countdown: 0
SampleSet: Normal
StackLeniency: 0.7
Mode: 1
LetterboxInBreaks: 0
WidescreenStoryboard: 0

[Editor]
Bookmarks: 63357,78683
DistanceSpacing: 0.8
BeatDivisor: 4
GridSize: 32
TimelineZoom: 2.399999

[Metadata]
Title:Kyoukai no Kanata (TV Size)
TitleUnicode:境界の彼方 (TV Size)
Artist:Minori Chihara
ArtistUnicode:茅原実里
Creator:uranosu1030
Version:Inner Oni
Source:境界の彼方
Tags:op opening beyond the boundary pop j-pop jpop japanese female vocals kyoto animation anime
BeatmapID:3532330
BeatmapSetID:1728470

[Difficulty]
HPDrainRate:6
CircleSize:5
OverallDifficulty:6
ApproachRate:5
SliderMultiplier:1.4
SliderTickRate:1

[Events]
//Background and Video events
0,0,"kyoukaiosu.jpg",0,50
//Break Periods
//Storyboard Layer 0 (Background)
//Storyboard Layer 1 (Fail)
//Storyboard Layer 2 (Pass)
//Storyboard Layer 3 (Foreground)
//Storyboard Layer 4 (Overlay)
//Storyboard Sound Samples

[TimingPoints]
-578,326.086956521739,4,1,0,70,1,0
400,-111.111111111111,4,1,0,70,0,0
726,326.086956521739,4,1,0,70,1,0
726,-111.111111111111,4,1,0,70,0,0
11160,-105.263157894737,4,1,0,70,0,0
52899,-100,4,1,0,80,0,1
62682,-100,4,1,0,70,0,0
63334,-100,4,1,0,80,0,1
78986,-100,4,1,0,70,0,0
79150,-111.111111111111,4,1,0,70,0,0
82248,357.142857142857,4,1,0,70,1,0
82248,-111.111111111111,4,1,0,64,0,0
82605,-125,4,1,0,58,0,0
83140,555.555555555556,4,1,0,52,1,0
83140,-90.9090909090909,4,1,0,52,0,0
83695,-100,4,1,0,46,0,0
84251,-111.111111111111,4,1,0,40,0,0

[HitObjects]
232,139,400,5,2,0:0:0:0:
232,139,563,1,2,0:0:0:0:
232,139,726,1,0,0:0:0:0:
201,191,1052,1,2,0:0:0:0:
185,179,1378,1,0,0:0:0:0:
161,136,1704,1,0,0:0:0:0:
185,179,2030,1,0,0:0:0:0:
211,205,2682,1,0,0:0:0:0:
211,205,3008,1,2,0:0:0:0:
211,205,3334,1,0,0:0:0:0:
148,178,3986,1,0,0:0:0:0:
148,178,4312,1,2,0:0:0:0:
148,178,4639,1,0,0:0:0:0:
148,178,4965,1,2,0:0:0:0:
148,178,5291,1,2,0:0:0:0:
137,176,5943,1,0,0:0:0:0:
137,176,6269,1,2,0:0:0:0:
137,176,6432,1,2,0:0:0:0:
137,176,6595,1,0,0:0:0:0:
138,165,6921,1,2,0:0:0:0:
138,165,7247,1,0,0:0:0:0:
138,165,7573,1,0,0:0:0:0:
138,165,7899,1,2,0:0:0:0:
138,165,8225,1,0,0:0:0:0:
133,167,8552,1,0,0:0:0:0:
219,198,8715,1,2,0:0:0:0:
138,165,8878,1,0,0:0:0:0:
138,165,9204,1,2,0:0:0:0:
133,167,9530,1,0,0:0:0:0:
138,165,9856,1,2,0:0:0:0:
107,127,10345,1,0,0:0:0:0:
107,127,10508,1,2,0:0:0:0:
149,168,11160,1,4,0:0:0:0:
182,139,11486,1,2,0:0:0:0:
266,161,11649,1,2,0:0:0:0:
266,161,11812,1,0,0:0:0:0:
192,169,11975,1,2,0:0:0:0:
196,178,12139,1,0,0:0:0:0:
175,89,12465,1,0,0:0:0:0:
175,89,12628,1,2,0:0:0:0:
175,185,12791,1,0,0:0:0:0:
125,171,12954,1,0,0:0:0:0:
200,146,13117,1,2,0:0:0:0:
200,146,13198,1,2,0:0:0:0:
200,146,13280,1,0,0:0:0:0:
200,146,13443,1,2,0:0:0:0:
160,161,13606,1,0,0:0:0:0:
231,130,13769,1,2,0:0:0:0:
118,188,14095,1,0,0:0:0:0:
118,188,14258,1,2,0:0:0:0:
175,206,14421,1,0,0:0:0:0:
175,206,14503,1,0,0:0:0:0:
175,206,14584,1,2,0:0:0:0:
175,206,14747,1,0,0:0:0:0:
165,102,14910,1,2,0:0:0:0:
165,102,15073,1,0,0:0:0:0:
165,102,15236,1,0,0:0:0:0:
178,178,15318,1,0,0:0:0:0:
165,102,15399,1,2,0:0:0:0:
236,90,15481,1,2,0:0:0:0:
165,102,15562,1,0,0:0:0:0:
184,200,15644,1,0,0:0:0:0:
137,173,15725,1,2,0:0:0:0:
155,173,15889,1,0,0:0:0:0:
155,173,16052,1,0,0:0:0:0:
155,173,16215,1,0,0:0:0:0:
214,170,16378,1,6,0:0:0:0:
229,158,16704,1,2,0:0:0:0:
195,199,16867,1,0,0:0:0:0:
195,199,17030,1,2,0:0:0:0:
85,199,17356,1,2,0:0:0:0:
120,161,17682,1,0,0:0:0:0:
196,146,17845,1,2,0:0:0:0:
196,146,18008,1,0,0:0:0:0:
126,158,18334,1,2,0:0:0:0:
126,158,18660,1,0,0:0:0:0:
129,183,18986,1,6,0:0:0:0:
201,273,19312,1,0,0:0:0:0:
201,273,19475,1,2,0:0:0:0:
201,273,19639,1,0,0:0:0:0:
208,186,19802,1,0,0:0:0:0:
208,186,19965,1,2,0:0:0:0:
208,186,20128,1,2,0:0:0:0:
232,237,20291,1,0,0:0:0:0:
264,225,20454,1,0,0:0:0:0:
264,225,20617,1,2,0:0:0:0:
186,198,20698,1,2,0:0:0:0:
187,198,20780,1,0,0:0:0:0:
186,198,20861,1,0,0:0:0:0:
186,198,20943,1,2,0:0:0:0:
186,198,21106,1,0,0:0:0:0:
57,217,21269,1,2,0:0:0:0:
244,222,21595,1,0,0:0:0:0:
222,202,21677,1,0,0:0:0:0:
217,192,21758,1,0,0:0:0:0:
191,181,21921,1,0,0:0:0:0:
158,181,22084,1,2,0:0:0:0:
171,210,22247,1,0,0:0:0:0:
181,183,22573,1,2,0:0:0:0:
181,183,22736,1,0,0:0:0:0:
181,183,22899,1,0,0:0:0:0:
93,183,23062,1,2,0:0:0:0:
156,183,23225,1,0,0:0:0:0:
283,177,23552,1,2,0:0:0:0:
283,177,23715,1,0,0:0:0:0:
283,177,23878,1,0,0:0:0:0:
283,177,24041,1,2,0:0:0:0:
283,177,24204,1,0,0:0:0:0:
246,91,24285,1,0,0:0:0:0:
201,161,24367,1,0,0:0:0:0:
201,161,24530,1,0,0:0:0:0:
201,161,24693,1,2,0:0:0:0:
201,161,24856,1,0,0:0:0:0:
263,170,25182,1,2,0:0:0:0:
263,170,25345,1,0,0:0:0:0:
263,170,25508,1,0,0:0:0:0:
196,168,25671,1,2,0:0:0:0:
151,117,25997,1,0,0:0:0:0:
151,117,26160,1,2,0:0:0:0:
146,113,26323,1,0,0:0:0:0:
143,112,26486,1,2,0:0:0:0:
211,227,26812,5,4,0:0:0:0:
231,165,27139,1,2,0:0:0:0:
162,113,27302,1,2,0:0:0:0:
162,113,27465,1,0,0:0:0:0:
167,110,27628,1,0,0:0:0:0:
260,201,27791,1,2,0:0:0:0:
176,260,28117,1,0,0:0:0:0:
176,260,28280,1,0,0:0:0:0:
220,158,28443,1,2,0:0:0:0:
293,130,28606,1,0,0:0:0:0:
284,133,28769,1,2,0:0:0:0:
115,97,28850,1,2,0:0:0:0:
276,138,28932,1,0,0:0:0:0:
170,106,29095,1,2,0:0:0:0:
80,215,29421,1,0,0:0:0:0:
239,153,29747,1,2,0:0:0:0:
176,129,29910,1,0,0:0:0:0:
176,130,29992,1,2,0:0:0:0:
216,158,30073,1,0,0:0:0:0:
162,137,30236,1,2,0:0:0:0:
162,137,30399,1,2,0:0:0:0:
80,215,30725,1,0,0:0:0:0:
80,215,30889,1,0,0:0:0:0:
199,134,31052,1,2,0:0:0:0:
199,134,31215,1,0,0:0:0:0:
199,134,31296,1,0,0:0:0:0:
199,134,31378,1,2,0:0:0:0:
107,172,31541,1,0,0:0:0:0:
207,163,31704,1,2,0:0:0:0:
80,215,32030,1,4,0:0:0:0:
226,179,32356,1,2,0:0:0:0:
207,178,32519,1,0,0:0:0:0:
207,178,32600,1,2,0:0:0:0:
207,178,32682,1,2,0:0:0:0:
153,129,32845,1,0,0:0:0:0:
206,130,33008,1,2,0:0:0:0:
153,129,33334,1,0,0:0:0:0:
190,204,33497,1,0,0:0:0:0:
190,204,33660,1,2,0:0:0:0:
196,98,33823,1,0,0:0:0:0:
215,127,33986,1,2,0:0:0:0:
215,127,34068,1,2,0:0:0:0:
140,153,34149,1,0,0:0:0:0:
215,127,34312,1,2,0:0:0:0:
140,153,34639,1,0,0:0:0:0:
232,130,34965,1,2,0:0:0:0:
232,130,35128,1,0,0:0:0:0:
282,107,35291,1,2,0:0:0:0:
282,107,35372,1,2,0:0:0:0:
150,148,35454,1,0,0:0:0:0:
255,172,35617,1,2,0:0:0:0:
255,172,35780,1,0,0:0:0:0:
150,148,35943,1,0,0:0:0:0:
255,163,36024,1,0,0:0:0:0:
255,163,36106,1,0,0:0:0:0:
255,163,36269,1,6,0:0:0:0:
255,163,36432,1,0,0:0:0:0:
255,163,36595,1,2,0:0:0:0:
255,163,36677,1,2,0:0:0:0:
255,163,36758,1,0,0:0:0:0:
255,163,36840,1,0,0:0:0:0:
255,163,36921,1,2,0:0:0:0:
254,235,37247,1,4,0:0:0:0:
236,188,37573,1,2,0:0:0:0:
254,235,37736,1,4,0:0:0:0:
236,188,38062,1,0,0:0:0:0:
254,235,38225,1,6,0:0:0:0:
212,159,38715,1,0,0:0:0:0:
184,122,38796,1,2,0:0:0:0:
184,122,38878,1,2,0:0:0:0:
133,49,39041,1,0,0:0:0:0:
161,75,39204,1,2,0:0:0:0:
161,75,39367,1,2,0:0:0:0:
161,75,39530,1,0,0:0:0:0:
134,160,39856,1,4,0:0:0:0:
241,134,40182,1,0,0:0:0:0:
134,160,40345,1,6,0:0:0:0:
115,160,40671,1,0,0:0:0:0:
134,160,40834,1,6,0:0:0:0:
256,184,41323,1,2,0:0:0:0:
244,187,41486,1,0,0:0:0:0:
176,91,41649,1,0,0:0:0:0:
176,91,41731,1,0,0:0:0:0:
176,91,41812,1,2,0:0:0:0:
176,91,41975,1,2,0:0:0:0:
176,91,42139,1,0,0:0:0:0:
235,175,42465,1,4,0:0:0:0:
235,175,42791,1,0,0:0:0:0:
224,203,42954,1,6,0:0:0:0:
187,148,43280,1,2,0:0:0:0:
224,203,43443,1,4,0:0:0:0:
253,153,43769,1,2,0:0:0:0:
253,153,43932,1,0,0:0:0:0:
256,93,44095,1,2,0:0:0:0:
155,90,44258,1,0,0:0:0:0:
155,90,44340,1,0,0:0:0:0:
179,146,44421,1,2,0:0:0:0:
179,133,44584,1,0,0:0:0:0:
179,133,44747,1,0,0:0:0:0:
179,132,44910,1,2,0:0:0:0:
234,199,45073,1,4,0:0:0:0:
205,174,45399,1,0,0:0:0:0:
205,174,45725,1,2,0:0:0:0:
172,162,46052,1,0,0:0:0:0:
212,144,46378,1,0,0:0:0:0:
212,144,46541,1,2,0:0:0:0:
212,144,46704,1,0,0:0:0:0:
155,127,46867,1,0,0:0:0:0:
203,148,47030,1,2,0:0:0:0:
121,103,47111,1,2,0:0:0:0:
203,148,47193,1,0,0:0:0:0:
203,148,47356,1,2,0:0:0:0:
271,138,47682,1,6,0:0:0:0:
199,166,47845,1,0,0:0:0:0:
189,132,48008,1,2,0:0:0:0:
189,132,48171,1,0,0:0:0:0:
189,132,48253,1,0,0:0:0:0:
189,132,48334,1,0,0:0:0:0:
199,120,48497,1,0,0:0:0:0:
193,123,48660,1,2,0:0:0:0:
146,99,48823,1,2,0:0:0:0:
124,107,48986,1,0,0:0:0:0:
56,60,49149,1,0,0:0:0:0:
125,184,49312,1,2,0:0:0:0:
102,115,49475,1,0,0:0:0:0:
164,217,49557,1,0,0:0:0:0:
150,74,49639,1,2,0:0:0:0:
150,74,49720,1,2,0:0:0:0:
150,74,49802,1,0,0:0:0:0:
136,173,49965,1,2,0:0:0:0:
101,173,50128,1,2,0:0:0:0:
136,173,50291,1,4,0:0:0:0:
174,172,50454,1,2,0:0:0:0:
114,128,50535,1,2,0:0:0:0:
217,125,50617,1,0,0:0:0:0:
256,173,50780,1,0,0:0:0:0:
256,183,50943,1,0,0:0:0:0:
181,149,51024,1,2,0:0:0:0:
166,142,51106,1,0,0:0:0:0:
245,213,51269,1,2,0:0:0:0:
245,213,51432,1,0,0:0:0:0:
245,213,51595,1,2,0:0:0:0:
141,77,51677,1,2,0:0:0:0:
183,112,51758,1,0,0:0:0:0:
183,112,51840,1,2,0:0:0:0:
183,112,51921,1,0,0:0:0:0:
187,156,52084,1,0,0:0:0:0:
131,82,52166,1,0,0:0:0:0:
187,156,52247,1,2,0:0:0:0:
187,156,52329,1,2,0:0:0:0:
187,156,52410,1,2,0:0:0:0:
187,156,52492,1,2,0:0:0:0:
187,156,52573,1,0,0:0:0:0:
165,128,52655,1,0,0:0:0:0:
124,107,52736,1,2,0:0:0:0:
132,188,52899,1,4,0:0:0:0:
231,162,53225,1,2,0:0:0:0:
264,178,53389,1,0,0:0:0:0:
264,178,53470,1,0,0:0:0:0:
131,194,53552,1,0,0:0:0:0:
131,194,53715,1,0,0:0:0:0:
231,162,53878,1,2,0:0:0:0:
179,113,54041,1,0,0:0:0:0:
104,135,54122,1,2,0:0:0:0:
131,194,54204,1,0,0:0:0:0:
121,116,54367,1,0,0:0:0:0:
217,177,54530,1,2,0:0:0:0:
173,152,54693,1,0,0:0:0:0:
172,125,54774,1,0,0:0:0:0:
116,238,54856,1,2,0:0:0:0:
164,117,54937,1,2,0:0:0:0:
116,238,55019,1,0,0:0:0:0:
217,177,55182,1,2,0:0:0:0:
208,101,55345,1,2,0:0:0:0:
116,238,55508,1,0,0:0:0:0:
97,124,55671,1,0,0:0:0:0:
217,177,55834,1,2,0:0:0:0:
126,89,55997,1,0,0:0:0:0:
126,73,56079,1,0,0:0:0:0:
116,238,56160,1,0,0:0:0:0:
116,238,56323,1,0,0:0:0:0:
217,177,56486,1,2,0:0:0:0:
230,97,56649,1,0,0:0:0:0:
230,97,56731,1,2,0:0:0:0:
116,238,56812,1,0,0:0:0:0:
153,121,56975,1,0,0:0:0:0:
217,177,57139,1,2,0:0:0:0:
146,88,57302,1,0,0:0:0:0:
146,88,57465,1,2,0:0:0:0:
165,72,57546,1,2,0:0:0:0:
116,238,57628,1,0,0:0:0:0:
217,177,57709,1,0,0:0:0:0:
165,187,57791,1,2,0:0:0:0:
116,238,58117,1,0,0:0:0:0:
165,187,58443,1,2,0:0:0:0:
217,91,58606,1,2,0:0:0:0:
196,99,58687,1,2,0:0:0:0:
116,238,58769,1,0,0:0:0:0:
90,208,58932,1,0,0:0:0:0:
165,187,59095,1,2,0:0:0:0:
200,110,59258,1,2,0:0:0:0:
121,230,59421,1,0,0:0:0:0:
141,92,59584,1,0,0:0:0:0:
160,95,59666,1,0,0:0:0:0:
165,187,59747,1,2,0:0:0:0:
155,120,59910,1,0,0:0:0:0:
169,98,60073,1,2,0:0:0:0:
170,98,60155,1,2,0:0:0:0:
121,230,60236,1,0,0:0:0:0:
165,187,60399,1,2,0:0:0:0:
121,230,60725,1,0,0:0:0:0:
193,137,60889,1,0,0:0:0:0:
113,181,61052,1,2,0:0:0:0:
205,76,61133,1,2,0:0:0:0:
205,76,61215,1,0,0:0:0:0:
121,230,61378,1,0,0:0:0:0:
182,162,61459,1,0,0:0:0:0:
121,230,61541,1,0,0:0:0:0:
182,162,61622,1,0,0:0:0:0:
96,150,61704,1,2,0:0:0:0:
121,230,61867,1,4,0:0:0:0:
51,267,62193,1,0,0:0:0:0:
94,181,62356,1,2,0:0:0:0:
251,166,62519,1,2,0:0:0:0:
51,267,62682,1,0,0:0:0:0:
204,126,62764,1,0,0:0:0:0:
51,267,62845,1,0,0:0:0:0:
204,126,62927,1,0,0:0:0:0:
102,168,63008,1,2,0:0:0:0:
233,116,63090,1,2,0:0:0:0:
264,178,63171,1,0,0:0:0:0:
132,188,63334,1,4,0:0:0:0:
231,162,63660,1,2,0:0:0:0:
264,178,63823,1,0,0:0:0:0:
264,178,63905,1,0,0:0:0:0:
131,194,63986,1,0,0:0:0:0:
131,194,64149,1,0,0:0:0:0:
231,162,64312,1,2,0:0:0:0:
179,113,64475,1,0,0:0:0:0:
104,135,64557,1,2,0:0:0:0:
131,194,64639,1,0,0:0:0:0:
121,116,64802,1,0,0:0:0:0:
217,177,64965,1,2,0:0:0:0:
121,97,65128,1,0,0:0:0:0:
129,168,65209,1,0,0:0:0:0:
116,238,65291,1,2,0:0:0:0:
164,117,65372,1,2,0:0:0:0:
116,238,65454,1,0,0:0:0:0:
217,177,65617,1,2,0:0:0:0:
146,105,65698,1,2,0:0:0:0:
208,101,65780,1,2,0:0:0:0:
116,238,65943,1,0,0:0:0:0:
97,124,66106,1,0,0:0:0:0:
217,177,66269,1,2,0:0:0:0:
126,89,66432,1,0,0:0:0:0:
126,73,66514,1,0,0:0:0:0:
116,238,66595,1,0,0:0:0:0:
116,238,66758,1,0,0:0:0:0:
217,177,66921,1,2,0:0:0:0:
230,97,67084,1,0,0:0:0:0:
230,97,67166,1,2,0:0:0:0:
116,238,67247,1,0,0:0:0:0:
153,121,67410,1,0,0:0:0:0:
217,177,67573,1,2,0:0:0:0:
146,88,67736,1,0,0:0:0:0:
122,128,67818,1,0,0:0:0:0:
146,88,67899,1,2,0:0:0:0:
116,238,68062,1,2,0:0:0:0:
135,130,68144,1,2,0:0:0:0:
130,112,68225,1,0,0:0:0:0:
130,112,68307,1,0,0:0:0:0:
130,112,68389,1,2,0:0:0:0:
116,238,68552,5,4,0:0:0:0:
165,187,68878,1,2,0:0:0:0:
165,95,69041,1,0,0:0:0:0:
90,208,69122,1,0,0:0:0:0:
221,74,69204,1,2,0:0:0:0:
153,122,69367,1,0,0:0:0:0:
165,187,69530,1,6,0:0:0:0:
121,230,69856,1,2,0:0:0:0:
174,107,70019,1,0,0:0:0:0:
166,67,70100,1,0,0:0:0:0:
165,187,70182,1,2,0:0:0:0:
170,122,70345,1,0,0:0:0:0:
121,230,70508,1,2,0:0:0:0:
206,169,70590,1,2,0:0:0:0:
121,230,70671,1,0,0:0:0:0:
165,187,70834,1,2,0:0:0:0:
197,147,70997,1,0,0:0:0:0:
121,230,71160,1,6,0:0:0:0:
113,181,71486,1,2,0:0:0:0:
147,114,71649,1,0,0:0:0:0:
147,114,71731,1,0,0:0:0:0:
121,230,71812,1,0,0:0:0:0:
121,230,71975,1,0,0:0:0:0:
96,150,72139,1,2,0:0:0:0:
153,101,72302,1,2,0:0:0:0:
216,162,72465,1,0,0:0:0:0:
171,62,72546,1,2,0:0:0:0:
216,162,72628,1,2,0:0:0:0:
139,77,72709,1,2,0:0:0:0:
216,162,72791,1,0,0:0:0:0:
216,162,72954,1,0,0:0:0:0:
175,163,73117,1,2,0:0:0:0:
175,163,73280,1,0,0:0:0:0:
153,86,73361,1,0,0:0:0:0:
175,163,73443,1,2,0:0:0:0:
152,128,73606,1,0,0:0:0:0:
175,163,73769,1,4,0:0:0:0:
227,158,74095,1,2,0:0:0:0:
163,160,74258,1,0,0:0:0:0:
180,178,74584,1,0,0:0:0:0:
227,158,74747,1,2,0:0:0:0:
129,130,74910,1,2,0:0:0:0:
129,130,75073,1,0,0:0:0:0:
129,130,75236,1,0,0:0:0:0:
145,132,75399,1,2,0:0:0:0:
174,107,75562,1,0,0:0:0:0:
174,107,75725,1,2,0:0:0:0:
174,107,75807,1,2,0:0:0:0:
174,107,75889,1,0,0:0:0:0:
157,133,76052,1,2,0:0:0:0:
165,128,76378,1,2,0:0:0:0:
223,120,76541,1,0,0:0:0:0:
157,133,76704,1,2,0:0:0:0:
160,62,76867,1,0,0:0:0:0:
184,78,76948,1,0,0:0:0:0:
184,78,77030,1,2,0:0:0:0:
180,69,77193,1,0,0:0:0:0:
59,131,77356,1,2,0:0:0:0:
187,135,77519,1,0,0:0:0:0:
171,133,77600,1,0,0:0:0:0:
171,133,77682,1,2,0:0:0:0:
132,154,77764,1,2,0:0:0:0:
132,154,77845,1,0,0:0:0:0:
170,165,77927,1,0,0:0:0:0:
59,131,78008,1,2,0:0:0:0:
162,73,78171,1,2,0:0:0:0:
162,73,78334,1,0,0:0:0:0:
246,237,78497,1,0,0:0:0:0:
281,178,78660,1,2,0:0:0:0:
281,178,78823,1,2,0:0:0:0:
281,178,78986,1,0,0:0:0:0:
201,203,79312,1,2,0:0:0:0:
201,203,79639,1,0,0:0:0:0:
201,203,79965,1,2,0:0:0:0:
224,126,80291,1,0,0:0:0:0:
125,179,80943,1,0,0:0:0:0:
125,179,81269,1,2,0:0:0:0:
125,179,81595,1,0,0:0:0:0:
125,179,82248,1,0,0:0:0:0:
176,198,82605,1,0,0:0:0:0:
176,198,83140,1,2,0:0:0:0:
176,198,83695,1,2,0:0:0:0:
176,198,84251,1,0,0:0:0:0:
256,192,84667,12,0,87584,0:0:0:0:
