osu file format v14

[General]
AudioFilename: audio.mp3
AudioLeadIn: 0
PreviewTime: 52573
Countdown: 0
SampleSet: Normal
StackLeniency: 0.7
Mode: 1
LetterboxInBreaks: 0
WidescreenStoryboard: 1

[Editor]
Bookmarks: 63357,78683
DistanceSpacing: 0.8
BeatDivisor: 1
GridSize: 32
TimelineZoom: 1.7

[Metadata]
Title:Kyoukai no Kanata (TV Size)
TitleUnicode:境界の彼方 (TV Size)
Artist:Minori Chihara
ArtistUnicode:茅原実里
Creator:uranosu1030
Version:Kantan
Source:境界の彼方
Tags:op opening beyond the boundary pop j-pop jpop japanese female vocals kyoto animation anime
BeatmapID:3532331
BeatmapSetID:1728470

[Difficulty]
HPDrainRate:8
CircleSize:5
OverallDifficulty:3
ApproachRate:5
SliderMultiplier:1.4
SliderTickRate:1

[Events]
//Background and Video events
0,0,"kyoukaiosu.jpg",0,50
//Break Periods
//Storyboard Layer 0 (Background)
//Storyboard Layer 1 (Fail)
//Storyboard Layer 2 (Pass)
//Storyboard Layer 3 (Foreground)
//Storyboard Layer 4 (Overlay)
//Storyboard Sound Samples

[TimingPoints]
-578,326.086956521739,4,1,0,70,1,0
726,326.086956521739,4,1,0,70,1,0
52899,-100,4,1,0,80,0,1
62682,-100,4,1,0,70,0,0
63334,-100,4,1,0,80,0,1
78986,-100,4,1,0,70,0,0
79150,-111.111111111111,4,1,0,70,0,0
82248,357.142857142857,4,1,0,60,1,0
82248,-111.111111111111,4,1,0,60,0,0
83140,555.555555555556,4,1,0,50,1,0
83140,-90.9090909090909,4,1,0,50,0,0
84251,-90.9090909090909,4,1,0,40,0,0

[HitObjects]
202,209,726,5,0,0:0:0:0:
202,209,2030,1,0,0:0:0:0:
202,209,3334,1,2,0:0:0:0:
202,209,4639,1,2,0:0:0:0:
151,90,5291,1,0,0:0:0:0:
214,201,5943,1,0,0:0:0:0:
214,201,7247,1,2,0:0:0:0:
214,201,8552,1,0,0:0:0:0:
214,201,9856,1,2,0:0:0:0:
214,201,11160,1,0,0:0:0:0:
217,196,11812,1,0,0:0:0:0:
192,189,12139,1,0,0:0:0:0:
217,196,12465,1,2,0:0:0:0:
206,172,13117,1,2,0:0:0:0:
206,172,13769,1,0,0:0:0:0:
206,172,14421,1,0,0:0:0:0:
206,172,15073,1,2,0:0:0:0:
206,172,15399,1,2,0:0:0:0:
206,172,15725,1,0,0:0:0:0:
206,172,16378,1,0,0:0:0:0:
206,172,17030,1,2,0:0:0:0:
179,210,17682,1,2,0:0:0:0:
179,210,18008,1,0,0:0:0:0:
179,210,18334,1,2,0:0:0:0:
179,210,18986,1,0,0:0:0:0:
172,228,19965,1,2,0:0:0:0:
179,210,20291,1,0,0:0:0:0:
145,246,20943,1,0,0:0:0:0:
158,230,21269,1,0,0:0:0:0:
235,180,21595,1,2,0:0:0:0:
264,204,22247,1,0,0:0:0:0:
156,201,22899,1,0,0:0:0:0:
156,201,23225,1,2,0:0:0:0:
156,201,23552,1,0,0:0:0:0:
190,163,23878,1,0,0:0:0:0:
156,201,24204,1,2,0:0:0:0:
214,121,25182,1,0,0:0:0:0:
199,240,25508,1,2,0:0:0:0:
199,240,25834,1,2,0:0:0:0:
199,240,26160,1,0,0:0:0:0:
190,188,26812,1,4,0:0:0:0:
190,188,27465,1,2,0:0:0:0:
233,158,27791,1,2,0:0:0:0:
161,227,28117,1,0,0:0:0:0:
160,171,28769,1,0,0:0:0:0:
160,171,29095,1,2,0:0:0:0:
160,171,29421,1,0,0:0:0:0:
160,171,30073,1,0,0:0:0:0:
166,166,30399,1,0,0:0:0:0:
160,171,30725,1,2,0:0:0:0:
206,148,31378,1,2,0:0:0:0:
190,188,32030,1,4,0:0:0:0:
190,188,32682,1,2,0:0:0:0:
233,158,33008,1,2,0:0:0:0:
161,227,33334,1,0,0:0:0:0:
160,171,33986,1,0,0:0:0:0:
160,171,34639,1,0,0:0:0:0:
84,143,34965,1,2,0:0:0:0:
160,171,35291,1,0,0:0:0:0:
206,148,35943,1,2,0:0:0:0:
136,149,37247,1,4,0:0:0:0:
166,220,37736,1,4,0:0:0:0:
151,164,38225,1,6,0:0:0:0:
179,151,39204,1,2,0:0:0:0:
170,208,39856,1,4,0:0:0:0:
170,208,40345,1,6,0:0:0:0:
170,208,40834,1,6,0:0:0:0:
188,152,41812,1,2,0:0:0:0:
188,152,42465,1,4,0:0:0:0:
188,152,42954,1,6,0:0:0:0:
188,152,43443,1,4,0:0:0:0:
192,179,44421,1,2,0:0:0:0:
182,164,45073,1,0,0:0:0:0:
199,147,45399,1,0,0:0:0:0:
199,147,45725,1,2,0:0:0:0:
189,136,46378,1,0,0:0:0:0:
189,136,47030,1,2,0:0:0:0:
180,183,47682,1,4,0:0:0:0:
180,183,48334,1,2,0:0:0:0:
180,183,48986,1,0,0:0:0:0:
180,183,49312,1,0,0:0:0:0:
180,183,49639,1,2,0:0:0:0:
191,179,50291,1,2,0:0:0:0:
158,147,50617,1,0,0:0:0:0:
158,147,50943,1,2,0:0:0:0:
136,220,51595,1,0,0:0:0:0:
191,162,52899,1,4,0:0:0:0:
144,159,53552,1,2,0:0:0:0:
159,178,54204,1,0,0:0:0:0:
159,178,54530,1,0,0:0:0:0:
159,178,54856,1,2,0:0:0:0:
231,191,55508,1,2,0:0:0:0:
231,191,56160,1,0,0:0:0:0:
231,191,56812,1,2,0:0:0:0:
231,191,57139,1,2,0:0:0:0:
231,191,57465,1,0,0:0:0:0:
206,130,57791,1,2,0:0:0:0:
231,191,58443,1,0,0:0:0:0:
210,164,58769,1,2,0:0:0:0:
210,164,59095,1,0,0:0:0:0:
210,164,60073,1,2,0:0:0:0:
171,227,60399,1,2,0:0:0:0:
210,164,60725,1,0,0:0:0:0:
210,164,61378,1,2,0:0:0:0:
210,164,61867,1,0,0:0:0:0:
171,188,62356,1,2,0:0:0:0:
191,162,63334,1,4,0:0:0:0:
144,159,63986,1,2,0:0:0:0:
159,178,64639,1,0,0:0:0:0:
159,178,64965,1,0,0:0:0:0:
159,178,65291,1,2,0:0:0:0:
198,92,65617,1,2,0:0:0:0:
42,143,66269,1,0,0:0:0:0:
231,191,66595,1,2,0:0:0:0:
231,191,67247,1,2,0:0:0:0:
231,191,67573,1,0,0:0:0:0:
231,191,67899,1,2,0:0:0:0:
150,173,68225,1,2,0:0:0:0:
204,170,68552,1,4,0:0:0:0:
211,154,69530,1,6,0:0:0:0:
186,132,70508,1,0,0:0:0:0:
196,149,71160,1,6,0:0:0:0:
164,169,71812,1,2,0:0:0:0:
155,163,72465,1,2,0:0:0:0:
155,163,72791,1,0,0:0:0:0:
155,163,73117,1,0,0:0:0:0:
185,129,73769,1,0,0:0:0:0:
201,140,74258,1,2,0:0:0:0:
176,147,74910,1,2,0:0:0:0:
176,147,75236,1,2,0:0:0:0:
176,147,75562,1,2,0:0:0:0:
201,161,76378,1,2,0:0:0:0:
210,188,76867,1,2,0:0:0:0:
210,188,77193,1,0,0:0:0:0:
210,188,77519,1,0,0:0:0:0:
178,165,78660,1,2,0:0:0:0:
153,164,78986,1,0,0:0:0:0:
223,203,80291,1,0,0:0:0:0:
387,209,80943,1,0,0:0:0:0:
251,229,81595,1,2,0:0:0:0:
24,241,83140,1,2,0:0:0:0:
223,202,84251,1,0,0:0:0:0:
256,192,84667,12,0,87584,0:0:0:0:
