osu file format v14

[General]
AudioFilename: audio.mp3
AudioLeadIn: 0
PreviewTime: 123255
Countdown: 0
SampleSet: Normal
StackLeniency: 0.5
Mode: 0
LetterboxInBreaks: 0
EpilepsyWarning: 1
WidescreenStoryboard: 1

[Editor]
Bookmarks: 25093,43099,67099,85099,109099,124099,148099,158599,173599,197599,233599,260599,281599
DistanceSpacing: 1.2
BeatDivisor: 4
GridSize: 4
TimelineZoom: 3.2

[Metadata]
Title:Aitakatta Sora
TitleUnicode:会いたかった空
Artist:Minori Chihara
ArtistUnicode:茅原実里
Creator:Hokichi
Version:Everlasting
Source:劇場版 境界の彼方 -I’LL BE HERE- 未来篇
Tags:mirai hen _dt3 astarte asaiga 0109- bara- cassu2 mapper time capsule beyond the boundaries kyoukai no kanata turtle
BeatmapID:1095011
BeatmapSetID:515637

[Difficulty]
HPDrainRate:5.5
CircleSize:4
OverallDifficulty:8.5
ApproachRate:9
SliderMultiplier:1.8
SliderTickRate:1

[Events]
//Background and Video events
0,0,"BG.jpg",0,0
//Break Periods
2,158797,163999
2,223299,232999
//Storyboard Layer 0 (Background)
//Storyboard Layer 1 (Fail)
//Storyboard Layer 2 (Pass)
//Storyboard Layer 3 (Foreground)
//Storyboard Sound Samples

[TimingPoints]
-415,375,4,2,0,30,1,0
710,-200,4,2,0,30,0,0
1095,375,4,2,0,30,1,0
1095,-200,4,2,0,30,0,0
7119,375,4,2,0,30,1,0
7119,-200,4,2,0,30,0,0
7860,375,4,2,0,30,1,8
7860,-200,4,2,0,30,0,8
8601,375,4,2,0,30,1,0
8601,-200,4,2,0,30,0,0
9338,375,4,2,0,30,1,8
9338,-200,4,2,0,30,0,8
10112,375,4,2,0,30,1,0
10112,-200,4,2,0,30,0,0
11627,375,4,2,0,30,1,0
11627,-200,4,2,0,30,0,0
13104,375,4,2,0,30,1,0
13104,-200,4,2,0,30,0,0
13863,375,4,2,0,30,1,8
13863,-200,4,2,0,30,0,8
16107,375,4,2,0,30,1,0
16107,-200,4,2,0,30,0,0
19095,375,4,2,0,30,1,0
19095,-200,4,2,0,30,0,0
25093,375,4,2,3,50,1,0
25093,-142.857142857143,4,2,3,50,0,0
25186,-142.857142857143,4,2,3,30,0,0
43099,375,4,1,1,40,1,0
43099,-117.647058823529,4,1,1,40,0,0
66724,-117.647058823529,4,1,2,45,0,0
67099,-100,4,1,1,50,0,0
83974,-100,4,1,1,40,0,0
84161,-100,4,1,1,42,0,0
84349,-100,4,1,1,44,0,0
84536,-100,4,1,1,46,0,0
84724,-100,4,1,1,48,0,0
85099,-100,4,1,1,50,0,0
107599,-100,4,1,1,52,0,0
107974,-100,4,1,1,54,0,0
108349,-100,4,1,1,56,0,0
108724,-100,4,1,1,58,0,0
109099,-100,4,1,1,60,0,0
109286,-100,4,1,1,50,0,0
118099,-100,4,1,1,55,0,0
121099,-100,4,1,1,60,0,0
122599,-100,4,1,1,50,0,0
122974,-100,4,1,1,55,0,0
123349,-100,4,1,1,60,0,0
123724,-100,4,2,2,65,0,0
123911,-100,4,2,1,70,0,0
124099,-100,4,1,1,70,0,1
148099,-100,4,1,1,70,0,0
154099,-100,4,1,1,50,0,0
154849,-100,4,1,1,55,0,0
155599,-100,4,1,1,60,0,0
155974,-100,4,1,1,65,0,0
156349,355.029585798817,4,1,1,70,1,0
156349,-100,4,1,1,70,0,0
157005,-100,4,2,0,40,0,0
164599,375,4,2,1,50,1,0
172661,-100,4,2,1,40,0,0
173599,-153.846153846153,4,2,0,30,0,0
184099,-133.333333333333,4,2,1,50,0,0
185224,-133.333333333333,4,2,1,40,0,0
185599,-133.333333333333,4,2,1,50,0,0
191599,-100,4,2,1,60,0,0
197599,-100,4,2,2,60,0,0
197786,-100,4,1,1,60,0,0
220099,-125,4,1,1,50,0,0
222161,-125,4,1,1,40,0,0
222536,-125,4,1,1,30,0,0
223099,-125,4,1,1,20,0,0
233599,-125,4,1,1,30,0,0
235099,-125,4,1,1,40,0,0
235474,-125,4,1,1,50,0,0
235849,-125,4,1,1,60,0,0
236224,-125,4,1,1,70,0,0
236599,-83.3333333333333,4,1,2,80,0,1
236692,-83.3333333333333,4,1,1,70,0,1
260599,-100,4,1,1,70,0,0
269599,-100,4,1,1,60,0,1
281599,-100,4,1,1,50,0,0
293599,-200,4,2,0,30,0,0
295147,375,4,2,0,30,1,0
295147,-200,4,2,0,30,0,0
295886,365.408038976858,4,2,0,30,1,0
295886,-166.666666666667,4,2,0,30,0,0
296606,377.833753148615,4,2,0,30,1,0
296606,-166.666666666667,4,2,0,30,0,0
297361,353.982300884956,4,2,0,30,1,0
297714,361.44578313253,4,2,0,30,1,0
297894,456.273764258555,4,2,0,30,1,0
298122,340.328984685196,4,2,0,30,1,0
298122,-142.857142857143,4,2,0,30,0,0
298462,504.201680672269,4,2,0,30,1,0
298462,-142.857142857143,4,2,0,30,0,0
298858,388.978930307942,4,2,0,30,1,0
298858,-200,4,2,0,30,0,0
299635,378.310214375788,4,2,0,30,1,0
299635,-166.666666666667,4,2,0,30,0,0
301148,386.473429951691,4,2,0,30,1,0
301920,-133.333333333333,4,2,0,30,0,0
302114,413.650465356774,4,2,0,30,1,0
302320,403.496973772697,4,2,0,30,1,0
302320,-133.333333333333,4,2,0,30,0,0
302521,532.386867790594,4,2,0,30,1,0
302787,571.428571428571,4,2,0,30,1,0
303072,535.714285714286,4,2,0,30,1,0
303339,648.648648648649,4,2,0,30,1,0
303663,709.219858156028,4,2,0,30,1,0
304017,921.305182341651,4,2,0,30,1,0
304938,1387.28323699422,4,2,0,30,1,0
305631,1764.70588235294,4,2,0,30,1,0
306493,1136.36363636364,4,2,0,30,1,0
309902,1492.53731343284,4,2,0,30,1,0
311394,1543.80548050946,4,2,0,50,1,0
311490,-100,4,2,1,5,0,0

[Colours]
Combo1 : 170,170,255
Combo2 : 145,217,255
Combo3 : 255,155,255
Combo4 : 250,220,100
SliderBorder : 230,247,255

[HitObjects]
304,240,710,6,0,P|272:208|268:184,1,45
256,160,1095,22,0,P|204:184|148:176,2,90,2|0|2,0:0|0:0|0:0,0:0:0:0:
296,72,2220,1,0,0:0:0:0:
368,136,2595,2,0,P|396:193|396:232,1,90,2|0,0:0|0:0,0:0:0:0:
370,272,3157,1,0,0:0:0:0:
328,301,3345,2,0,P|300:244|300:205,1,90,2|0,0:0|0:0,0:0:0:0:
332,116,4095,6,0,P|260:119|226:93,2,90,2|0|2,0:0|0:0|0:0,0:0:0:0:
392,52,5220,2,0,L|439:29,1,45
472,33,5595,2,0,L|473:142,2,90,2|0|2,0:0|0:0|0:0,0:0:0:0:
360,33,6720,1,0,0:0:0:0:
252,76,7119,6,0,P|233:135|174:160,1,90,2|0,0:0|0:0,0:0:0:0:
168,168,7681,1,0,0:0:0:0:
132,182,7860,2,0,P|100:213|92:257,1,90,2|0,0:0|0:0,0:0:0:0:
140,326,8601,2,0,L|249:351,1,90,2|0,0:0|0:0,0:0:0:0:
306,314,9338,2,0,P|343:272|347:220,1,90,2|0,0:0|0:0,0:0:0:0:
340,144,10112,6,0,B|296:156|296:156|240:140,2,90,2|0|2,0:0|0:0|0:0,0:0:0:0:
352,48,11237,2,0,L|396:45,1,45,0|0,0:0|0:0,0:0:0:0:
426,70,11627,2,0,P|447:118|439:163,2,90,2|0|2,0:0|0:0|0:0,0:0:0:0:
289,47,12752,2,0,P|242:58|216:46,1,45,0|0,0:0|0:0,0:0:0:0:
207,58,13104,6,0,P|153:76|118:117,1,90,6|0,0:0|0:0,0:0:0:0:
124,208,13863,2,0,P|178:190|213:149,1,90,2|0,0:0|0:0,0:0:0:0:
50,177,14613,2,0,P|55:250|82:275,1,90,2|0,0:0|0:0,0:0:0:0:
104,280,15175,1,0,0:0:0:0:
156,288,15363,2,0,P|151:215|124:190,1,90,2|0,0:0|0:0,0:0:0:0:
104,116,16107,6,0,B|114:71|114:71|145:39,2,90,2|0|2,0:0|0:0|0:0,0:0:0:0:
162,221,17232,2,0,L|206:228,1,45,0|0,0:0|0:0,0:0:0:0:
251,230,17607,2,0,P|278:155|265:117,2,90,2|0|2,0:0|0:0|0:0,0:0:0:0:
185,172,18732,1,0,0:0:0:0:
311,175,19095,6,0,L|434:153,1,90,2|0,0:0|0:0,0:0:0:0:
359,108,19657,1,0,0:0:0:0:
323,76,19845,2,0,L|220:60,1,90,2|0,0:0|0:0,0:0:0:0:
220,184,20595,2,0,B|234:229|234:229|285:270,1,90,2|0,0:0|0:0,0:0:0:0:
315,224,21157,1,0,0:0:0:0:
349,193,21345,2,0,B|334:147|334:147|283:106,1,90,2|0,0:0|0:0,0:0:0:0:
198,40,22095,5,2,0:0:0:0:
103,95,22470,1,2,0:0:0:0:
65,198,22845,2,0,P|88:253|123:271,1,90,2|0,0:0|0:0,0:0:0:0:
207,253,23595,2,0,P|268:240|319:257,1,90,2|0,0:0|0:0,0:0:0:0:
336,268,24157,1,0,0:0:0:0:
379,258,24345,2,0,P|410:213|393:148,1,90,2|2,0:0|0:0,0:0:0:0:
304,96,25093,22,0,B|272:104|240:96|240:96|208:88|176:96,1,125.999996154785,6|0,0:1|0:0,0:0:0:0:
92,183,25655,1,0,0:0:0:0:
192,259,25843,2,0,L|256:261,1,62.9999980773926,0|0,0:0|0:0,0:0:0:0:
110,324,26218,2,0,L|47:322,1,62.9999980773926,0|0,0:0|0:0,0:0:0:0:
191,259,26593,6,0,P|213:208|192:143,1,125.999996154785,2|0,0:0|0:0,0:0:0:0:
91,85,27155,2,0,P|124:128|191:143,1,125.999996154785,2|0,0:0|0:0,0:0:0:0:
266,74,27718,1,2,0:3:0:0:
266,74,28093,6,0,L|266:6,1,62.9999980773926,2|0,0:0|0:0,0:0:0:0:
315,180,28468,2,0,L|315:243,1,62.9999980773926
374,80,28843,2,0,P|433:60|492:80,1,125.999996154785,0|0,0:0|0:0,0:0:0:0:
512,177,29405,1,0,0:0:0:0:
455,260,29593,6,0,P|423:258|392:257,1,62.9999980773926,2|0,0:0|0:0,0:0:0:0:
310,187,29968,1,2,3:0:0:0:
449,180,30155,2,0,L|511:177,1,62.9999980773926
360,109,30530,1,0,0:0:0:0:
239,155,30718,2,0,P|233:185|239:216,1,62.9999980773926,2|0,0:0|0:0,0:0:0:0:
311,303,31093,6,0,P|331:244|309:186,1,125.999996154785,2|0,0:0|0:0,0:0:0:0:
204,175,31655,1,0,0:0:0:0:
109,248,31843,1,0,0:0:0:0:
189,282,32030,1,0,0:0:0:0:
204,175,32218,2,0,P|206:144|199:95,1,62.9999980773926,2|0,0:3|0:0,0:0:0:0:
126,11,32593,6,0,P|124:42|131:91,1,62.9999980773926,2|0,0:0|0:0,0:0:0:0:
204,175,32968,1,0,0:0:0:0:
300,116,33155,2,0,L|363:113,1,62.9999980773926,2|0,0:0|0:0,0:0:0:0:
454,181,33530,1,2,0:0:0:0:
358,263,33718,2,0,L|295:260,1,62.9999980773926,2|0,0:3|0:0,0:0:0:0:
204,175,34093,6,0,B|204:89|204:89|225:124,1,125.999996154785,2|2,0:0|0:3,0:0:0:0:
122,225,34655,1,0,0:0:0:0:
85,104,34843,2,0,P|87:70|85:18,1,62.9999980773926
204,175,35218,2,0,P|202:209|204:260,1,62.9999980773926,2|0,0:3|0:0,0:0:0:0:
125,273,35593,6,0,P|124:210|128:147,1,125.999996154785,2|0,0:0|0:0,0:0:0:0:
204,64,36155,1,2,0:0:0:0:
301,133,36343,1,0,0:0:0:0:
232,187,36530,1,2,0:0:0:0:
204,64,36718,2,0,P|198:33|201:-5,1,62.9999980773926,2|0,0:3|0:0,0:0:0:0:
301,133,37093,6,0,L|426:131,1,125.999996154785,2|0,0:0|0:0,0:0:0:0:
512,200,37655,1,0,0:0:0:0:
441,330,37843,2,0,P|418:272|441:214,1,125.999996154785,0|0,0:0|0:0,0:0:0:0:
499,273,38405,1,0,0:0:0:0:
416,350,38593,6,0,P|351:353|283:349,1,125.999996154785,2|0,0:0|0:0,0:0:0:0:
205,306,39155,1,2,0:0:0:0:
308,186,39343,1,0,0:0:0:0:
374,243,39530,1,2,0:0:0:0:
205,306,39718,1,8,0:0:0:0:
222,220,39905,1,0,0:0:0:0:
360,335,40093,5,4,0:0:0:0:
256,192,40186,12,0,42905,0:0:0:0:
382,136,43099,86,0,P|387:173|387:223,1,76.5000014591217,6|0,0:0|0:0,0:0:0:0:
266,293,43474,1,2,0:0:0:0:
297,212,43661,1,0,0:0:0:0:
425,281,43849,2,0,P|386:290|349:280,1,76.5000014591217,2|0,0:0|0:0,0:0:0:0:
214,231,44224,1,2,0:0:0:0:
214,231,44411,1,0,0:0:0:0:
112,289,44599,6,0,P|109:251|115:204,1,76.5000014591217,2|0,0:3|0:0,0:0:0:0:
157,62,44974,1,2,0:0:0:0:
235,91,45161,1,0,0:0:0:0:
114,213,45349,2,0,P|79:217|35:211,1,76.5000014591217,2|0,0:0|0:0,0:0:0:0:
263,163,45724,2,0,P|300:157|338:161,1,76.5000014591217,2|0,0:0|0:0,0:0:0:0:
187,335,46099,5,2,0:0:0:0:
187,335,46474,2,0,P|181:297|189:260,1,76.5000014591217,2|0,0:0|0:0,0:0:0:0:
365,241,46849,2,0,P|335:264|299:275,1,76.5000014591217,2|0,0:0|0:0,0:0:0:0:
194,133,47224,2,0,P|229:146|257:172,1,76.5000014591217,2|0,0:0|0:0,0:0:0:0:
81,248,47599,6,0,L|74:171,1,76.5000014591217,2|0,0:0|0:0,0:0:0:0:
145,50,47974,1,2,0:0:0:0:
254,156,48161,2,0,L|330:158,1,76.5000014591217,0|2,0:0|0:0,0:0:0:0:
465,129,48536,1,0,0:0:0:0:
419,274,48723,2,0,L|343:276,1,76.5000014591217,2|0,0:0|0:0,0:0:0:0:
182,197,49099,5,2,0:0:0:0:
182,197,49474,2,0,P|193:159|193:116,1,76.5000014591217,2|0,0:3|0:0,0:0:0:0:
296,41,49849,2,0,P|297:79|307:115,1,76.5000014591217,2|0,0:3|0:0,0:0:0:0:
408,198,50224,2,0,P|419:160|419:117,1,76.5000014591217,2|0,0:3|0:0,0:0:0:0:
296,41,50599,6,0,L|215:38,1,76.5000014591217,2|0,0:0|0:0,0:0:0:0:
112,80,50974,1,2,0:0:0:0:
223,172,51161,2,0,L|299:174,1,76.5000014591217,0|2,0:0|0:0,0:0:0:0:
400,119,51536,1,0,0:0:0:0:
317,16,51724,2,0,P|310:53|309:91,1,76.5000014591217,2|0,0:0|0:0,0:0:0:0:
382,226,52098,5,2,0:0:0:0:
326,349,52286,1,0,0:0:0:0:
178,305,52474,2,0,L|86:302,1,76.5000014591217,2|0,0:0|0:0,0:0:0:0:
11,231,52849,2,0,L|87:228,1,76.5000014591217,0|0,0:0|0:0,0:0:0:0:
166,145,53224,1,2,0:0:0:0:
59,126,53411,1,0,0:0:0:0:
203,246,53599,6,0,P|242:254|287:242,1,76.5000014591217,2|0,0:0|0:0,0:0:0:0:
367,163,53974,1,0,0:0:0:0:
234,59,54161,2,0,P|196:51|159:59,1,76.5000014591217,8|0,0:3|0:0,0:0:0:0:
128,137,54536,1,8,0:3:0:0:
203,246,54724,1,8,0:3:0:0:
225,153,54911,1,8,0:3:0:0:
8,81,55099,6,0,P|0:119|8:156,1,76.5000014591217,6|0,0:0|0:0,0:0:0:0:
91,209,55474,1,2,0:0:0:0:
97,110,55661,1,0,0:0:0:0:
15,240,55849,2,0,L|22:324,1,76.5000014591217,2|0,0:0|0:0,0:0:0:0:
98,366,56224,1,2,0:0:0:0:
98,366,56411,1,0,0:0:0:0:
207,296,56599,6,0,P|245:289|297:296,1,76.5000014591217,2|0,0:0|0:0,0:0:0:0:
344,379,56974,1,2,0:0:0:0:
248,379,57161,1,0,0:0:0:0:
371,301,57349,2,0,P|378:259|376:198,1,76.5000014591217,2|0,0:0|0:0,0:0:0:0:
292,89,57724,2,0,P|293:127|299:164,1,76.5000014591217,2|0,0:0|0:0,0:0:0:0:
152,231,58099,5,2,0:0:0:0:
152,231,58474,2,0,L|147:144,1,76.5000014591217,2|0,0:0|0:0,0:0:0:0:
253,43,58849,2,0,L|248:130,1,76.5000014591217,2|0,0:0|0:0,0:0:0:0:
354,231,59224,2,0,L|349:144,1,76.5000014591217,2|0,0:0|0:0,0:0:0:0:
425,39,59599,6,0,P|462:32|502:40,1,76.5000014591217,2|0,0:0|0:0,0:0:0:0:
507,192,59974,1,2,0:0:0:0:
378,209,60161,2,0,L|302:195,1,76.5000014591217,0|2,0:0|0:0,0:0:0:0:
209,104,60536,1,0,0:0:0:0:
130,251,60723,2,0,P|121:215|130:178,1,76.5000014591217,2|0,0:0|0:0,0:0:0:0:
288,115,61099,5,6,0:0:0:0:
288,115,61474,2,0,L|289:194,1,76.5000014591217,2|0,0:0|0:0,0:0:0:0:
290,299,61849,2,0,P|326:287|358:255,1,76.5000014591217,2|0,0:0|0:0,0:0:0:0:
448,204,62224,2,0,P|420:178|376:167,1,76.5000014591217,2|0,0:0|0:0,0:0:0:0:
206,197,62599,6,0,L|213:121,1,76.5000014591217,2|0,0:0|0:0,0:0:0:0:
279,41,62974,1,2,0:0:0:0:
415,89,63161,2,0,P|382:97|335:95,1,76.5000014591217,0|2,0:0|0:0,0:0:0:0:
200,47,63536,1,0,0:0:0:0:
127,123,63724,2,0,L|134:199,1,76.5000014591217,2|0,0:0|0:0,0:0:0:0:
207,292,64099,5,2,0:0:0:0:
207,292,64286,1,0,0:0:0:0:
255,171,64474,1,2,0:0:0:0:
255,171,64661,1,0,0:0:0:0:
347,263,64849,2,0,L|424:270,1,76.5000014591217,2|0,0:0|0:0,0:0:0:0:
491,141,65224,2,0,L|414:148,1,76.5000014591217,2|0,0:0|0:0,0:0:0:0:
238,226,65599,6,0,L|230:189,1,38.2500007295609,2|8,0:0|0:0,0:0:0:0:
305,132,65786,1,8,0:0:0:0:
307,94,65880,1,8,0:0:0:0:
309,55,65973,1,8,0:0:0:0:
144,135,66161,2,0,L|136:172,1,38.2500007295609,2|8,0:0|0:0,0:0:0:0:
166,282,66349,69,8,0:0:0:0:
195,306,66443,1,0,0:0:0:0:
231,316,66537,1,8,0:0:0:0:
269,311,66631,1,0,0:0:0:0:
301,292,66724,5,8,0:0:0:0:
330,267,66818,1,0,0:0:0:0:
366,257,66912,1,0,0:0:0:0:
404,262,67006,1,0,0:0:0:0:
436,288,67099,21,2,0:0:0:0:
364,384,67286,1,0,0:0:0:0:
264,216,67474,2,0,P|256:168|260:116,1,90,8|0,0:0|0:0,0:0:0:0:
368,32,67849,1,2,0:0:0:0:
244,140,68036,1,2,0:0:0:0:
384,48,68224,2,0,L|480:44,1,90,8|0,0:0|0:0,0:0:0:0:
228,156,68599,6,0,L|132:152,1,90,2|0,0:0|0:0,0:0:0:0:
32,4,68974,2,0,P|32:48|52:96,1,90,8|0,0:0|0:0,0:0:0:0:
12,248,69349,1,2,0:0:0:0:
146,132,69536,1,2,0:0:0:0:
220,296,69724,1,8,0:0:0:0:
116,232,69911,1,0,0:0:0:0:
296,136,70099,6,0,L|320:332,1,180,2|8,0:0|0:0,0:0:0:0:
420,212,70661,1,0,0:0:0:0:
296,136,70849,2,0,P|228:144|192:128,1,90,2|2,0:0|0:0,0:0:0:0:
44,216,71224,2,0,P|112:208|148:224,1,90,8|0,0:0|0:0,0:0:0:0:
228,352,71599,5,2,0:0:0:0:
90,287,71786,1,2,0:0:0:0:
208,137,71974,1,8,0:0:0:0:
232,248,72161,1,2,0:0:0:0:
76,176,72349,1,0,0:0:0:0:
240,56,72536,1,2,0:0:0:0:
124,12,72724,1,12,0:0:0:0:
168,152,72911,1,0,0:0:0:0:
168,152,73005,1,0,0:0:0:0:
168,152,73099,6,0,P|264:164|348:120,1,180,2|8,0:0|0:0,0:0:0:0:
240,36,73661,1,0,0:0:0:0:
168,152,73849,2,0,L|168:242,1,90,2|2,0:0|0:0,0:0:0:0:
120,336,74224,1,8,0:0:0:0:
263,270,74411,6,0,B|356:228|356:308|460:244,1,180,2|2,0:0|0:0,0:0:0:0:
387,180,74974,1,8,0:0:0:0:
314,345,75161,1,0,0:0:0:0:
437,256,75349,1,2,0:0:0:0:
288,184,75536,1,2,0:0:0:0:
352,272,75724,1,8,0:0:0:0:
328,120,75911,1,0,0:0:0:0:
192,224,76099,6,0,L|369:196,1,180,2|8,0:0|0:0,0:0:0:0:
248,120,76661,1,0,0:0:0:0:
236,76,76754,1,0,0:0:0:0:
235,31,76848,1,2,0:0:0:0:
369,196,77036,2,0,P|381:240|381:292,1,90,2|8,0:0|0:0,0:0:0:0:
240,348,77411,1,6,0:0:0:0:
248,356,77786,5,2,0:0:0:0:
280,168,77974,1,8,0:0:0:0:
152,272,78161,1,2,0:0:0:0:
292,272,78349,2,0,L|336:276,2,45,8|8|2,0:0|0:0|0:0,0:0:0:0:
200,188,78724,2,8,L|156:192,2,45,8|8|2,0:0|0:0|0:0,0:0:0:0:
276,52,79099,6,0,L|284:156,1,90,8|2,0:0|0:0,0:0:0:0:
408,92,79474,2,0,L|416:196,1,90,8|2,0:0|0:0,0:0:0:0:
336,344,79849,6,0,L|329:254,1,90,8|2,0:0|0:0,0:0:0:0:
204,304,80224,2,0,L|197:214,1,90,8|2,0:0|0:0,0:0:0:0:
136,64,80599,5,8,0:0:0:0:
216,116,80786,1,2,0:0:0:0:
112,252,80974,5,8,0:0:0:0:
124,160,81161,1,2,0:0:0:0:
296,176,81349,5,8,0:0:0:0:
204,212,81536,1,2,0:0:0:0:
136,64,81724,5,8,3:1:0:0:
132,112,81817,1,0,3:0:0:0:
124,160,81911,1,0,3:0:0:0:
120,208,82005,1,0,3:0:0:0:
112,252,82099,5,2,0:0:0:0:
328,316,82286,2,0,P|280:324|228:312,1,90,0|2,0:0|0:0,0:0:0:0:
100,240,82661,1,2,0:0:0:0:
344,328,82849,6,0,P|296:336|244:324,1,90,2|0,0:0|0:0,0:0:0:0:
88,228,83224,1,2,0:0:0:0:
356,80,83411,1,6,0:1:0:0:
364,88,83786,5,2,0:0:0:0:
352,172,83974,1,8,0:0:0:0:
460,104,84161,1,0,0:0:0:0:
272,32,84349,1,8,0:3:0:0:
312,256,84536,5,8,0:0:0:0:
87,300,84724,37,10,0:0:0:0:
64,264,84818,1,8,0:0:0:0:
72,220,84911,1,8,0:0:0:0:
108,196,85005,1,8,0:0:0:0:
152,200,85099,22,0,L|248:196,1,90,6|0,0:0|0:0,0:0:0:0:
324,104,85474,2,0,L|224:108,1,90,8|0,0:0|0:0,0:0:0:0:
328,204,85849,1,2,0:0:0:0:
412,136,86036,1,2,0:0:0:0:
232,216,86224,2,0,P|244:256|296:296,1,90,8|0,0:0|0:0,0:0:0:0:
476,232,86599,6,0,P|516:184|524:148,1,90,2|0,0:0|0:0,0:0:0:0:
376,260,86974,1,8,0:0:0:0:
412,136,87161,1,0,0:0:0:0:
278,288,87349,2,0,L|188:291,2,90,2|2|8,0:0|0:0|0:0,0:0:0:0:
372,344,87911,1,0,0:0:0:0:
412,136,88099,6,0,L|420:40,1,90,2|0,0:0|0:0,0:0:0:0:
456,208,88474,2,0,P|400:220|344:188,1,90,8|0,0:0|0:0,0:0:0:0:
256,156,88849,1,2,0:0:0:0:
332,60,89036,1,2,0:0:0:0:
288,232,89224,2,0,P|232:236|192:208,1,90,8|0,0:0|0:0,0:0:0:0:
419,46,89599,6,0,L|411:138,1,90,2|0,0:0|0:0,0:0:0:0:
456,208,89974,1,8,0:0:0:0:
256,156,90161,2,0,L|268:56,1,90,0|2,0:0|0:0,0:0:0:0:
348,292,90536,2,0,L|360:192,1,90,2|8,0:0|0:0,0:0:0:0:
412,136,90911,1,0,0:0:0:0:
408,348,91099,6,0,P|356:376|304:360,1,90,2|0,0:0|0:0,0:0:0:0:
180,240,91474,2,0,P|232:244|272:280,1,90,8|0,0:0|0:0,0:0:0:0:
327,372,91849,1,2,0:0:0:0:
200,320,92036,1,2,0:0:0:0:
148,156,92224,2,0,P|184:132|240:124,1,90,8|0,0:0|0:0,0:0:0:0:
376,196,92599,6,0,P|332:240|216:204,1,180,2|8,0:0|0:0,0:0:0:0:
100,280,93161,1,0,0:0:0:0:
100,280,93255,1,0,0:0:0:0:
100,280,93349,1,2,0:0:0:0:
136,148,93536,1,2,0:0:0:0:
296,180,93724,2,0,L|404:168,1,90,8|0,0:0|0:0,0:0:0:0:
284,272,94099,5,2,0:0:0:0:
228,128,94286,1,0,0:0:0:0:
124,228,94474,2,0,L|24:212,1,90,8|0,0:0|0:0,0:0:0:0:
208,320,94849,1,2,0:0:0:0:
276,192,95036,1,2,0:0:0:0:
412,268,95224,2,0,L|400:168,1,90,8|0,0:0|0:0,0:0:0:0:
424,44,95599,6,0,L|324:48,1,90,2|0,0:0|0:0,0:0:0:0:
112,80,95974,2,0,L|201:76,1,90,8|0,0:0|0:0,0:0:0:0:
384,132,96349,1,2,0:0:0:0:
316,248,96536,1,2,0:0:0:0:
132,140,96724,1,8,0:0:0:0:
88,144,96817,1,8,0:3:0:0:
55,174,96911,1,8,0:3:0:0:
48,218,97005,1,8,0:3:0:0:
55,262,97099,22,0,P|79:298|212:298,1,180,6|0,0:0|0:0,0:0:0:0:
305,228,97661,1,0,0:0:0:0:
210,108,97849,2,0,L|200:202,1,90,2|2,0:0|0:0,0:0:0:0:
309,316,98224,2,0,P|357:315|411:300,1,90,8|0,0:0|0:0,0:0:0:0:
387,137,98599,6,0,P|289:116|189:107,1,180,2|8,0:0|0:0,0:0:0:0:
100,120,99161,1,0,0:0:0:0:
56,208,99349,2,0,P|62:252|84:291,1,90,2|2,0:0|0:0,0:0:0:0:
220,360,99724,2,0,L|321:348,1,90,8|0,0:0|0:0,0:0:0:0:
423,256,100099,6,0,P|391:199|285:222,1,180,2|8,0:0|0:0,0:0:0:0:
207,277,100661,1,0,0:0:0:0:
204,169,100849,1,2,0:0:0:0:
100,197,101036,1,2,0:0:0:0:
290,214,101224,2,0,P|298:168|294:121,1,90,8|0,0:0|0:0,0:0:0:0:
83,108,101599,6,0,L|100:198,1,90,2|0,0:0|0:0,0:0:0:0:
204,304,101974,2,0,L|185:204,1,90,8|0,0:0|0:0,0:0:0:0:
232,61,102349,2,0,L|254:170,1,90,2|2,0:0|0:0,0:0:0:0:
286,277,102724,2,0,P|306:313|352:337,1,90,8|0,0:0|0:0,0:0:0:0:
490,234,103099,6,0,P|480:162|378:119,1,180,2|8,0:0|0:0,0:0:0:0:
280,144,103661,1,0,0:0:0:0:
240,244,103849,2,0,P|265:281|298:311,1,90,2|2,0:0|0:0,0:0:0:0:
440,308,104224,2,0,L|496:224,1,90,8|0,0:0|0:0,0:0:0:0:
383,118,104599,6,0,P|316:88|215:128,1,180,2|8,0:0|0:0,0:0:0:0:
211,265,105161,1,0,0:0:0:0:
310,201,105349,1,2,0:0:0:0:
221,123,105536,1,2,0:0:0:0:
85,167,105724,2,0,L|100:259,1,90,8|0,0:0|0:0,0:0:0:0:
272,293,106099,6,0,P|266:204|219:113,1,180,2|8,0:0|0:0,0:0:0:0:
141,55,106661,1,0,0:0:0:0:
32,132,106849,2,0,P|56:173|99:209,1,90,2|2,0:0|0:0,0:0:0:0:
251,209,107224,2,0,P|195:206|156:219,1,90,8|0,0:0|0:0,0:0:0:0:
53,341,107599,6,0,P|89:308|112:270,1,90,2|2,0:0|0:0,0:0:0:0:
251,209,107974,1,8,0:0:0:0:
356,189,108161,1,0,0:0:0:0:
228,312,108349,1,8,0:0:0:0:
276,104,108536,5,8,0:3:0:0:
324,288,108724,1,8,0:3:0:0:
176,136,108911,1,8,0:3:0:0:
288,72,109099,6,0,L|400:64,1,90,4|0,0:0|0:0,0:0:0:0:
180,168,109474,2,0,L|68:160,1,90,0|2,0:0|0:0,0:0:0:0:
240,268,109849,2,0,P|288:276|332:264,1,90,8|0,0:0|0:0,0:0:0:0:
376,248,110130,1,0,0:0:0:0:
376,248,110224,2,0,L|396:352,1,90,0|2,0:0|0:0,0:0:0:0:
280,164,110599,6,0,P|320:140|360:124,1,90,2|8,0:0|0:0,0:0:0:0:
476,132,110974,1,0,0:0:0:0:
376,248,111161,1,2,0:0:0:0:
280,164,111349,2,0,L|272:56,1,90,8|0,0:0|0:0,0:0:0:0:
168,104,111724,1,0,0:0:0:0:
340,240,111911,1,0,0:0:0:0:
340,240,112005,1,0,0:0:0:0:
340,240,112099,6,0,L|333:329,1,90,2|0,0:0|0:0,0:0:0:0:
408,384,112474,1,0,0:0:0:0:
460,304,112661,1,2,0:0:0:0:
252,324,112849,2,0,P|200:316|144:332,1,90,8|0,0:0|0:0,0:0:0:0:
120,348,113130,1,0,0:0:0:0:
120,348,113224,2,0,L|108:240,1,90,0|2,0:0|0:0,0:0:0:0:
180,48,113599,6,0,P|192:104|212:156,1,90,2|0,0:0|0:0,0:0:0:0:
264,208,113974,1,0,0:0:0:0:
104,132,114161,1,2,0:0:0:0:
180,48,114349,2,0,L|368:28,1,180,8|0,0:0|0:0,0:0:0:0:
492,184,115099,6,0,L|508:312,1,90,6|0,0:0|0:0,0:0:0:0:
416,336,115474,2,0,L|404:246,1,90,0|2,0:0|0:0,0:0:0:0:
308,200,115849,2,0,L|324:328,1,90,8|0,0:0|0:0,0:0:0:0:
240,360,116224,1,0,0:0:0:0:
236,348,116599,6,0,B|192:320|116:308,1,90,2|0,0:0|0:0,0:0:0:0:
48,284,116974,1,0,0:0:0:0:
136,120,117161,2,0,B|144:168|144:168|136:220,1,90,2|8,0:0|0:0,0:0:0:0:
220,56,117536,1,2,0:0:0:0:
292,156,117723,1,8,3:1:0:0:
320,176,117817,1,0,3:0:0:0:
356,180,117911,1,0,3:0:0:0:
388,172,118005,1,0,3:0:0:0:
416,152,118099,6,0,L|512:160,1,90,6|0,0:0|0:0,0:0:0:0:
304,256,118474,2,0,L|208:264,1,90,8|0,0:0|0:0,0:0:0:0:
320,68,118849,2,0,L|416:60,1,90,2|2,0:0|0:0,0:0:0:0:
200,144,119224,2,0,L|104:136,1,90,8|0,0:0|0:0,0:0:0:0:
260,256,119599,6,0,L|264:364,1,90,2|2,0:0|0:0,0:0:0:0:
364,176,119974,2,0,L|372:68,1,90,8|0,0:0|0:0,0:0:0:0:
232,280,120349,2,0,L|236:388,1,90,2|2,0:0|0:0,0:0:0:0:
400,156,120724,2,0,L|403:66,1,90,8|0,0:0|0:0,0:0:0:0:
276,128,121099,5,6,0:0:0:0:
376,296,121286,1,2,0:0:0:0:
196,264,121474,1,8,0:0:0:0:
304,200,121661,1,0,0:0:0:0:
252,368,121849,1,2,0:0:0:0:
192,136,122036,1,2,0:0:0:0:
296,276,122224,1,8,0:0:0:0:
116,280,122411,1,0,0:0:0:0:
272,172,122599,6,0,L|260:248,3,45,0|0|0|0,3:0|3:0|3:0|3:0,0:0:0:0:
240,68,122974,2,0,L|232:23,3,45,0|0|0|0,3:0|3:0|3:0|3:0,0:0:0:0:
176,152,123349,5,0,3:0:0:0:
184,200,123442,1,0,3:0:0:0:
216,232,123536,1,0,3:0:0:0:
256,252,123630,1,0,3:0:0:0:
300,260,123724,2,0,L|344:256,1,45,8|0,0:0|0:0,0:0:0:0:
320,152,123911,2,0,L|276:148,1,45,0|0,0:0|0:0,0:0:0:0:
124,232,124099,22,0,P|116:284|120:328,1,90,4|0,0:0|0:0,0:0:0:0:
204,140,124474,2,0,P|176:96|144:64,1,90,8|0,0:0|0:0,0:0:0:0:
48,228,124849,1,2,0:0:0:0:
220,280,125036,1,0,0:0:0:0:
48,228,125224,2,0,P|40:176|48:132,1,90,8|0,0:0|0:0,0:0:0:0:
140,304,125599,5,2,0:0:0:0:
260,196,125786,1,0,0:0:0:0:
188,372,125974,2,0,P|144:384|96:372,1,90,8|0,0:0|0:0,0:0:0:0:
188,188,126349,5,0,3:0:0:0:
200,164,126442,1,0,3:0:0:0:
208,136,126536,1,0,3:0:0:0:
208,108,126630,1,0,3:0:0:0:
204,80,126724,2,0,L|196:32,1,45,8|0,0:0|0:0,0:0:0:0:
112,0,126911,2,0,L|120:60,1,45,0|0,0:0|0:0,0:0:0:0:
208,136,127099,6,0,P|252:144|304:132,1,90,2|0,0:0|0:0,0:0:0:0:
444,32,127474,2,0,P|400:24|352:32,1,90,8|0,0:0|0:0,0:0:0:0:
324,208,127849,1,2,0:0:0:0:
244,48,128036,1,2,0:0:0:0:
148,220,128224,2,0,P|104:228|52:216,1,90,8|0,0:0|0:0,0:0:0:0:
240,136,128599,5,2,0:0:0:0:
220,316,128786,1,2,0:0:0:0:
104,144,128974,1,8,0:0:0:0:
228,232,129161,1,0,0:0:0:0:
228,232,129255,1,0,0:0:0:0:
228,232,129349,1,2,0:0:0:0:
308,104,129536,1,2,0:0:0:0:
372,272,129724,2,0,P|380:320|368:368,1,90,8|0,0:0|0:0,0:0:0:0:
328,184,130099,6,0,P|376:176|424:188,1,90,2|0,0:0|0:0,0:0:0:0:
228,232,130474,2,0,P|184:240|132:228,1,90,8|0,0:0|0:0,0:0:0:0:
140,231,130755,1,0,0:0:0:0:
140,231,130849,1,2,0:0:0:0:
240,104,131036,1,2,0:0:0:0:
292,276,131224,1,8,0:0:0:0:
368,132,131411,1,0,0:0:0:0:
384,332,131599,5,2,0:0:0:0:
280,232,131786,1,0,0:0:0:0:
468,172,131974,2,0,P|480:128|472:80,1,90,8|0,0:0|0:0,0:0:0:0:
473,84,132255,1,0,0:0:0:0:
473,84,132349,1,2,0:0:0:0:
384,240,132536,1,2,0:0:0:0:
276,96,132724,2,0,P|268:40|280:4,1,90,8|0,0:0|0:0,0:0:0:0:
388,152,133099,5,2,0:0:0:0:
300,276,133286,1,2,0:0:0:0:
180,128,133474,1,8,0:0:0:0:
312,188,133661,1,0,0:0:0:0:
220,312,133849,5,2,0:0:0:0:
124,192,134036,1,2,0:0:0:0:
300,276,134224,1,8,0:0:0:0:
136,348,134411,1,2,0:0:0:0:
220,160,134599,5,2,0:0:0:0:
284,356,134786,1,2,0:0:0:0:
348,160,134974,1,8,0:0:0:0:
144,84,135161,1,6,0:0:0:0:
144,84,135536,5,2,0:0:0:0:
284,124,135724,1,8,0:0:0:0:
324,128,135817,1,8,0:0:0:0:
364,116,135911,1,8,3:0:0:0:
392,88,136005,1,8,3:0:0:0:
420,60,136099,6,0,P|432:108|420:164,1,90,6|0,0:0|0:0,0:0:0:0:
368,300,136474,2,0,P|348:248|352:208,1,90,8|0,0:0|0:0,0:0:0:0:
484,320,136849,1,2,0:0:0:0:
308,364,137036,1,2,0:0:0:0:
484,320,137224,2,0,P|496:272|488:220,1,90,8|0,0:0|0:0,0:0:0:0:
372,96,137599,37,2,0:0:0:0:
408,252,137786,1,0,0:0:0:0:
220,220,137974,2,0,P|212:268|224:312,1,90,8|0,0:0|0:0,0:0:0:0:
292,144,138349,5,0,3:0:0:0:
304,120,138442,1,0,3:0:0:0:
308,92,138536,1,0,3:0:0:0:
304,64,138630,1,0,3:0:0:0:
292,40,138724,2,0,L|264:4,1,45,8|0,0:0|0:0,0:0:0:0:
168,20,138911,2,0,L|200:60,1,45,0|0,0:0|0:0,0:0:0:0:
304,120,139099,38,0,P|356:128|404:116,1,90,2|0,0:0|0:0,0:0:0:0:
220,172,139474,2,0,P|168:168|116:176,1,90,8|0,0:0|0:0,0:0:0:0:
300,236,139849,1,2,0:0:0:0:
124,272,140036,1,2,0:0:0:0:
300,236,140224,2,0,P|352:232|400:244,1,90,8|0,0:0|0:0,0:0:0:0:
208,292,140599,5,2,0:0:0:0:
292,112,140786,1,2,0:0:0:0:
360,336,140974,1,8,0:0:0:0:
224,192,141161,1,0,0:0:0:0:
224,192,141255,1,0,0:0:0:0:
224,192,141349,1,2,0:0:0:0:
252,368,141536,1,2,0:0:0:0:
408,216,141724,2,0,P|420:172|412:116,1,90,8|0,0:0|0:0,0:0:0:0:
280,8,142099,6,0,P|272:52|284:104,1,90,6|0,0:0|0:0,0:0:0:0:
460,56,142474,2,0,P|412:48|360:60,1,90,8|0,0:0|0:0,0:0:0:0:
304,204,142849,1,2,0:0:0:0:
184,80,143036,1,2,0:0:0:0:
140,248,143224,2,0,P|136:300|152:344,1,90,8|0,0:0|0:0,0:0:0:0:
224,164,143599,5,2,0:0:0:0:
52,116,143786,1,0,0:0:0:0:
52,312,143974,1,8,0:0:0:0:
132,152,144161,1,0,0:0:0:0:
132,152,144255,1,0,0:0:0:0:
132,152,144349,1,2,0:0:0:0:
220,308,144536,1,2,0:0:0:0:
316,156,144724,2,0,P|324:108|312:64,1,90,8|0,0:0|0:0,0:0:0:0:
208,216,145099,5,2,0:0:0:0:
324,356,145286,1,2,0:0:0:0:
400,172,145474,1,8,0:0:0:0:
284,272,145661,1,0,0:0:0:0:
314,68,145849,1,2,0:0:0:0:
376,256,146036,1,2,0:0:0:0:
412,60,146224,1,8,0:0:0:0:
192,24,146411,1,2,0:0:0:0:
184,268,146599,5,12,0:0:0:0:
280,112,146786,1,0,3:0:0:0:
296,92,146880,1,0,3:0:0:0:
314,68,146974,1,0,3:0:0:0:
472,156,147161,6,0,P|496:240|456:332,1,180,6|0,0:0|0:0,0:0:0:0:
232,170,147724,5,8,3:1:0:0:
204,159,147817,1,0,3:0:0:0:
176,148,147911,1,0,3:0:0:0:
148,137,148005,1,0,3:0:0:0:
121,127,148099,54,0,B|152:261|152:261|202:305,1,180,6|8,0:0|0:0,0:0:0:0:
300,215,148661,1,0,0:0:0:0:
197,86,148849,2,0,P|153:96|120:126,1,90,8|2,0:0|0:0,0:0:0:0:
308,292,149224,2,0,P|362:264|376:216,1,90,8|2,0:0|0:0,0:0:0:0:
311,37,149599,6,0,B|290:173|290:173|300:215,1,180,8|8,0:0|0:0,0:0:0:0:
377,348,150161,1,2,0:0:0:0:
197,264,150349,2,0,L|98:262,1,90,8|2,0:0|0:0,0:0:0:0:
287,349,150724,2,0,L|386:347,1,90,8|2,0:0|0:0,0:0:0:0:
197,264,151099,6,0,P|215:190|141:111,1,180,8|8,0:0|0:0,0:0:0:0:
56,376,151661,1,0,0:0:0:0:
121,205,151849,1,8,0:0:0:0:
121,205,152036,1,2,0:0:0:0:
269,327,152224,1,8,0:0:0:0:
269,327,152411,1,2,0:0:0:0:
391,179,152599,6,0,B|403:131|403:131|400:70,1,90,8|2,0:0|0:0,0:0:0:0:
242,54,152974,2,0,B|229:101|229:101|233:163,1,90,8|2,0:0|0:0,0:0:0:0:
301,293,153349,2,0,P|360:231|443:252,1,180,8|8,0:0|0:0,0:0:0:0:
422,231,153817,1,0,3:0:0:0:
398,212,153911,1,2,3:0:0:0:
372,195,154005,1,0,3:0:0:0:
348,176,154099,5,12,0:0:0:0:
180,184,154286,1,0,0:0:0:0:
358,94,154474,1,0,0:0:0:0:
136,54,154661,1,0,0:0:0:0:
376,54,154849,5,0,0:0:0:0:
154,94,155036,1,0,0:0:0:0:
340,134,155224,1,0,0:0:0:0:
180,184,155411,1,0,0:0:0:0:
428,119,155599,5,0,0:0:0:0:
357,352,155786,1,0,0:0:0:0:
294,77,155974,5,0,0:0:0:0:
460,255,156161,1,0,0:0:0:0:
222,311,156349,5,8,0:3:0:0:
178,313,156437,1,8,0:3:0:0:
140,290,156526,1,8,0:3:0:0:
123,250,156615,1,8,0:3:0:0:
131,206,156704,1,8,0:3:0:0:
140,162,156792,1,8,0:3:0:0:
122,121,156881,1,8,0:3:0:0:
82,104,156970,1,0,0:0:0:0:
256,192,157059,12,2,158597,0:0:0:0:
135,95,164599,102,0,L|146:199,1,90,6|0,0:1|0:0,0:0:0:0:
228,255,164974,1,2,0:0:0:0:
207,51,165161,2,0,P|149:93|48:51,1,180,0|0,0:0|0:0,0:0:0:0:
216,140,165724,2,0,L|206:50,1,90,2|0,0:0|0:0,0:0:0:0:
330,157,166099,5,2,0:0:0:0:
228,255,166286,2,0,B|171:298|102:213|45:266,1,180,0|0,0:0|0:0,0:0:0:0:
188,171,166849,1,2,0:0:0:0:
188,171,167036,1,0,0:0:0:0:
94,326,167224,1,2,0:0:0:0:
188,171,167412,1,0,0:0:0:0:
276,330,167599,5,6,0:1:0:0:
366,333,167786,1,0,0:0:0:0:
324,253,167974,1,2,0:0:0:0:
276,330,168161,1,0,0:0:0:0:
414,256,168349,2,0,P|455:186|388:84,1,180,2|2,0:0|0:0,0:0:0:0:
316,38,168911,1,0,0:0:0:0:
214,110,169099,6,0,L|152:175,1,90,2|0,0:0|0:0,0:0:0:0:
359,175,169474,2,0,L|297:110,1,90,2|0,0:0|0:0,0:0:0:0:
124,89,169849,1,2,0:0:0:0:
256,192,170036,1,0,0:0:0:0:
388,89,170224,1,2,0:0:0:0:
256,192,170411,1,0,0:0:0:0:
388,295,170599,6,0,B|424:308|418:342|378:354|354:344|340:320|348:297|372:278|372:278|403:253|413:212|413:212|485:204|494:118,1,360,4|2,0:1|0:0,0:0:0:0:
336,26,171536,1,0,0:0:0:0:
409,132,171724,2,0,L|379:131,7,22.5,2|0|0|0|0|0|0|0,0:0|0:0|0:0|0:0|0:0|0:0|0:0|0:0,0:0:0:0:
382,145,172099,6,0,B|220:138|220:138|185:152|185:152|94:147,1,270,6|8,0:1|0:3,0:0:0:0:
114,148,173036,5,0,0:0:0:0:
255,61,173224,2,0,L|361:66,1,90,10|0,0:3|0:0,0:0:0:0:
256,193,173599,38,0,P|192:208|143:186,2,116.999994644165,2|0|2,0:0|0:0|0:0,0:0:0:0:
322,118,174724,1,0,0:0:0:0:
417,142,175099,2,0,B|432:198|432:198|430:257,1,116.999994644165,2|0,0:0|0:0,0:0:0:0:
317,333,175849,2,0,B|302:277|302:277|304:218,1,116.999994644165,2|0,0:0|0:0,0:0:0:0:
287,101,176599,6,0,P|206:77|158:95,2,116.999994644165,2|0|2,0:0|0:0|0:0,0:0:0:0:
358,170,177724,1,0,0:0:0:0:
352,264,178099,2,0,L|308:378,1,116.999994644165,2|0,0:0|0:0,0:0:0:0:
228,272,178849,2,0,L|184:158,1,116.999994644165,2|0,0:0|0:0,0:0:0:0:
264,65,179599,5,2,0:0:0:0:
264,65,179974,2,0,B|249:125|249:125|274:187,2,116.999994644165,0|2|2,0:0|0:0|0:0,0:0:0:0:
401,66,181099,1,2,0:0:0:0:
401,66,181474,2,0,B|416:126|416:126|396:178,2,116.999994644165,0|2|2,0:0|0:0|0:0,0:0:0:0:
294,38,182599,5,2,0:0:0:0:
294,38,182974,2,0,L|227:86,1,58.4999973220826,0|0,0:0|0:0,0:0:0:0:
246,85,183255,1,0,0:0:0:0:
246,99,183349,2,0,L|179:147,1,58.4999973220826,2|0,0:0|0:0,0:0:0:0:
115,177,183724,2,0,L|182:225,1,58.4999973220826,2|0,0:0|0:0,0:0:0:0:
243,269,184099,6,0,P|323:281|374:239,1,135.000005149842,6|0,0:0|0:0,0:0:0:0:
341,91,184849,2,0,P|290:154|301:219,1,135.000005149842,6|0,0:0|0:0,0:0:0:0:
364,252,185411,1,0,0:0:0:0:
446,266,185599,6,0,P|416:190|354:167,1,135.000005149842,6|2,0:1|0:0,0:0:0:0:
274,205,186161,1,0,0:0:0:0:
284,299,186349,2,0,L|321:376,1,67.5000025749208,8|0,0:0|0:0,0:0:0:0:
365,281,186724,2,0,L|378:202,1,67.5000025749208,0|2,0:0|0:0,0:0:0:0:
387,95,187099,6,0,B|349:98|349:98|302:92,1,67.5000025749208,2|8,0:0|0:0,0:0:0:0:
224,76,187474,1,2,0:0:0:0:
224,76,187661,1,0,0:0:0:0:
163,144,187849,2,0,P|176:204|210:292,1,135.000005149842,8|0,0:0|0:0,0:0:0:0:
296,296,188411,1,0,0:0:0:0:
378,237,188599,6,0,B|369:175|369:175|307:130,1,135.000005149842,2|2,0:0|0:0,0:0:0:0:
211,111,189161,1,0,0:0:0:0:
194,280,189349,1,8,0:0:0:0:
254,201,189536,1,0,0:0:0:0:
364,226,189724,2,0,P|418:217|448:192,1,67.5000025749208,0|2,0:0|0:0,0:0:0:0:
512,111,190099,5,2,0:0:0:0:
372,91,190286,1,8,0:0:0:0:
317,226,190474,1,2,0:0:0:0:
216,112,190661,1,2,0:0:0:0:
217,264,190849,1,8,0:0:0:0:
217,264,190943,1,8,0:0:0:0:
217,264,191037,1,8,0:0:0:0:
124,169,191224,2,0,P|106:109|113:82,1,67.5000025749208,8|0,0:0|0:0,0:0:0:0:
211,25,191599,6,0,B|257:18|257:18|297:-1,2,90,6|0|8,0:0|0:0|0:0,0:0:0:0:
88,68,192161,2,0,P|105:130|89:166,1,90,4|0,0:0|0:0,0:0:0:0:
116,272,192536,1,0,0:0:0:0:
134,295,192630,1,0,0:0:0:0:
167,315,192724,2,0,L|271:330,1,90,12|0,0:0|0:0,0:0:0:0:
320,257,193099,6,0,P|319:200|278:171,1,90,2|8,0:0|0:3,0:0:0:0:
272,165,193380,1,8,0:3:0:0:
272,165,193474,1,8,0:3:0:0:
188,28,193661,2,0,L|296:24,1,90,6|2,0:0|0:0,0:0:0:0:
384,44,194036,1,0,0:0:0:0:
390,169,194224,1,8,0:0:0:0:
410,178,194317,1,8,0:0:0:0:
431,187,194411,1,8,0:3:0:0:
451,196,194505,1,8,0:3:0:0:
472,205,194599,5,2,0:0:0:0:
349,348,194786,1,0,0:0:0:0:
271,196,194974,1,2,0:0:0:0:
415,284,195161,1,0,0:0:0:0:
217,305,195349,1,2,0:0:0:0:
131,135,195536,1,0,0:0:0:0:
86,303,195724,1,2,0:0:0:0:
216,152,195911,1,0,0:0:0:0:
370,186,196099,5,8,0:0:0:0:
390,176,196192,1,0,0:0:0:0:
407,162,196286,1,0,0:0:0:0:
419,143,196380,1,8,0:0:0:0:
426,122,196474,2,0,L|418:62,3,45,2|0|8|0,0:0|0:0|0:0|0:0,0:0:0:0:
391,45,196849,21,0,3:0:0:0:
367,68,196942,1,0,3:0:0:0:
339,86,197036,1,0,3:0:0:0:
308,98,197130,1,0,3:0:0:0:
274,104,197224,1,0,3:0:0:0:
241,102,197317,1,0,3:0:0:0:
208,94,197411,1,0,3:0:0:0:
178,79,197505,1,0,3:0:0:0:
151,58,197599,21,8,0:0:0:0:
168,184,197786,1,0,0:0:0:0:
185,310,197974,1,8,0:0:0:0:
56,140,198161,5,0,0:0:0:0:
56,140,198255,1,0,0:0:0:0:
56,140,198349,1,2,0:0:0:0:
73,266,198536,1,2,0:0:0:0:
168,184,198724,1,8,0:0:0:0:
192,316,198911,5,0,0:0:0:0:
192,316,199005,1,0,0:0:0:0:
192,316,199099,1,2,0:0:0:0:
324,288,199286,1,2,0:0:0:0:
456,260,199474,1,8,0:0:0:0:
392,72,199661,6,0,L|384:128,1,45,0|0,0:0|0:0,0:0:0:0:
372,204,199849,1,2,0:0:0:0:
300,48,200036,1,2,0:0:0:0:
252,240,200224,2,0,B|196:260|144:224,1,90,8|0,0:0|0:0,0:0:0:0:
208,60,200599,6,0,B|220:104|220:104|216:168,1,90,2|0,0:0|0:0,0:0:0:0:
176,360,200974,1,8,0:0:0:0:
60,176,201161,2,0,L|64:128,2,45,0|0|2,0:0|0:0|0:0,0:0:0:0:
80,300,201536,1,2,0:0:0:0:
201,112,201724,1,8,0:0:0:0:
269,288,201911,2,0,L|265:336,2,45,0|0|2,0:0|0:0|0:0,0:0:0:0:
80,300,202286,5,2,0:0:0:0:
256,192,202474,1,8,0:0:0:0:
60,176,202661,2,0,L|56:72,1,90,6|0,0:0|0:0,0:0:0:0:
56,86,202942,1,0,0:0:0:0:
56,86,203036,1,2,0:0:0:0:
268,288,203224,5,8,0:0:0:0:
312,99,203411,2,0,L|304:143,1,45,0|0,0:0|0:0,0:0:0:0:
276,272,203599,37,2,0:0:0:0:
176,180,203786,1,0,0:0:0:0:
336,180,203974,1,8,0:0:0:0:
240,368,204161,2,0,L|192:372,2,45,0|0|2,0:0|0:0|0:0,0:0:0:0:
236,104,204536,1,2,0:0:0:0:
87,177,204724,6,0,P|135:185|183:177,1,90,8|0,0:0|0:0,0:0:0:0:
175,179,205005,1,0,0:0:0:0:
175,179,205099,1,2,0:0:0:0:
152,40,205286,1,2,0:0:0:0:
64,176,205474,1,8,0:0:0:0:
140,332,205661,2,0,L|188:312,1,45,0|0,0:0|0:0,0:0:0:0:
256,272,205849,5,2,0:0:0:0:
44,80,206036,1,2,0:0:0:0:
28,256,206224,1,8,0:0:0:0:
196,100,206411,1,0,0:0:0:0:
196,100,206505,1,0,0:0:0:0:
196,100,206599,5,2,0:0:0:0:
256,272,206786,1,2,0:0:0:0:
380,48,206974,6,0,L|276:52,1,90,8|0,0:0|0:0,0:0:0:0:
290,51,207255,1,0,0:0:0:0:
290,51,207349,1,2,0:0:0:0:
231,184,207536,1,2,0:0:0:0:
488,340,207724,6,0,L|398:346,1,90,8|0,0:0|0:0,0:0:0:0:
339,304,208005,1,0,0:0:0:0:
339,304,208099,2,0,L|327:236,1,45,2|0,0:0|0:0,0:0:0:0:
435,192,208286,2,0,L|427:236,1,45,8|0,0:0|0:0,0:0:0:0:
234,279,208474,1,2,0:0:0:0:
219,260,208567,1,8,0:0:0:0:
211,236,208661,1,8,0:0:0:0:
215,208,208755,1,0,0:0:0:0:
231,184,208849,5,2,0:0:0:0:
195,164,208942,1,8,0:0:0:0:
179,128,209036,1,8,0:0:0:0:
183,88,209130,1,0,0:0:0:0:
211,60,209224,2,0,L|267:52,1,45,10|0,0:0|0:0,0:0:0:0:
275,177,209411,2,0,L|219:185,1,45,8|0,0:0|0:0,0:0:0:0:
60,164,209599,6,0,L|52:312,1,135,6|0,0:0|0:0,0:0:0:0:
68,312,209974,1,8,0:0:0:0:
252,272,210161,2,0,L|296:264,2,45,0|0|2,0:0|0:0|0:0,0:0:0:0:
220,124,210536,1,2,0:0:0:0:
184,332,210724,6,0,P|212:356|276:360,1,90,8|0,0:0|0:0,0:0:0:0:
336,344,211005,1,0,0:0:0:0:
336,344,211099,5,2,0:0:0:0:
392,152,211286,2,0,L|348:144,2,45,2|0|8,0:0|0:0|0:0,0:0:0:0:
456,348,211661,2,0,L|460:296,1,45,0|8,0:0|0:3,0:0:0:0:
468,216,211849,1,2,0:0:0:0:
300,256,212036,1,2,0:0:0:0:
464,64,212224,2,0,B|408:52|408:52|316:48,1,135,8|0,0:0|0:0,0:0:0:0:
316,60,212599,5,2,0:0:0:0:
344,192,212786,1,2,0:0:0:0:
220,40,212974,5,8,0:0:0:0:
216,256,213161,1,0,0:0:0:0:
216,256,213255,1,8,0:3:0:0:
216,256,213349,1,2,0:0:0:0:
92,104,213536,1,2,0:0:0:0:
344,192,213724,6,0,L|332:308,1,90,8|0,0:0|0:0,0:0:0:0:
97,230,214099,2,0,L|104:288,1,45,2|0,3:0|3:0,0:0:0:0:
216,256,214286,2,0,L|209:198,1,45,8|8,3:0|3:0,0:0:0:0:
76,228,214474,2,0,L|69:286,1,45,8|8,3:0|3:0,0:0:0:0:
237,258,214661,2,0,B|248:160|248:160|276:192,1,135,6|0,0:0|0:0,0:0:0:0:
326,261,215036,6,0,L|318:365,1,90,0|8,0:0|0:0,0:0:0:0:
338,345,215317,1,8,0:0:0:0:
353,340,215411,1,8,0:3:0:0:
368,336,215505,1,8,0:3:0:0:
384,332,215599,5,12,0:0:0:0:
182,337,215786,1,0,0:0:0:0:
372,232,215974,5,8,0:0:0:0:
180,312,216161,1,2,0:0:0:0:
340,148,216349,5,8,0:0:0:0:
168,288,216536,1,2,0:0:0:0:
168,288,216630,1,0,0:0:0:0:
168,288,216724,1,8,0:0:0:0:
384,332,216911,1,2,0:0:0:0:
200,200,217099,5,8,0:0:0:0:
404,312,217286,1,2,0:0:0:0:
264,136,217474,5,8,0:0:0:0:
432,304,217661,1,2,0:0:0:0:
168,288,217849,1,8,0:0:0:0:
352,184,218036,1,2,0:0:0:0:
352,184,218130,1,0,0:0:0:0:
352,184,218224,1,8,0:0:0:0:
336,364,218411,1,2,0:0:0:0:
200,312,218599,21,12,0:0:0:0:
392,288,218786,1,2,0:0:0:0:
148,208,218974,5,8,0:0:0:0:
352,184,219161,1,2,0:0:0:0:
120,96,219349,37,8,0:0:0:0:
420,64,219536,1,2,3:0:0:0:
420,72,219630,1,0,3:0:0:0:
418,80,219724,1,8,3:0:0:0:
415,88,219817,1,8,3:0:0:0:
412,96,219911,2,0,L|368:100,1,45
272,188,220099,22,0,L|264:52,1,108,6|0,0:0|0:0,0:0:0:0:
276,72,220474,1,0,0:0:0:0:
196,172,220661,1,2,0:0:0:0:
196,172,220849,2,0,L|127:176,2,48,8|0|0,0:0|0:0|0:0,0:0:0:0:
272,188,221224,2,0,L|372:196,1,72,0|8,0:0|0:3,0:0:0:0:
343,193,221505,1,8,0:3:0:0:
343,193,221599,5,2,0:0:0:0:
188,80,221786,1,8,0:0:0:0:
204,264,222161,5,8,0:3:0:0:
325,197,222536,5,8,0:3:0:0:
207,111,222724,1,8,0:3:0:0:
218,243,222911,1,8,0:3:0:0:
379,76,223099,5,4,2:0:0:0:
432,320,233599,118,0,P|464:275|452:163,1,144
276,111,234349,2,0,P|279:180|331:227,1,144,0|0,0:0|0:0,0:0:0:0:
432,320,235099,21,0,3:0:0:0:
412,312,235192,1,0,3:0:0:0:
388,312,235286,1,0,3:0:0:0:
364,320,235380,1,0,3:0:0:0:
344,332,235474,1,0,3:0:0:0:
320,336,235567,1,0,3:0:0:0:
296,336,235661,1,0,3:0:0:0:
280,324,235755,1,0,3:0:0:0:
268,304,235849,37,0,3:0:0:0:
281,275,235942,1,0,3:0:0:0:
282,243,236036,1,0,3:0:0:0:
269,214,236130,1,0,3:0:0:0:
246,192,236224,1,0,3:0:0:0:
215,183,236317,1,0,3:0:0:0:
184,187,236411,1,0,3:0:0:0:
157,205,236505,1,0,3:0:0:0:
140,232,236599,22,0,B|124:184|124:184|132:100,1,107.999996704102,14|0,0:2|0:0,0:0:0:0:
184,64,236880,1,0,0:0:0:0:
184,64,236974,2,0,P|244:80|304:76,1,107.999996704102,8|0,0:0|0:0,0:0:0:0:
388,208,237349,2,0,P|328:192|268:196,1,107.999996704102,2|2,0:0|0:0,0:0:0:0:
84,288,237724,1,8,0:0:0:0:
320,272,237911,1,0,0:0:0:0:
220,116,238099,5,2,0:0:0:0:
171,271,238286,1,2,0:0:0:0:
171,271,238380,1,0,0:0:0:0:
171,271,238474,2,0,L|178:379,1,107.999996704102,8|0,0:0|0:0,0:0:0:0:
80,136,238849,1,0,3:0:0:0:
124,112,238942,1,0,3:0:0:0:
172,108,239036,1,0,3:0:0:0:
220,116,239130,1,0,3:0:0:0:
264,140,239224,5,8,0:0:0:0:
292,180,239317,1,0,0:0:0:0:
300,228,239411,1,0,0:0:0:0:
292,276,239505,1,0,0:0:0:0:
264,316,239599,6,0,P|332:304|388:316,1,107.999996704102,2|0,0:0|0:0,0:0:0:0:
472,344,239880,1,0,0:0:0:0:
472,344,239974,2,0,L|488:228,1,107.999996704102,8|0,0:0|0:0,0:0:0:0:
360,128,240349,2,0,L|376:240,1,107.999996704102,2|2,0:0|0:0,0:0:0:0:
472,108,240724,2,0,L|486:0,1,107.999996704102,8|0,0:0|0:0,0:0:0:0:
320,229,241099,5,2,0:0:0:0:
359,73,241286,1,0,0:0:0:0:
476,192,241474,1,8,0:0:0:0:
280,364,241661,5,0,0:0:0:0:
242,209,241848,1,2,0:0:0:0:
397,248,242036,1,2,0:0:0:0:
113,170,242224,5,8,0:0:0:0:
268,132,242411,1,0,0:0:0:0:
280,364,242599,5,6,0:2:0:0:
72,252,242786,1,0,0:0:0:0:
72,252,242880,1,0,0:0:0:0:
72,252,242974,2,0,L|75:144,1,107.999996704102,8|0,0:0|0:0,0:0:0:0:
200,36,243349,1,2,0:0:0:0:
359,73,243536,1,2,0:0:0:0:
244,208,243724,1,8,0:0:0:0:
403,171,243911,1,0,0:0:0:0:
332,312,244099,6,0,P|276:292|220:288,1,107.999996704102,2|0,0:0|0:0,0:0:0:0:
152,316,244380,1,0,0:0:0:0:
152,316,244474,2,0,L|136:232,1,53.9999983520508,8|0,0:0|0:0,0:0:0:0:
116,188,244661,2,0,B|168:180|168:180|264:216|264:216|332:208,1,215.999993408203,0|2,0:0|0:0,0:0:0:0:
440,96,245224,1,8,0:0:0:0:
280,128,245411,2,0,P|237:179|300:300,1,215.999993408203,0|0,0:0|0:0,0:0:0:0:
344,56,245974,2,0,B|276:8|208:64|208:64|156:112|80:120|72:16|132:24,1,323.999990112305,8|2,0:0|0:0,0:0:0:0:
280,128,246724,1,8,0:0:0:0:
440,96,246911,1,2,0:0:0:0:
324,212,247099,6,0,P|304:260|300:320,1,107.999996704102,6|0,0:2|0:0,0:0:0:0:
456,360,247474,1,8,0:0:0:0:
383,152,247661,2,0,P|335:132|275:128,1,107.999996704102,6|0,0:0|0:0,0:0:0:0:
164,240,248036,1,2,0:0:0:0:
20,164,248224,1,8,3:1:0:0:
8,136,248317,1,0,3:0:0:0:
4,104,248411,1,10,3:0:0:0:
12,72,248505,1,8,3:0:0:0:
32,48,248599,6,0,P|88:40|152:44,1,107.999996704102,4|0,0:0|0:0,0:0:0:0:
228,96,248880,1,0,0:0:0:0:
228,96,248974,2,0,L|348:48,1,107.999996704102,8|0,0:0|0:0,0:0:0:0:
439,107,249349,1,2,0:0:0:0:
296,160,249536,1,2,0:0:0:0:
412,32,249724,1,8,0:0:0:0:
476,184,249911,1,0,0:0:0:0:
328,55,250099,5,2,0:0:0:0:
508,56,250286,1,0,0:0:0:0:
508,56,250380,1,0,0:0:0:0:
508,56,250474,2,0,P|480:108|472:160,1,107.999996704102,8|0,0:0|0:0,0:0:0:0:
508,312,250849,1,0,3:0:0:0:
464,292,250942,1,0,3:0:0:0:
416,288,251036,1,0,3:0:0:0:
368,296,251130,1,0,3:0:0:0:
324,316,251224,5,8,0:0:0:0:
276,324,251317,1,0,0:0:0:0:
228,324,251411,1,0,0:0:0:0:
184,304,251505,1,0,0:0:0:0:
156,264,251599,6,0,L|168:152,1,107.999996704102,2|0,0:0|0:0,0:0:0:0:
216,92,251880,1,0,0:0:0:0:
216,92,251974,2,0,P|160:112|104:112,1,107.999996704102,8|0,0:0|0:0,0:0:0:0:
51,285,252349,2,0,P|107:265|163:265,1,107.999996704102,2|2,0:0|0:0,0:0:0:0:
324,316,252724,1,8,0:0:0:0:
252,120,252911,1,0,0:0:0:0:
426,320,253099,5,2,0:0:0:0:
214,275,253286,1,0,0:0:0:0:
214,275,253380,1,0,0:0:0:0:
214,275,253474,1,8,0:0:0:0:
333,76,253661,5,0,0:0:0:0:
227,195,253849,1,2,0:0:0:0:
382,233,254036,1,2,0:0:0:0:
95,169,254224,5,8,0:0:0:0:
331,167,254411,1,8,0:0:0:0:
331,167,254505,1,8,0:0:0:0:
331,167,254599,6,0,L|223:195,1,107.999996704102,6|0,0:0|0:0,0:0:0:0:
72,296,254974,2,0,P|128:276|188:272,1,107.999996704102,8|0,0:0|0:0,0:0:0:0:
328,332,255349,1,2,0:0:0:0:
388,116,255536,1,2,0:0:0:0:
300,252,255724,1,8,0:0:0:0:
464,244,255911,1,0,0:0:0:0:
244,192,256099,6,0,P|187:176|124:172,1,107.999996704102,2|0,0:0|0:0,0:0:0:0:
72,296,256474,1,8,0:0:0:0:
300,252,256661,2,0,P|351:224|400:183,1,107.999996704102,0|2,0:0|0:0,0:0:0:0:
468,52,257036,1,2,0:0:0:0:
216,60,257224,1,8,0:0:0:0:
141,270,257411,1,0,0:0:0:0:
65,330,257599,6,2,P|49:238|165:174,1,215.999993408203,2|10,0:0|0:0,0:0:0:0:
192,360,258161,1,0,0:0:0:0:
141,270,258349,2,0,B|189:245|250:267|250:267|308:284|367:245,1,215.999993408203,2|8,0:0|0:0,0:0:0:0:
432,124,258911,1,2,0:0:0:0:
320,128,259099,5,8,0:0:0:0:
484,268,259286,1,0,3:0:0:0:
484,268,259380,1,0,3:0:0:0:
484,268,259474,1,0,3:0:0:0:
368,36,259661,2,0,B|317:14|258:40|258:40|201:62|140:27,1,215.999993408203,4|2,0:0|0:0,0:0:0:0:
72,176,260224,5,8,0:0:0:0:
208,296,260411,1,8,0:0:0:0:
184,276,260505,1,8,0:0:0:0:
172,254,260599,22,0,P|163:208|187:152,1,90,12|0,0:0|0:0,0:0:0:0:
368,288,260974,1,8,0:0:0:0:
424,88,261161,1,0,0:0:0:0:
260,216,261349,5,8,0:0:0:0:
316,16,261536,1,2,0:0:0:0:
175,167,261724,2,0,P|164:124|170:80,1,90,8|2,0:0|0:0,0:0:0:0:
368,288,262099,5,8,0:0:0:0:
248,120,262286,1,2,0:0:0:0:
248,328,262474,5,8,0:0:0:0:
372,164,262661,1,2,0:0:0:0:
452,356,262849,5,8,0:0:0:0:
284,236,263036,1,2,0:0:0:0:
477,185,263224,2,0,P|481:233|456:279,1,90,8|2,0:0|0:0,0:0:0:0:
424,300,263505,1,2,0:0:0:0:
376,304,263599,21,8,0:0:0:0:
424,100,263786,1,2,0:0:0:0:
288,272,263974,5,8,0:0:0:0:
340,51,264161,1,2,0:0:0:0:
210,245,264349,37,8,0:0:0:0:
436,296,264536,1,2,0:0:0:0:
243,166,264724,2,0,P|213:204|217:268,1,90,8|2,0:0|0:0,0:0:0:0:
472,164,265099,21,8,0:0:0:0:
264,40,265286,1,2,0:0:0:0:
360,264,265474,5,8,0:0:0:0:
396,24,265661,1,2,0:0:0:0:
208,220,265849,5,8,0:0:0:0:
468,292,266036,1,2,0:0:0:0:
284,92,266224,5,8,3:0:0:0:
242,74,266317,1,0,3:0:0:0:
197,72,266411,1,0,3:0:0:0:
155,86,266505,1,0,3:0:0:0:
120,113,266599,6,0,P|164:124|212:112,1,90,12|2,0:0|0:0,0:0:0:0:
384,76,266974,1,2,0:0:0:0:
184,256,267161,6,0,P|227:242|276:200,1,90,4|2,0:0|0:0,0:0:0:0:
384,76,267536,1,2,0:0:0:0:
328,316,267724,6,0,P|352:278|358:219,1,90,8|0,0:0|0:0,0:0:0:0:
356,184,268005,1,0,0:0:0:0:
340,132,268099,5,10,0:0:0:0:
188,232,268286,1,8,0:0:0:0:
332,336,268474,5,2,0:0:0:0:
268,140,268661,1,8,0:0:0:0:
96,288,268849,1,10,0:0:0:0:
336,256,269036,1,8,0:0:0:0:
160,52,269224,21,8,0:0:0:0:
140,92,269317,1,8,0:0:0:0:
136,136,269411,1,8,0:0:0:0:
148,180,269505,1,8,0:0:0:0:
174,216,269599,6,0,P|198:129|141:37,1,180,6|8,0:0|0:0,0:0:0:0:
40,144,270161,1,0,3:0:0:0:
48,156,270255,1,0,3:0:0:0:
56,168,270349,1,2,3:0:0:0:
200,116,270536,1,2,0:0:0:0:
64,44,270724,1,8,0:0:0:0:
124,212,270911,5,0,3:0:0:0:
132,224,271005,1,0,3:0:0:0:
140,236,271099,2,0,P|172:256|232:252,1,90,2|2,3:0|0:0,0:0:0:0:
136,128,271474,1,8,0:0:0:0:
48,252,271661,5,0,3:0:0:0:
40,264,271755,1,0,3:0:0:0:
32,276,271849,1,2,3:0:0:0:
172,336,272036,1,2,0:0:0:0:
156,184,272224,1,8,0:0:0:0:
16,120,272411,1,0,0:0:0:0:
100,280,272599,6,0,P|200:276|264:208,1,180,2|8,0:0|0:0,0:0:0:0:
196,84,273161,1,0,3:0:0:0:
184,76,273255,1,0,3:0:0:0:
172,68,273349,1,2,3:0:0:0:
104,204,273536,1,2,0:0:0:0:
255,224,273724,1,8,0:0:0:0:
109,119,273911,5,0,3:0:0:0:
96,112,274005,1,0,3:0:0:0:
83,105,274099,1,2,0:0:0:0:
120,280,274286,1,0,0:0:0:0:
299,219,274474,1,8,0:0:0:0:
82,205,274661,1,0,0:0:0:0:
236,324,274849,5,2,0:0:0:0:
236,128,275036,1,0,0:0:0:0:
104,204,275224,1,8,0:0:0:0:
304,351,275411,5,0,3:0:0:0:
315,334,275505,1,0,3:0:0:0:
326,317,275599,2,0,B|306:285|324:252|324:252|342:217|322:185|322:185|294:224,1,180,6|8,0:0|0:0,0:0:0:0:
160,288,276161,1,0,3:0:0:0:
148,280,276255,1,0,3:0:0:0:
136,272,276349,1,2,0:0:0:0:
162,122,276536,1,0,0:0:0:0:
262,238,276724,1,8,0:0:0:0:
380,141,276911,1,0,0:0:0:0:
328,295,277099,6,0,P|348:259|341:201,1,90,2|0,0:0|0:0,0:0:0:0:
272,76,277474,1,8,0:0:0:0:
156,176,277661,5,0,3:0:0:0:
168,184,277755,1,0,3:0:0:0:
180,192,277849,1,2,0:0:0:0:
324,144,278036,1,2,0:0:0:0:
204,48,278224,1,8,0:0:0:0:
259,190,278411,1,0,0:0:0:0:
404,84,278599,6,0,B|436:64|436:64|416:120|432:168|432:168|416:212,1,180,2|8,0:0|0:0,0:0:0:0:
340,332,279161,1,0,3:0:0:0:
332,320,279255,1,0,3:0:0:0:
324,308,279349,1,2,0:0:0:0:
356,160,279536,1,2,0:0:0:0:
468,264,279724,1,8,0:0:0:0:
296,208,279911,5,0,3:0:0:0:
284,160,280004,1,0,3:0:0:0:
291,120,280098,1,12,0:0:0:0:
472,176,280286,1,2,0:0:0:0:
472,176,280474,1,2,0:0:0:0:
212,248,280661,1,14,0:0:0:0:
388,320,280849,5,0,3:0:0:0:
399,276,280942,1,0,3:0:0:0:
392,233,281036,6,0,L|378:189,1,45,8|0,3:1|3:0,3:0:0:0:
183,219,281224,2,0,L|199:272,1,45,8|0,3:1|3:0,3:0:0:0:
392,112,281411,2,0,L|378:68,1,45,8|0,3:2|3:2,3:2:0:0:
182,58,281599,22,0,P|156:94|153:138,1,90,6|0,0:0|0:0,0:0:0:0:
41,234,281974,2,0,P|85:237|125:218,1,90,8|0,0:0|0:0,0:0:0:0:
272,272,282349,2,0,P|253:231|216:206,1,90,2|2,0:0|0:0,0:0:0:0:
122,115,282724,1,8,0:0:0:0:
126,218,282911,1,0,0:0:0:0:
224,310,283099,6,0,L|313:305,1,90,2|0,0:0|0:0,0:0:0:0:
382,228,283474,1,8,0:0:0:0:
382,122,283661,1,2,0:0:0:0:
227,54,283849,2,0,B|184:70|184:70|151:137,1,90,0|2,0:0|0:0,0:0:0:0:
206,227,284224,2,0,B|249:211|249:211|282:144,1,90,8|0,0:0|0:0,0:0:0:0:
140,62,284599,6,0,P|191:67|237:49,1,90,6|0,0:0|0:0,0:0:0:0:
342,44,284974,2,0,P|384:31|429:37,1,90,8|0,0:0|0:0,0:0:0:0:
481,138,285349,2,0,L|448:230,1,90,2|2,0:0|0:0,0:0:0:0:
370,303,285724,2,0,L|337:211,1,90,8|0,0:0|0:0,0:0:0:0:
311,102,286099,5,2,0:0:0:0:
196,126,286286,1,2,0:0:0:0:
340,219,286474,1,8,0:0:0:0:
230,243,286661,1,0,3:0:0:0:
452,188,286849,6,0,L|491:161,2,45,0|0|0,3:0|3:0|3:0,0:0:0:0:
336,312,287224,1,8,0:0:0:0:
313,315,287317,1,8,0:0:0:0:
291,318,287411,1,8,0:3:0:0:
269,321,287505,1,8,0:3:0:0:
245,324,287599,6,0,P|197:315|161:276,1,90,6|0,0:0|0:0,0:0:0:0:
233,226,287974,2,0,P|205:185|207:132,1,90,8|0,0:0|0:0,0:0:0:0:
293,148,288349,2,0,P|302:99|341:63,1,90,2|2,0:0|0:0,0:0:0:0:
413,122,288724,1,8,0:0:0:0:
456,40,288911,1,0,0:0:0:0:
433,228,289099,6,0,L|312:228,1,90,2|2,0:0|0:0,0:0:0:0:
216,264,289474,2,0,L|261:186,1,90,8|0,0:0|0:0,0:0:0:0:
292,56,289849,2,0,L|337:133,1,90,2|2,0:0|0:0,0:0:0:0:
396,260,290224,1,8,0:0:0:0:
337,133,290411,1,2,0:0:0:0:
467,225,290599,5,8,0:0:0:0:
332,321,290786,1,2,0:0:0:0:
310,159,290974,1,8,0:0:0:0:
431,293,291161,1,2,0:0:0:0:
263,235,291349,5,8,0:0:0:0:
143,101,291536,1,2,0:0:0:0:
123,271,291724,1,8,0:0:0:0:
104,85,291911,1,2,0:0:0:0:
235,89,292099,5,0,3:0:0:0:
257,91,292192,1,0,3:0:0:0:
279,93,292286,1,0,3:0:0:0:
302,95,292380,1,0,3:0:0:0:
324,97,292474,1,0,3:0:0:0:
347,99,292567,1,0,3:0:0:0:
369,101,292661,1,0,3:0:0:0:
391,103,292755,1,0,3:0:0:0:
413,105,292849,5,8,0:0:0:0:
438,126,292942,1,8,0:0:0:0:
454,155,293036,1,8,0:0:0:0:
456,189,293130,1,8,0:0:0:0:
444,220,293224,1,8,0:0:0:0:
420,244,293317,1,8,0:0:0:0:
389,257,293411,1,8,0:0:0:0:
356,255,293505,1,8,0:0:0:0:
322,241,293599,6,0,P|281:207|271:172,2,90,2|0|2,0:0|0:0|0:0,0:0:0:0:
411,247,294724,2,0,L|457:217,1,45,2|0,0:0|0:0,0:0:0:0:
465,191,295147,6,0,P|422:147|417:80,1,90,2|0,0:0|0:0,0:0:0:0:
272,93,295886,2,0,P|315:137|316:198,1,107.999996704102,0|0,0:0|0:0,0:0:0:0:
314,289,296606,6,0,B|263:303|263:303|190:282,2,107.999996704102,2|0|0,0:0|0:0|0:0,0:0:0:0:
427,202,297714,1,2,0:0:0:0:
395,123,297894,1,2,0:0:0:0:
318,82,298122,6,0,L|245:61,1,62.9999980773926,2|0,0:0|0:0,0:0:0:0:
216,144,298462,2,0,L|276:161,1,62.9999980773926,2|0,0:0|0:0,0:0:0:0:
357,186,298858,6,0,P|374:256|299:315,1,157.5,2|0,0:0|0:0,0:0:0:0:
250,292,299635,6,0,P|224:268|192:264,2,53.9999983520508,2|0|0,0:0|0:0|0:0,0:0:0:0:
218,184,300202,1,0,0:0:0:0:
218,184,300391,2,0,P|203:129|192:116,2,53.9999983520508,2|0|0,0:0|0:0|0:0,0:0:0:0:
288,96,300959,1,0,0:0:0:0:
215,29,301148,5,2,0:0:0:0:
118,38,301341,1,0,0:0:0:0:
48,100,301534,1,0,0:0:0:0:
36,200,301727,1,0,0:0:0:0:
107,258,301920,6,0,L|196:285,1,67.5000025749208,2|0,0:0|0:0,0:0:0:0:
269,228,302320,2,0,L|204:208,1,67.5000025749208,2|0,0:0|0:0,0:0:0:0:
143,163,302787,6,0,P|110:117|123:59,1,90,2|0,0:0|0:0,0:0:0:0:
206,50,303339,2,0,P|239:96|226:154,1,90,2|0,0:0|0:0,0:0:0:0:
185,219,304017,6,0,L|93:248,2,90,2|0|2,0:0|0:0|0:0,0:0:0:0:
257,193,305631,1,2,0:0:0:0:
257,193,306493,5,0,0:0:0:0:
256,192,306634,12,2,309902,0:0:0:0:
239,102,311394,6,0,B|175:54|95:118|95:246|207:230|255:326|255:326|303:230|415:246|415:118|335:54|271:102,1,720,2|0,0:0|0:0,0:0:0:0:
