osu file format v14

[General]
AudioFilename: audio.mp3
AudioLeadIn: 0
PreviewTime: -1
Countdown: 1
SampleSet: None
StackLeniency: 0.2
Mode: 0
LetterboxInBreaks: 0
WidescreenStoryboard: 0

[Editor]
DistanceSpacing: 0.9
BeatDivisor: 4
GridSize: 16
TimelineZoom: 1.2

[Metadata]
Title:Ai~n! Dance no Uta
TitleUnicode:Ai~n! Dance no Uta
Artist:Minimoni
ArtistUnicode:Minimoni
Creator:Treekii
Version:AIIIII~NNN
Source:
Tags:
BeatmapID:962361
BeatmapSetID:448383

[Difficulty]
HPDrainRate:8.8
CircleSize:4
OverallDifficulty:7
ApproachRate:9.1
SliderMultiplier:3.59999990463257
SliderTickRate:1

[Events]
//Background and Video events
0,0,"Screenshot_18.png",0,0
//Break Periods
//Storyboard Layer 0 (Background)
//Storyboard Layer 1 (Fail)
//Storyboard Layer 2 (Pass)
//Storyboard Layer 3 (Foreground)
//Storyboard Sound Samples

[TimingPoints]
523.580205341688,375.000807453417,4,1,0,100,1,0
623.580205341688,-50,4,1,0,100,0,0

[HitObjects]
64,64,6583,5,0,0:0:0:0:
128,64,6676,1,0,0:0:0:0:
224,64,6862,1,0,0:0:0:0:
288,64,6955,1,0,0:0:0:0:
384,64,7086,1,0,0:0:0:0:
384,128,7273,1,0,0:0:0:0:
384,192,7461,1,0,0:0:0:0:
384,256,7648,1,0,0:0:0:0:
448,336,8024,5,0,0:0:0:0:
383,336,8117,1,0,0:0:0:0:
288,336,8211,1,0,0:0:0:0:
224,336,8303,1,0,0:0:0:0:
128,336,8398,1,0,0:0:0:0:
128,304,8586,1,0,0:0:0:0:
128,240,8679,1,0,0:0:0:0:
128,272,8862,1,0,0:0:0:0:
128,176,8955,1,0,0:0:0:0:
128,336,9142,1,0,0:0:0:0:
128,96,9336,5,0,0:0:0:0:
128,96,9429,1,0,0:0:0:0:
128,96,9523,2,0,B|256:32|256:32|496:32|496:32|496:368|496:368|48:368|48:368|48:32|48:32|112:80|112:80|112:96|112:96|112:112,1,1530
0,192,10554,5,0,0:0:0:0:
336,112,11117,5,0,0:0:0:0:
272,208,11211,1,0,0:0:0:0:
336,112,11304,1,0,0:0:0:0:
272,208,11398,1,0,0:0:0:0:
336,112,11586,1,0,0:0:0:0:
272,208,11773,1,0,0:0:0:0:
336,112,11867,1,0,0:0:0:0:
272,208,11961,1,0,0:0:0:0:
336,112,12054,1,0,0:0:0:0:
272,208,12148,1,0,0:0:0:0:
336,112,12242,1,0,0:0:0:0:
272,208,12336,1,0,0:0:0:0:
32,320,12523,6,0,L|528:-16,1,510
448,96,13086,1,0,0:0:0:0:
448,176,13273,1,0,0:0:0:0:
448,256,13461,1,0,0:0:0:0:
448,336,13648,1,0,0:0:0:0:
368,336,13836,1,0,0:0:0:0:
336,336,13929,1,0,0:0:0:0:
304,336,14023,1,0,0:0:0:0:
272,336,14117,1,0,0:0:0:0:
240,336,14211,1,0,0:0:0:0:
208,336,14304,1,0,0:0:0:0:
176,336,14398,1,0,0:0:0:0:
112,272,14585,1,0,0:0:0:0:
80,240,14679,1,0,0:0:0:0:
80,160,14867,1,0,0:0:0:0:
112,128,14960,1,0,0:0:0:0:
208,128,15148,1,0,0:0:0:0:
320,128,15242,1,0,0:0:0:0:
352,128,15336,1,0,0:0:0:0:
208,224,15523,5,0,0:0:0:0:
368,208,15617,1,0,0:0:0:0:
208,224,15804,1,0,0:0:0:0:
208,224,15898,1,0,0:0:0:0:
368,208,15992,1,0,0:0:0:0:
208,224,16086,1,0,0:0:0:0:
368,208,16179,1,0,0:0:0:0:
208,224,16273,1,0,0:0:0:0:
368,208,16367,1,0,0:0:0:0:
208,224,16461,1,0,0:0:0:0:
368,208,16554,1,0,0:0:0:0:
208,224,16742,1,0,0:0:0:0:
368,208,16836,1,0,0:0:0:0:
208,224,16929,1,0,0:0:0:0:
368,208,17023,1,0,0:0:0:0:
80,48,17304,5,0,0:0:0:0:
80,48,17398,1,0,0:0:0:0:
208,48,17586,1,0,0:0:0:0:
208,48,17679,1,0,0:0:0:0:
352,48,17867,1,0,0:0:0:0:
352,48,17961,1,0,0:0:0:0:
208,144,18148,1,0,0:0:0:0:
208,144,18242,1,0,0:0:0:0:
208,144,18336,1,0,0:0:0:0:
240,192,18523,5,0,0:0:0:0:
272,192,18711,1,0,0:0:0:0:
208,192,19086,1,0,0:0:0:0:
304,192,19273,1,0,0:0:0:0:
160,192,19648,1,0,0:0:0:0:
352,192,19835,1,0,0:0:0:0:
112,192,20211,1,0,0:0:0:0:
400,192,20398,1,0,0:0:0:0:
16,16,20773,1,0,0:0:0:0:
512,384,20961,1,0,0:0:0:0:
256,192,21523,5,0,0:0:0:0:
256,192,21711,1,0,0:0:0:0:
288,160,22086,1,0,0:0:0:0:
224,224,22274,1,0,0:0:0:0:
320,128,22648,1,0,0:0:0:0:
176,272,22836,1,0,0:0:0:0:
352,96,23211,1,0,0:0:0:0:
144,304,23399,1,0,0:0:0:0:
256,16,23773,1,0,0:0:0:0:
256,368,23961,1,0,0:0:0:0:
16,32,24523,5,0,0:0:0:0:
496,384,24711,1,0,0:0:0:0:
80,80,25086,1,0,0:0:0:0:
432,336,25274,1,0,0:0:0:0:
224,176,25648,1,0,0:0:0:0:
272,224,25836,1,0,0:0:0:0:
256,192,26211,1,0,0:0:0:0:
256,192,26399,1,0,0:0:0:0:
16,32,26773,1,0,0:0:0:0:
496,368,26961,1,0,0:0:0:0:
48,16,27523,2,0,L|48:384,1,340
256,16,28086,2,0,L|256:384,1,340
480,16,28648,2,0,L|480:384,1,340
80,304,29023,5,0,0:0:0:0:
304,48,29210,1,0,0:0:0:0:
384,336,29398,1,0,0:0:0:0:
112,112,29585,1,0,0:0:0:0:
432,48,29773,1,0,0:0:0:0:
288,336,29960,1,0,0:0:0:0:
96,240,30148,1,0,0:0:0:0:
432,160,30335,1,0,0:0:0:0:
80,48,30711,5,0,0:0:0:0:
208,48,30898,1,0,0:0:0:0:
336,48,31086,1,0,0:0:0:0:
368,80,31179,1,0,0:0:0:0:
384,128,31273,1,0,0:0:0:0:
384,176,31367,1,0,0:0:0:0:
368,224,31461,1,0,0:0:0:0:
336,256,31554,1,0,0:0:0:0:
304,272,31648,1,0,0:0:0:0:
256,240,31742,1,0,0:0:0:0:
224,208,31836,1,0,0:0:0:0:
192,176,31929,1,0,0:0:0:0:
144,160,32023,1,0,0:0:0:0:
112,192,32117,1,0,0:0:0:0:
96,240,32211,1,0,0:0:0:0:
112,288,32304,1,0,0:0:0:0:
144,320,32398,1,0,0:0:0:0:
192,304,32492,1,0,0:0:0:0:
224,272,32586,1,0,0:0:0:0:
272,224,32773,1,0,0:0:0:0:
416,64,32961,1,0,0:0:0:0:
144,48,33617,2,0,L|304:144,1,170
272,32,33805,2,0,L|160:160,1,170
64,304,34179,2,0,L|240:320,1,170
256,304,34367,2,0,L|432:224,1,170
432,192,34554,2,0,L|352:32,1,170
288,80,34836,1,0,0:0:0:0:
288,176,35023,1,0,0:0:0:0:
128,160,35398,6,0,B|176:112|432:112|480:192|464:304|96:80|96:80|112:320|112:320|192:208|96:144|208:112|320:96|320:96|464:80|464:80|448:144|352:304|352:304|224:320|224:320|224:256|224:256|48:256|160:192|160:192|144:128|320:288|368:160|336:192,1,2159.99994277954
64,64,36711,5,0,0:0:0:0:
176,64,36898,1,0,0:0:0:0:
304,64,37086,1,0,0:0:0:0:
336,80,37179,1,0,0:0:0:0:
352,128,37273,1,0,0:0:0:0:
368,160,37367,1,0,0:0:0:0:
320,160,37461,1,0,0:0:0:0:
288,160,37554,1,0,0:0:0:0:
240,160,37648,1,0,0:0:0:0:
208,160,37742,1,0,0:0:0:0:
160,128,37836,1,0,0:0:0:0:
144,80,37929,1,0,0:0:0:0:
96,48,38023,1,0,0:0:0:0:
480,352,38117,1,0,0:0:0:0:
432,320,38211,1,0,0:0:0:0:
384,288,38304,1,0,0:0:0:0:
352,304,38398,1,0,0:0:0:0:
320,336,38492,1,0,0:0:0:0:
288,336,38586,1,0,0:0:0:0:
240,304,38773,1,0,0:0:0:0:
144,128,38961,1,0,0:0:0:0:
64,64,39523,5,0,0:0:0:0:
208,64,39804,1,0,0:0:0:0:
368,64,39898,1,0,0:0:0:0:
400,112,39992,1,0,0:0:0:0:
432,160,40086,1,0,0:0:0:0:
416,208,40179,1,0,0:0:0:0:
384,240,40273,1,0,0:0:0:0:
352,256,40367,1,0,0:0:0:0:
304,240,40461,1,0,0:0:0:0:
272,208,40554,1,0,0:0:0:0:
240,176,40648,1,0,0:0:0:0:
192,160,40742,1,0,0:0:0:0:
144,176,40836,1,0,0:0:0:0:
128,224,40929,1,0,0:0:0:0:
96,256,41023,1,0,0:0:0:0:
96,304,41117,1,0,0:0:0:0:
128,336,41211,1,0,0:0:0:0:
256,32,41398,1,0,0:0:0:0:
432,272,41586,1,0,0:0:0:0:
64,128,41773,1,0,0:0:0:0:
400,80,41961,1,0,0:0:0:0:
80,336,42148,1,0,0:0:0:0:
384,336,42336,1,0,0:0:0:0:
0,352,42523,5,0,0:0:0:0:
496,32,42711,1,0,0:0:0:0:
0,288,43086,1,0,0:0:0:0:
448,16,43274,1,0,0:0:0:0:
0,224,43648,1,0,0:0:0:0:
384,0,43836,1,0,0:0:0:0:
16,160,44211,1,0,0:0:0:0:
304,0,44399,1,0,0:0:0:0:
224,208,44773,1,0,0:0:0:0:
272,176,44961,1,0,0:0:0:0:
256,224,45523,5,0,0:0:0:0:
256,192,45710,1,0,0:0:0:0:
256,224,46085,1,0,0:0:0:0:
256,144,46272,1,0,0:0:0:0:
0,384,46648,1,0,0:0:0:0:
512,0,46835,1,0,0:0:0:0:
144,208,47023,5,0,0:0:0:0:
256,96,47211,1,0,0:0:0:0:
352,208,47398,1,0,0:0:0:0:
256,304,47586,1,0,0:0:0:0:
144,208,47773,1,0,0:0:0:0:
256,96,47961,1,0,0:0:0:0:
352,208,48148,1,0,0:0:0:0:
256,304,48336,1,0,0:0:0:0:
96,80,48523,5,0,0:0:0:0:
272,80,48711,1,0,0:0:0:0:
96,80,48898,2,0,L|400:80,1,170
96,80,49086,1,0,0:0:0:0:
272,80,49273,1,0,0:0:0:0:
272,240,49461,1,0,0:0:0:0:
272,80,49648,1,0,0:0:0:0:
480,336,50023,5,0,0:0:0:0:
304,335,50211,1,0,0:0:0:0:
480,336,50398,2,0,L|176:336,1,170
480,336,50586,1,0,0:0:0:0:
304,335,50773,1,0,0:0:0:0:
304,175,50961,1,0,0:0:0:0:
304,335,51148,1,0,0:0:0:0:
224,336,51523,5,0,0:0:0:0:
47,336,51711,1,0,0:0:0:0:
224,336,51898,2,0,L|54:336,1,170
224,336,52086,1,0,0:0:0:0:
47,336,52273,1,0,0:0:0:0:
47,175,52461,1,0,0:0:0:0:
47,336,52648,1,0,0:0:0:0:
432,48,53023,5,0,0:0:0:0:
432,208,53210,1,0,0:0:0:0:
432,48,53398,1,0,0:0:0:0:
256,48,53585,1,0,0:0:0:0:
426,48,53680,2,0,L|256:48,1,170,0|0,0:0|0:0,0:0:0:0:
432,48,53960,1,0,0:0:0:0:
256,48,54148,1,0,0:0:0:0:
48,48,54523,5,0,0:0:0:0:
464,48,54711,1,0,0:0:0:0:
464,352,54898,1,0,0:0:0:0:
48,352,55086,1,0,0:0:0:0:
48,48,55273,1,0,0:0:0:0:
464,48,55461,1,0,0:0:0:0:
464,352,55648,1,0,0:0:0:0:
48,352,55836,1,0,0:0:0:0:
224,352,56023,5,0,0:0:0:0:
256,32,56211,1,0,0:0:0:0:
288,352,56398,1,0,0:0:0:0:
256,32,56586,1,0,0:0:0:0:
224,352,56773,1,0,0:0:0:0:
256,32,56961,1,0,0:0:0:0:
288,352,57148,1,0,0:0:0:0:
256,32,57336,1,0,0:0:0:0:
256,192,57523,5,0,0:0:0:0:
256,192,57711,1,0,0:0:0:0:
256,192,57898,1,0,0:0:0:0:
256,192,58086,1,0,0:0:0:0:
256,192,58273,1,0,0:0:0:0:
256,192,58461,1,0,0:0:0:0:
256,192,58648,1,0,0:0:0:0:
256,192,58836,1,0,0:0:0:0:
64,320,59023,2,0,B|368:288|368:288|368:224|368:224|384:176|384:176|272:80|272:80|144:144|0:96|0:96|144:32|144:288|224:352|352:352|352:352|576:240|544:64|544:64|432:0|432:0|288:80|288:80|256:256|256:256|112:352|48:256|48:256|32:160|176:144|176:144|368:96|432:16|432:16|512:16|512:16|512:224|512:320|512:320|416:352|208:352|48:224|48:224|-16:128|-16:128|128:48|240:32|288:32|336:96|336:96,1,4250
16,16,61648,5,0,0:0:0:0:
496,368,61836,1,0,0:0:0:0:
0,368,62211,5,0,0:0:0:0:
496,16,62399,1,0,0:0:0:0:
