osu file format v14

[General]
AudioFilename: audio.mp3
AudioLeadIn: 0
PreviewTime: 53448
Countdown: 1
SampleSet: Normal
StackLeniency: 0.7
Mode: 0
LetterboxInBreaks: 0
WidescreenStoryboard: 0

[Editor]
Bookmarks: 39868,67039,80550,80869,80976,94246,106785,106892,106999,107106,107213,107320,107535
DistanceSpacing: 0.7
BeatDivisor: 4
GridSize: 16
TimelineZoom: 2.899999

[Metadata]
Title:If I Could
TitleUnicode:If I Could
Artist:Mineral
ArtistUnicode:Mineral
Creator:vrnl
Version:a long ways...
Source:
Tags:midwest emo
BeatmapID:1959186
BeatmapSetID:937954

[Difficulty]
HPDrainRate:6
CircleSize:5.1
OverallDifficulty:6.5
ApproachRate:8.7
SliderMultiplier:1
SliderTickRate:1

[Events]
//Background and Video events
0,0,"bg.png",0,0
//Break Periods
//Storyboard Layer 0 (Background)
//Storyboard Layer 1 (Fail)
//Storyboard Layer 2 (Pass)
//Storyboard Layer 3 (Foreground)
//Storyboard Sound Samples

[TimingPoints]
304,413.793103448276,4,1,0,60,1,0
5276,408.163265306122,4,1,0,60,1,0
13439,413.793103448276,4,1,0,60,1,0
18404,405.405405405405,4,1,0,60,1,0
20025,400,4,1,0,60,1,0
23268,405.405405405405,4,1,0,60,1,0
25887,405.405405405405,4,1,0,60,1,0
26117,405.405405405405,4,1,0,60,1,0
26512,419.58041958042,4,1,0,60,1,0
33225,413.793103448276,4,1,0,60,1,0
36535,418.566666666667,4,1,0,60,1,0
37398,418.566666666667,4,1,0,60,1,0
37790,418.566666666667,4,1,0,60,1,0
39868,426.431914893617,4,1,0,60,1,0
48378,422.535211267606,4,1,0,60,1,0
51335,419.58041958042,4,1,0,60,1,0
52593,392.156862745098,4,1,0,60,1,0
53025,422.535211267606,4,1,0,60,1,0
53448,425.931914893617,4,1,0,60,1,0
53448,-66.6666666666667,4,1,0,60,0,0
58554,418.48041958042,4,1,0,60,1,0
58554,-66.6666666666667,4,1,0,60,0,0
61910,428.571428571429,4,1,0,60,1,0
62338,-66.6666666666667,4,1,0,60,0,0
65338,425.331914893617,4,1,0,60,1,0
65550,-66.6666666666667,4,1,0,60,0,0
79799,400,4,1,0,60,1,0
80199,424.028268551237,4,1,0,60,1,0
80199,-66.6666666666667,4,1,0,60,0,0
81500,425.331914893617,4,1,0,60,1,0
82350,425.331914893617,4,1,0,60,1,0
93621,416.666666666667,4,1,0,60,1,0
94259,425.331914893617,4,1,0,60,1,0
97678,428.571428571429,4,1,0,60,1,0
106678,416.666666666667,4,1,0,60,1,0
107963,444.444444444444,4,1,0,60,1,0
108851,434.782608695652,4,1,0,60,1,0
109689,416.666666666667,4,1,0,60,1,0
114689,413.793103448276,4,1,0,60,1,0
117999,401.384563758389,4,1,0,60,1,0
124441,405.405405405405,4,1,0,60,1,0
127278,461.538461538462,4,1,0,60,1,0
127739,410.958904109589,4,1,0,60,1,0
129382,400.084563758388,4,1,0,60,1,0
132603,397.350993377483,4,1,0,60,1,0
134224,410.958904109589,4,1,0,60,1,0
137511,417.066666666667,4,1,0,60,1,0
140847,425.531914893617,4,1,0,60,1,0
144251,416.666666666667,4,1,0,60,1,0
154251,420.68041958042,4,1,0,60,1,0
159299,413.793103448276,4,1,0,60,1,0
160954,417.366666666667,4,1,0,60,1,0
172640,420.28041958042,4,1,0,60,1,0
174293,415.566666666666,4,1,0,60,1,0
182612,415.566666666666,4,1,0,60,1,0
184294,419.58041958042,4,1,0,60,1,0
196042,422.535211267606,4,1,0,60,1,0
201112,428.571428571429,4,1,0,60,1,0
204112,410.958904109589,4,1,0,60,1,0
204522,422.535211267606,4,1,0,60,1,0
207902,416.666666666667,4,1,0,60,1,0
212902,406.363265306122,4,1,0,60,1,0
213917,400.932457881063,4,1,0,60,1,0
214527,421.435211267605,4,1,0,60,1,0
221239,416.666666666667,4,1,0,60,1,0
224572,422.535211267606,4,1,0,60,1,0
226269,416.666666666667,4,1,0,60,1,0
227935,419.58041958042,4,1,0,60,1,0
229613,426.031914893617,4,1,0,60,1,0
233017,416.666666666667,4,1,0,60,1,0
234683,420.38041958042,4,1,0,60,1,0
240540,400,4,1,0,60,1,0
240944,422.535211267606,4,1,0,60,1,0
241396,422.535211267606,4,1,0,60,1,0
243086,426.331914893617,4,1,0,60,1,0
246490,422.535211267606,4,1,0,60,1,0
251560,416.666666666667,4,1,0,60,1,0
253212,416.666666666667,4,1,0,60,1,0
254916,422.535211267606,4,1,0,60,1,0
258296,410.958904109589,4,1,0,60,1,0
261583,413.793103448276,4,1,0,60,1,0
264893,418.366666666667,4,1,0,60,1,0
267194,400,4,1,0,60,1,0
268231,428.571428571429,4,1,0,60,1,0
271639,410.958904109589,4,1,0,60,1,0
273282,402.684563758389,4,1,0,60,1,0
275322,408.163265306122,4,1,0,60,1,0
278179,413.793103448276,4,1,0,60,1,0
280661,400,4,1,0,60,1,0
281041,419.58041958042,4,1,0,60,1,0
281500,413.793103448276,4,1,0,60,1,0
283982,431.654676258993,4,1,0,60,1,0
284845,413.793103448276,4,1,0,60,1,0
286500,425.531914893617,4,1,0,60,1,0
287327,413.793103448276,4,1,0,60,1,0
287534,405.405405405405,4,1,0,60,1,0
288160,416.666666666667,4,1,0,60,1,0
291493,425.531914893617,4,1,0,60,1,0
293195,402.684563758389,4,1,0,60,1,0
294403,384.615384615385,4,1,0,60,1,0
294805,408.163265306122,4,1,0,60,1,0
296437,419.58041958042,4,1,0,60,1,0
299793,413.793103448276,4,1,0,60,1,0
301448,422.535211267606,4,1,0,60,1,0
303138,419.58041958042,4,1,0,60,1,0
306476,417.166666666667,4,1,0,60,1,0
308144,422.535211267606,4,1,0,60,1,0
309831,426.031914893617,4,1,0,60,1,0
313235,416.666666666667,4,1,0,60,1,0
316568,425.531914893617,4,1,0,60,1,0
318270,419.58041958042,4,1,0,60,1,0
319948,405.405405405405,4,1,0,60,1,0
321569,423.635211267606,4,1,0,60,1,0
326652,419.58041958042,4,1,0,60,1,0
327700,408.163265306122,4,1,0,60,1,0
328330,413.793103448276,4,1,0,60,1,0
331640,422.535211267606,4,1,0,60,1,0
340090,413.793103448276,4,1,0,60,1,0
341124,402.684563758389,4,1,0,60,1,0
341745,413.793103448276,4,1,0,60,1,0
345055,405.405405405405,4,1,0,60,1,0
346654,402.684563758389,4,1,0,60,1,0
347485,402.684563758389,4,1,0,60,1,0
348319,413.793103448276,4,1,0,60,1,0

[Colours]
Combo1 : 0,102,0
Combo2 : 128,128,64
Combo3 : 197,197,197

[HitObjects]
2,146,304,6,0,B|31:128|71:132|71:132|104:154,1,100
182,251,1131,2,0,B|153:269|113:265|113:265|80:243,1,100
263,127,1959,6,0,B|269:165|294:190|294:190|341:204,1,100
476,183,2786,2,0,B|470:145|445:120|445:120|398:106,1,100
358,286,3614,6,0,B|327:303|296:303|296:303|259:290,1,100
161,181,4441,2,0,B|191:164|225:165|225:165|260:177,1,100
384,157,5276,6,0,B|384:194|411:220|411:220|447:237,1,100
460,71,6092,2,0,B|437:43|403:39|403:39|367:50,1,100
153,191,6908,5,0,0:0:0:0:
153,191,7316,2,0,B|158:226|167:241|167:241|206:283,2,100
432,261,8541,5,0,0:0:0:0:
432,261,8949,2,0,B|446:295|471:306|471:306|518:312,2,100
265,78,10173,5,0,0:0:0:0:
265,78,10582,2,0,B|234:97|202:101|202:101|156:92,2,100
219,315,11806,5,0,0:0:0:0:
219,315,12214,2,0,B|250:317|250:317|284:312|306:280,1,100
385,373,13031,1,0,0:0:0:0:
457,157,13439,6,0,B|420:145|396:132|396:132|369:92,1,100
336,25,14266,1,0,0:0:0:0:
336,25,14680,1,0,0:0:0:0:
189,177,15094,6,0,B|166:209|164:237|164:237|173:275,1,100
242,345,15921,1,0,0:0:0:0:
242,345,16335,1,0,0:0:0:0:
85,158,16749,5,0,0:0:0:0:
85,158,17163,2,0,B|105:126|138:118|138:118|187:123,1,100
305,169,17990,1,0,0:0:0:0:
367,320,18404,6,0,B|413:324|435:316|435:316|469:290,1,100
490,195,19214,1,0,0:0:0:0:
490,195,19620,2,0,P|468:178|445:170,1,50
293,231,20025,6,0,B|268:240|223:236|223:236|190:223,1,100
116,137,20825,1,0,0:0:0:0:
209,80,21225,1,0,0:0:0:0:
87,231,21625,6,0,B|96:262|112:287|112:287|147:315,1,100
241,339,22425,1,0,0:0:0:0:
241,339,22825,2,0,P|263:323|277:299,1,50
294,93,23268,6,0,B|317:83|363:83|363:83|392:97,1,100
456,182,24078,1,0,0:0:0:0:
430,281,24484,1,0,0:0:0:0:
285,315,24889,6,0,B|245:318|212:311|179:319,1,100
89,250,25497,2,0,L|65:257,2,25
120,185,25887,1,0,0:0:0:0:
193,75,26117,2,0,L|274:61,1,75
346,137,26512,6,0,B|383:143|405:167|405:167|419:209,1,100
292,341,27351,1,0,0:0:0:0:
42,284,27770,2,0,P|71:272|110:274,1,50
180,306,28190,6,0,B|154:339|128:355|128:355|86:364,1,100
42,284,28819,1,0,0:0:0:0:
91,126,29029,2,0,B|117:112|146:107|146:107|200:114,1,100
310,252,29658,1,0,0:0:0:0:
310,252,29868,6,0,B|352:266|380:265|380:265|418:251,1,100
212,44,30707,1,0,0:0:0:0:
91,169,31127,2,0,P|96:199|111:219,1,50
170,296,31546,6,0,B|208:284|245:292|245:292|284:318,1,100
343,379,32176,1,0,0:0:0:0:
478,276,32386,2,0,B|474:244|458:217|458:217|422:194,1,100
230,110,33015,1,0,0:0:0:0:
230,110,33225,6,0,B|196:92|164:89|164:89|126:104,1,100
328,246,34052,1,0,0:0:0:0:
431,20,34466,2,0,P|450:42|459:67,1,50
468,148,34880,6,0,B|453:180|420:195|420:195|368:200,1,100
259,185,35500,1,0,0:0:0:0:
147,281,35707,2,0,B|121:302|98:309|98:309|36:301,1,100
275,353,36328,1,0,0:0:0:0:
275,353,36535,6,0,B|316:372|348:365|348:365|376:346,1,100
485,237,37398,1,0,0:0:0:0:
282,92,37790,2,0,P|262:115|254:136,1,50
208,209,38209,6,0,B|190:227|181:231|181:231|164:235,2,50
49,27,39046,2,0,L|-7:17,1,50
41,269,39464,2,0,L|122:285,1,75
295,203,39868,6,0,B|331:224|342:260|342:260|334:291,1,100
153,135,40720,1,0,0:0:0:0:
306,63,41147,2,0,P|332:54|357:57,1,50
449,127,41573,6,0,B|436:162|443:203|443:203|466:234,1,100
439,305,42213,1,0,0:0:0:0:
316,354,42426,2,0,B|272:342|240:353|240:353|210:386,1,100
122,316,43066,2,0,L|109:327,2,16.6666666666667
116,296,43279,6,0,B|92:297|75:307|75:307|54:323,2,50
348,335,44132,1,0,0:0:0:0:
449,197,44558,2,0,P|458:168|457:145,1,50
452,38,44985,6,0,B|412:28|391:35|391:35|359:61,1,100
284,142,45624,1,0,0:0:0:0:
146,74,45838,2,0,B|129:66|108:71|108:71|92:79,1,50
40,146,46157,1,0,0:0:0:0:
48,165,46264,2,0,B|61:189|60:200|60:200|52:220,1,50
176,329,46690,6,0,B|208:345|238:343|238:343|276:329,1,100
407,209,47543,1,0,0:0:0:0:
272,34,47970,2,0,P|253:55|249:79,1,50
213,155,48378,6,0,B|189:175|159:182|159:182|119:175,1,100
18,114,49011,1,0,0:0:0:0:
120,312,49223,2,0,L|171:323,1,50
406,283,49645,2,0,L|326:266,1,75
188,128,50068,6,0,B|215:114|238:112|238:112|285:121,1,100
461,234,50913,1,0,0:0:0:0:
332,346,51335,2,0,P|308:356|271:357,1,50
116,288,51754,6,0,B|106:250|116:227|116:227|145:196,1,100
241,136,52383,1,0,0:0:0:0:
450,176,52593,2,0,L|459:197,1,16.6666666666667
486,254,52789,1,0,0:0:0:0:
147,25,53025,2,0,L|65:14,1,75
178,300,53448,6,0,B|223:338|276:338|276:338|330:319,1,150.000005722046
354,46,54299,1,0,0:0:0:0:
34,102,54725,1,0,0:0:0:0:
191,37,54938,1,0,0:0:0:0:
29,223,55151,6,0,B|67:262|64:319|64:319|37:366,1,150.000005722046
415,256,56003,1,0,0:0:0:0:
220,330,56216,1,0,0:0:0:0:
334,177,56429,2,0,B|351:157|375:150|375:150|407:148,1,75.0000028610231
190,62,56855,6,0,B|142:38|99:46|99:46|66:59,1,112.500004291535
37,118,57281,2,0,B|53:153|52:164|52:164|40:189,1,75.0000028610231
200,344,57707,1,0,0:0:0:0:
467,247,58133,2,0,B|438:245|416:225|416:225|407:192,1,75.0000028610231
237,140,58554,5,0,0:0:0:0:
429,97,58763,1,0,0:0:0:0:
167,61,58972,2,0,B|141:50|109:51|109:51|82:66,1,75.0000028610231
207,272,59390,1,0,0:0:0:0:
332,325,59600,1,0,0:0:0:0:
351,334,59704,1,0,0:0:0:0:
362,339,59809,1,0,0:0:0:0:
433,367,60018,1,0,0:0:0:0:
359,124,60227,6,0,B|314:91|258:91|258:91|213:109,1,150.000005722046
120,314,61064,1,0,0:0:0:0:
300,352,61274,1,0,0:0:0:0:
80,232,61483,1,0,0:0:0:0:
234,323,61692,1,0,0:0:0:0:
105,54,61910,5,0,0:0:0:0:
159,225,62124,1,0,0:0:0:0:
223,105,62338,2,0,B|248:99|275:112|275:112|305:145,1,75.0000028610231
388,286,62767,1,0,0:0:0:0:
159,225,62981,1,0,0:0:0:0:
58,46,63195,2,0,L|-22:31,1,75.0000028610231
127,294,63624,6,0,B|170:320|221:325|221:325|278:309,1,150.000005722046
468,174,64481,1,0,0:0:0:0:
416,317,64695,1,0,0:0:0:0:
389,94,64909,1,0,0:0:0:0:
439,241,65124,1,0,0:0:0:0:
358,183,65338,1,0,0:0:0:0:
204,294,65550,6,0,B|177:308|156:310|156:310|128:296,1,75.0000028610231
24,154,65975,1,0,0:0:0:0:
249,54,66188,1,0,0:0:0:0:
332,145,66401,1,0,0:0:0:0:
350,171,66507,1,0,0:0:0:0:
358,183,66613,1,0,0:0:0:0:
400,241,66826,1,0,0:0:0:0:
150,348,67039,6,0,B|98:359|50:329|50:329|17:264,1,150.000005722046
176,69,67889,1,0,0:0:0:0:
421,185,68315,2,0,B|443:221|446:234|446:234|443:260,1,75.0000028610231
365,342,68740,5,0,0:0:0:0:
179,358,68953,1,0,0:0:0:0:
356,251,69165,2,0,B|399:249|416:258|416:258|437:282,1,75.0000028610231
160,214,69591,5,0,0:0:0:0:
326,149,69803,1,0,0:0:0:0:
82,155,70016,1,0,0:0:0:0:
279,195,70229,1,0,0:0:0:0:
43,69,70441,6,0,B|72:40|120:31|120:31|187:43,1,150.000005722046
75,331,71292,2,0,B|117:356|165:355|165:355|227:328,1,150.000005722046
422,150,71930,1,0,0:0:0:0:
257,222,72143,5,0,0:0:0:0:
75,158,72356,1,0,0:0:0:0:
195,271,72568,1,0,0:0:0:0:
160,124,72781,1,0,0:0:0:0:
135,346,72993,1,0,0:0:0:0:
269,296,73206,1,0,0:0:0:0:
296,286,73312,1,0,0:0:0:0:
312,280,73419,1,0,0:0:0:0:
379,256,73631,1,0,0:0:0:0:
171,63,73844,6,0,B|138:54|111:66|111:66|95:87,2,75.0000028610231
434,169,74695,1,0,0:0:0:0:
279,220,74907,1,0,0:0:0:0:
472,230,75120,1,0,0:0:0:0:
332,182,75333,1,0,0:0:0:0:
439,328,75545,6,0,B|389:316|332:324|332:324|270:360,1,150.000005722046
69,224,76396,1,0,0:0:0:0:
239,113,76609,1,0,0:0:0:0:
406,100,76821,2,0,P|449:107|494:138,1,75.0000028610231
428,242,77140,1,0,0:0:0:0:
409,268,77247,6,0,B|371:300|316:292|316:292|249:264,1,150.000005722046
19,142,78097,1,0,0:0:0:0:
176,57,78310,1,0,0:0:0:0:
37,218,78523,1,0,0:0:0:0:
102,15,78735,2,0,B|85:54|92:72|92:72|114:102,1,75.0000028610231
296,187,79161,5,0,0:0:0:0:
371,106,79373,2,0,B|335:89|316:89|316:89|285:108,1,75.0000028610231
385,304,79799,2,0,L|409:324,3,16.6666666666667
165,357,80199,2,0,L|35:378,1,112.500004291535
242,224,80623,6,0,B|307:238|349:212|349:212|387:162,1,150.000005722046
