osu file format v14

[General]
AudioFilename: audio.mp3
AudioLeadIn: 0
PreviewTime: 40920
Countdown: 0
SampleSet: Soft
StackLeniency: 0.7
Mode: 0
LetterboxInBreaks: 0
WidescreenStoryboard: 1

[Editor]
DistanceSpacing: 1.5
BeatDivisor: 4
GridSize: 32
TimelineZoom: 1

[Metadata]
Title:Falling, The Star Light
TitleUnicode:Falling, The Star Light
Artist:Mineko Yamamoto
ArtistUnicode:山本美禰子
Creator:fluffy hair
Version:Hard
Source:ロロナのアトリエ ~アーランドの錬金術士~
Tags:Rorona no Atelier: Arland no Renkinjutsushi 中河健 game opening Atelier Rorona: The Alchemist of Arland gust minorsonek rukaru raheta_adi uta
BeatmapID:1614130
BeatmapSetID:767833

[Difficulty]
HPDrainRate:5
CircleSize:3.8
OverallDifficulty:7
ApproachRate:8
SliderMultiplier:1.2
SliderTickRate:1

[Events]
//Background and Video events
0,0,"rorona.jpg",0,0
//Break Periods
//Storyboard Layer 0 (Background)
//Storyboard Layer 1 (Fail)
//Storyboard Layer 2 (Pass)
//Storyboard Layer 3 (Foreground)
//Storyboard Sound Samples

[TimingPoints]
640,337.078651685393,3,2,1,38,1,0
640,-125,3,2,1,38,0,0
1904,-125,3,2,1,5,0,0
1988,-125,3,2,1,38,0,0
2241,-125,3,2,1,5,0,0
2325,-125,3,2,1,38,0,0
2578,-100,3,2,1,5,0,0
2662,-125,3,2,1,38,0,0
3926,-100,3,2,1,5,0,0
4010,-100,3,2,1,38,0,0
4263,-100,3,2,1,5,0,0
4347,-100,3,2,1,38,0,0
4600,-100,3,2,1,5,0,0
4684,-100,3,2,1,38,0,0
6707,-125,3,2,1,30,0,0
7718,-100,3,2,1,20,0,0
8729,-100,3,2,4,30,0,0
9066,-100,3,2,99,30,0,0
16819,-125,3,2,99,30,0,0
17831,-66.6666666666667,3,2,1,20,0,0
17999,-100,3,2,1,20,0,0
18842,-100,3,2,1,40,0,0
19853,-66.6666666666667,3,2,1,30,0,0
20022,-100,3,2,1,10,0,0
20864,-100,3,2,1,50,0,0
27859,-100,3,2,1,20,0,0
27943,-100,3,2,1,60,0,0
30977,-100,3,2,5,68,0,0
38055,-83.3333333333333,3,2,1,60,0,0
38392,-83.3333333333333,3,2,1,60,0,0
38729,-90.9090909090909,3,2,1,60,0,0
39066,-166.666666666667,3,2,1,30,0,0
40078,-90.9090909090909,3,2,1,10,0,0
41089,-86.9565217391304,3,2,1,70,0,1
46398,-86.9565217391304,3,2,1,5,0,1
46482,-86.9565217391304,3,2,1,70,0,1
46735,-86.9565217391304,3,2,1,5,0,1
46819,-86.9565217391304,3,2,1,70,0,1
57269,-100,3,2,1,60,0,0
59797,-100,3,2,1,10,0,0

[Colours]
Combo1 : 187,103,229
Combo2 : 128,128,255
Combo3 : 242,121,97
Combo4 : 255,140,179

[HitObjects]
55,301,640,6,0,P|105:310|161:289,1,96,2|0,0:0|0:0,0:0:0:0:
221,245,1145,2,0,L|215:146,1,96,2|0,0:0|0:0,0:0:0:0:
244,62,1651,2,0,L|297:72,1,48,2|0,0:0|0:0,0:0:0:0:
365,18,1988,2,0,L|405:53,1,48,2|0,0:0|0:0,0:0:0:0:
451,125,2325,2,0,L|435:170,1,48,2|0,0:0|0:0,0:0:0:0:
351,206,2662,6,0,P|345:258|371:307,1,96,2|0,0:0|0:0,0:0:0:0:
442,340,3168,2,0,L|346:333,1,96,2|0,0:0|0:0,0:0:0:0:
267,298,3673,2,0,L|219:301,1,48,2|0,0:0|0:0,0:0:0:0:
145,362,4010,2,0,L|79:357,1,60,2|0,0:0|0:0,0:0:0:0:
7,301,4347,2,0,P|2:269|5:236,1,60,2|0,0:0|0:0,0:0:0:0:
41,152,4684,6,0,P|97:150|160:175,1,120,2|0,0:0|0:0,0:0:0:0:
190,262,5190,2,0,P|246:264|309:239,1,120,2|0,0:0|0:0,0:0:0:0:
331,148,5696,2,0,L|395:157,1,60,2|0,0:0|0:0,0:0:0:0:
486,164,6033,2,0,L|493:104,1,60,2|0,0:0|0:0,0:0:0:0:
505,261,6370,1,2,0:0:0:0:
505,261,6707,6,0,B|431:234|369:268|369:268|296:310|221:287,1,288,0|0,0:0|0:0,0:0:0:0:
212,273,8729,6,0,P|196:216|218:161,1,120,2|0,0:0|0:0,0:0:0:0:
273,74,9235,1,2,0:0:0:0:
351,140,9404,2,0,P|382:145|419:142,1,60,0|0,0:0|0:0,0:0:0:0:
273,74,9741,2,0,P|241:79|205:76,1,60,2|0,0:0|0:0,0:0:0:0:
137,6,10078,2,0,P|71:32|42:85,1,120,0|2,0:0|0:0,0:0:0:0:
135,230,10752,6,0,L|137:107,1,120,2|0,0:0|0:0,0:0:0:0:
51,166,11257,1,2,0:0:0:0:
55,273,11426,2,0,P|75:300|113:320,1,60,0|0,0:0|0:0,0:0:0:0:
197,294,11763,2,0,L|334:308,1,120,2|0,0:0|0:0,0:0:0:0:
404,358,12269,1,2,0:0:0:0:
450,275,12437,2,0,P|483:270|526:269,1,60,2|0,0:0|0:0,0:0:0:0:
393,201,12774,6,0,L|405:75,1,120,2|0,0:0|0:0,0:0:0:0:
336,5,13280,1,2,0:0:0:0:
273,85,13448,2,0,P|239:85|203:81,1,60,2|0,0:0|0:0,0:0:0:0:
98,35,13786,2,0,P|120:89|103:145,1,120,2|0,0:0|0:0,0:0:0:0:
7,176,14291,2,0,L|11:116,1,60,2|2,0:0|0:0,0:0:0:0:
35,312,14797,6,0,P|66:302|106:302,1,60,2|0,0:0|0:0,0:0:0:0:
172,236,15134,2,0,P|203:245|243:246,1,60,2|0,0:0|0:0,0:0:0:0:
259,339,15471,2,0,P|290:329|330:329,1,60,2|0,0:0|0:0,0:0:0:0:
416,351,15808,1,2,0:0:0:0:
481,176,16819,6,0,P|391:209|302:155,1,192,2|0,0:0|0:0,0:0:0:0:
243,54,17831,1,2,0:0:0:0:
111,215,18842,6,0,L|31:212,1,60,2|0,0:0|0:0,0:0:0:0:
101,315,19179,2,0,L|160:312,1,60,2|0,0:0|0:0,0:0:0:0:
224,231,19516,2,0,P|253:231|283:234,1,60,2|0,0:0|0:0,0:0:0:0:
359,305,19853,1,2,0:0:0:0:
492,49,20864,6,0,L|506:194,1,120,2|0,0:0|0:0,0:0:0:0:
443,251,21370,1,2,0:0:0:0:
363,187,21538,2,0,P|334:183|297:183,1,60,2|0,0:0|0:0,0:0:0:0:
225,116,21875,2,0,P|201:164|221:241,1,120,2|2,0:0|0:0,0:0:0:0:
276,343,22550,1,2,0:0:0:0:
303,182,22887,5,4,0:0:0:0:
256,192,22971,12,0,26932,0:0:0:0:
256,192,27943,12,0,29965,0:0:0:0:
437,308,30977,6,0,P|405:309|376:303,1,60,8|0,3:0|0:0,0:0:0:0:
310,235,31314,1,0,0:0:0:0:
335,142,31482,2,0,P|392:120|479:136,1,120,8|0,0:0|0:0,0:0:0:0:
361,19,31988,2,0,L|286:14,1,60,8|0,0:3|0:0,0:0:0:0:
228,77,32325,1,8,0:0:0:0:
138,43,32493,1,4,0:3:0:0:
55,92,32662,2,0,P|46:58|46:17,1,60,8|2,0:0|0:0,0:0:0:0:
152,130,32999,6,0,P|149:159|141:188,1,60,8|0,0:3|0:0,0:0:0:0:
76,259,33336,1,0,0:0:0:0:
148,321,33505,2,0,L|288:311,1,120,8|0,0:0|0:0,0:0:0:0:
390,262,34010,2,0,P|384:288|383:336,1,60,8|0,0:3|0:0,0:0:0:0:
475,299,34347,1,8,0:0:0:0:
506,207,34516,1,4,0:3:0:0:
444,133,34684,2,0,L|368:127,1,60,8|2,0:0|0:0,0:0:0:0:
283,141,35022,6,0,P|300:175|305:237,1,60,8|0,0:3|0:0,0:0:0:0:
231,257,35359,1,0,0:0:0:0:
257,349,35527,2,0,P|198:345|145:288,1,120,8|0,0:0|0:0,0:0:0:0:
150,210,36033,2,0,P|146:178|139:149,1,60,8|0,0:3|0:0,0:0:0:0:
107,60,36370,1,8,0:0:0:0:
187,8,36538,1,4,0:3:0:0:
258,72,36707,2,0,L|330:68,1,60,8|2,0:0|0:0,0:0:0:0:
404,110,37044,6,0,P|377:165|377:238,1,120,8|0,0:3|0:0,0:0:0:0:
391,317,37550,1,8,0:0:0:0:
242,352,37887,1,0,0:0:0:0:
182,271,38055,2,0,L|95:277,1,71.9999978027344,8|0,0:3|0:0,0:0:0:0:
39,347,38392,2,0,P|14:257|45:199,1,143.999995605469,8|8,0:3|0:3,0:0:0:0:
58,191,39066,6,0,B|117:186|161:226|161:226|189:204|189:204|215:207|263:193,1,215.999993408203,2|0,0:0|0:0,0:0:0:0:
255,194,41089,6,0,P|237:254|273:325,1,138.000002632141,4|8,0:0|0:0,0:0:0:0:
346,252,41595,1,0,0:0:0:0:
439,299,41763,2,0,P|446:258|440:219,1,69.0000013160706,8|0,0:0|0:0,0:0:0:0:
371,157,42100,2,0,L|368:74,1,69.0000013160706,0|0,1:0|0:0,0:0:0:0:
308,22,42437,2,0,P|275:30|220:34,1,69.0000013160706,0|0,1:0|0:0,0:0:0:0:
146,5,42774,1,8,0:0:0:0:
55,175,43111,6,0,P|36:110|64:49,1,138.000002632141,0|8,1:0|0:0,0:0:0:0:
142,117,43617,1,8,0:0:0:0:
215,189,43786,2,0,P|207:226|202:259,1,69.0000013160706,8|8,0:0|0:0,0:0:0:0:
149,345,44123,1,0,1:0:0:0:
247,374,44291,1,0,0:0:0:0:
342,332,44460,2,0,P|381:338|437:343,1,69.0000013160706,8|0,0:0|0:0,0:0:0:0:
505,300,44797,1,8,0:0:0:0:
485,198,44965,1,2,0:0:0:0:
485,198,45050,1,2,0:0:0:0:
485,198,45134,6,0,P|442:177|348:175,1,138.000002632141,0|0,1:0|0:0,0:0:0:0:
255,205,45639,1,8,0:0:0:0:
158,165,45808,2,0,P|161:128|166:77,1,69.0000013160706,8|8,0:0|0:0,0:0:0:0:
99,14,46145,2,0,P|65:20|33:33,1,69.0000013160706,8|0,0:0|0:0,0:0:0:0:
2,132,46482,2,0,P|5:169|10:220,1,69.0000013160706,8|0,0:0|0:0,0:0:0:0:
51,294,46819,1,0,1:0:0:0:
60,316,47156,6,0,P|127:285|202:298,1,138.000002632141,0|8,1:0|0:0,0:0:0:0:
277,345,47662,1,0,0:0:0:0:
362,286,47831,2,0,P|401:283|451:276,1,69.0000013160706,8|0,0:0|0:0,0:0:0:0:
502,204,48168,1,8,0:3:0:0:
434,126,48336,1,8,0:3:0:0:
344,72,48505,2,0,P|334:101|335:147,1,69.0000013160706,4|8,0:3|0:0,0:0:0:0:
235,195,48842,2,0,P|235:160|224:127,1,69.0000013160706,4|8,0:3|0:0,0:0:0:0:
165,18,49179,6,0,P|99:15|27:11,1,138.000002632141,4|0,0:0|0:0,0:0:0:0:
4,111,49684,1,8,0:0:0:0:
100,152,49853,1,8,0:0:0:0:
122,159,50190,6,0,L|129:237,1,69.0000013160706,0|0,1:0|0:0,0:0:0:0:
57,304,50527,2,0,P|125:333|196:308,1,138.000002632141,0|2,1:0|0:0,0:0:0:0:
353,244,51201,6,0,P|285:215|214:240,1,138.000002632141,0|8,1:0|0:0,0:0:0:0:
282,318,51707,1,8,0:0:0:0:
381,343,51875,2,0,P|415:325|441:290,1,69.0000013160706,8|8,0:0|0:0,0:0:0:0:
485,211,52213,2,0,P|481:175|477:138,1,69.0000013160706,8|0,0:0|0:0,0:0:0:0:
430,50,52550,2,0,P|398:53|361:53,1,69.0000013160706,8|0,0:0|0:0,0:0:0:0:
266,11,52887,1,0,1:0:0:0:
172,53,53055,1,4,0:3:0:0:
172,53,53139,1,0,0:0:0:0:
172,53,53224,6,0,P|139:112|166:194,1,138.000002632141,0|0,1:0|0:0,0:0:0:0:
223,253,53729,1,2,0:0:0:0:
308,194,53898,2,0,P|346:193|394:190,1,69.0000013160706,2|0,0:0|0:0,0:0:0:0:
451,118,54235,2,0,P|480:178|458:262,1,138.000002632141,0|8,1:0|0:0,0:0:0:0:
409,331,54741,1,0,0:0:0:0:
312,293,54909,1,8,0:0:0:0:
291,281,55246,6,0,P|254:278|201:277,1,69.0000013160706,0|0,1:0|0:0,0:0:0:0:
144,208,55583,1,8,0:3:0:0:
69,280,55752,1,4,0:3:0:0:
18,190,55920,2,0,P|21:151|25:105,1,69.0000013160706,8|4,0:3|0:3,0:0:0:0:
67,35,56257,2,0,P|134:13|217:30,1,138.000002632141,0|8,1:0|0:0,0:0:0:0:
284,81,56763,1,0,0:0:0:0:
377,35,56932,1,8,0:0:0:0:
413,209,57269,5,4,0:0:0:0:
256,192,57353,12,0,59797,0:0:0:0:
