osu file format v14

[General]
AudioFilename: audio.mp3
AudioLeadIn: 0
PreviewTime: 40914
Countdown: 0
SampleSet: Soft
StackLeniency: 0.7
Mode: 0
LetterboxInBreaks: 0
WidescreenStoryboard: 1

[Editor]
DistanceSpacing: 1
BeatDivisor: 4
GridSize: 32
TimelineZoom: 1.7

[Metadata]
Title:Falling, The Star Light
TitleUnicode:Falling, The Star Light
Artist:Mineko Yamamoto
ArtistUnicode:山本美禰子
Creator:Crysisters
Version:Normal
Source:ロロナのアトリエ ~アーランドの錬金術士~
Tags:Rorona no Atelier: Arland no Renkinjutsushi 中河健 video game folk opening Atelier Rorona: The Alchemist of Arland japanese pop jpop j-pop
BeatmapID:3127245
BeatmapSetID:1527986

[Difficulty]
HPDrainRate:4
CircleSize:3.5
OverallDifficulty:4
ApproachRate:5
SliderMultiplier:1
SliderTickRate:1

[Events]
//Background and Video events
0,0,"Rorona.jpg",0,0
//Break Periods
//Storyboard Layer 0 (Background)
//Storyboard Layer 1 (Fail)
//Storyboard Layer 2 (Pass)
//Storyboard Layer 3 (Foreground)
//Storyboard Layer 4 (Overlay)
//Storyboard Sound Samples

[TimingPoints]
634,337.078651685393,3,2,1,40,1,0
634,-100,3,2,1,40,0,0
6701,-100,3,2,1,30,0,0
7712,-100,3,2,1,20,0,0
8049,-100,3,2,1,30,0,0
8723,-100,3,2,1,30,0,0
16813,-100,3,2,1,30,0,0
17825,-100,3,2,1,30,0,0
18836,-100,3,2,1,40,0,0
19847,-100,3,2,1,30,0,0
20016,-100,3,2,1,10,0,0
20690,-100,3,2,1,10,0,0
20858,-100,3,2,1,50,0,0
27853,-100,3,2,1,20,0,0
27937,-100,3,2,1,60,0,0
30971,-100,3,2,1,70,0,0
38049,-100,3,2,1,60,0,0
38386,-100,3,2,1,60,0,0
38723,-100,3,2,1,60,0,0
39060,-100,3,2,1,30,0,0
40072,-100,3,2,1,20,0,0
41083,-100,3,2,1,70,0,1
46476,-100,3,2,1,70,0,1
46813,-100,3,2,1,70,0,1
57263,-100,3,2,1,60,0,0
59791,-100,3,2,1,10,0,0

[Colours]
Combo1 : 130,130,255
Combo2 : 0,255,128
Combo3 : 255,106,181
Combo4 : 255,255,132
Combo5 : 225,225,225

[HitObjects]
197,222,634,6,0,P|212:174|181:61,2,150,2|2|2,0:0|0:0|0:0,0:0:0:0:
132,298,1982,1,2,0:0:0:0:
205,365,2319,1,2,0:0:0:0:
278,292,2656,6,0,P|356:278|444:320,2,150,2|2|2,0:0|0:0|0:0,0:0:0:0:
198,352,4004,1,2,0:0:0:0:
164,257,4341,1,2,0:0:0:0:
232,184,4678,6,0,P|288:203|352:174,1,100,2|0,0:0|0:0,0:0:0:0:
362,159,5184,2,0,L|347:43,1,100,2|0,0:0|0:0,0:0:0:0:
341,10,5690,1,2,2:0:0:0:
262,71,6027,1,2,2:0:0:0:
172,26,6364,1,2,2:0:0:0:
104,100,6701,6,2,B|89:204|167:181|217:255|168:353|62:301,1,300,2|0,0:0|0:0,0:0:0:0:
238,53,8723,6,0,P|307:21|383:58,1,150,4|0,0:0|0:0,0:0:0:0:
405,86,9398,1,2,0:0:0:0:
468,163,9735,2,0,L|460:229,1,50,2|0,0:0|0:0,0:0:0:0:
453,262,10072,1,2,0:0:0:0:
365,310,10409,2,0,L|360:242,1,50,2|0,0:0|0:0,0:0:0:0:
351,210,10746,6,0,B|271:193|291:273|202:257,1,150,2|2,0:0|0:0,0:0:0:0:
167,252,11420,1,2,0:0:0:0:
110,169,11757,1,2,0:0:0:0:
381,40,12768,6,0,B|397:100|397:100|387:125|387:125|406:197,1,150,2|0,0:0|0:0,0:0:0:0:
415,233,13442,1,2,0:0:0:0:
370,322,13780,2,0,P|315:330|272:313,1,100,2|0,0:0|0:0,0:0:0:0:
249,271,14285,2,0,L|238:212,1,50,2|2,0:0|0:0,0:0:0:0:
187,138,14791,6,0,L|209:22,2,100,2|2|2,0:0|0:0|0:0,0:0:0:0:
110,202,15802,2,0,P|66:178|8:192,1,100,2|0,0:0|0:0,0:0:0:0:
138,330,16813,6,0,P|231:315|341:308,1,200,2|0,0:0|0:0,0:0:0:0:
436,309,17825,2,0,P|431:235|310:216,1,200,2|0,0:0|0:0,0:0:0:0:
223,215,18836,6,0,P|177:175|172:38,1,200,2|2,0:0|0:0,0:0:0:0:
267,59,19847,2,0,P|201:128|100:115,1,200,2|0,0:0|0:0,0:0:0:0:
4,124,20858,6,0,B|27:169|27:169|15:287|15:287|38:326,1,200,2|2,0:0|0:0,0:0:0:0:
114,360,21869,1,2,0:0:0:0:
197,303,22207,1,2,0:0:0:0:
288,343,22544,1,2,0:0:0:0:
256,192,22881,12,0,26589,0:0:0:0:
256,192,27937,12,0,29959,0:0:0:0:
159,130,30971,6,0,P|206:138|266:119,1,100,4|8,3:0|0:3,0:0:0:0:
294,93,31476,2,0,P|348:84|401:107,1,100,4|4,0:3|0:3,0:0:0:0:
424,134,31982,1,0,3:0:0:0:
444,231,32319,1,8,0:0:0:0:
399,320,32656,2,0,L|342:306,1,50,8|2,0:0|0:0,0:0:0:0:
300,303,32993,6,0,P|293:256|307:192,1,100,0|8,3:0|0:3,0:0:0:0:
317,157,33499,2,0,P|325:113|311:49,1,100,4|4,0:3|0:3,0:0:0:0:
292,14,34004,1,0,3:0:0:0:
193,0,34341,1,8,0:0:0:0:
123,70,34678,2,0,L|132:130,1,50,8|2,0:0|0:0,0:0:0:0:
128,169,35016,6,0,P|180:156|225:171,2,100,0|8|2,3:0|0:3|0:0,0:0:0:0:
43,236,36027,1,0,3:0:0:0:
69,332,36364,1,8,0:0:0:0:
161,294,36701,2,0,L|219:303,1,50,8|2,0:0|0:0,0:0:0:0:
259,309,37038,6,0,P|243:257|261:200,2,100,0|8|8,3:0|0:3|0:3,0:0:0:0:
345,359,38049,1,4,3:0:0:0:
436,317,38386,1,4,3:3:0:0:
462,220,38723,1,2,3:2:0:0:
398,142,39060,6,2,B|364:108|306:110|306:110|267:131|225:168|225:168|156:163|132:107,1,300,2|2,0:0|0:0,0:0:0:0:
438,65,41083,6,0,P|485:138|480:205,1,150,6|2,3:2|3:2,0:0:0:0:
466,246,41757,2,0,L|402:236,1,50,10|0,0:0|1:0,0:0:0:0:
366,232,42094,1,2,3:2:0:0:
278,183,42431,1,2,3:2:0:0:
225,267,42768,1,10,1:2:0:0:
308,321,43105,2,0,B|352:344|352:344|423:340,2,100,2|0|10,3:2|0:0|0:2,0:0:0:0:
215,281,44117,2,0,P|159:279|103:303,1,100,0|10,3:0|3:2,0:0:0:0:
30,240,44791,2,0,L|18:174,1,50,8|2,0:0|0:0,0:0:0:0:
9,141,45128,6,0,P|80:173|154:143,1,150,4|0,3:2|3:0,0:0:0:0:
182,118,45802,2,0,L|175:49,1,50,10|0,0:0|1:0,0:0:0:0:
173,18,46139,1,2,3:2:0:0:
258,69,46476,1,2,3:2:0:0:
343,17,46813,1,10,1:2:0:0:
420,80,47150,2,0,B|430:125|430:125|407:190,2,100,2|8|10,3:2|0:0|0:0,0:0:0:0:
330,33,48162,1,2,3:2:0:0:
248,90,48499,1,8,3:0:0:0:
177,13,48836,1,4,0:3:0:0:
89,61,49173,6,0,B|34:132|108:134|60:210,1,150,6|2,3:2|3:2,0:0:0:0:
38,245,49847,2,0,L|54:306,1,50,10|0,0:0|1:0,0:0:0:0:
66,341,50184,1,2,3:2:0:0:
160,373,50521,1,2,3:2:0:0:
216,290,50858,1,10,1:2:0:0:
160,206,51195,2,0,P|137:164|151:102,1,100,2|0,3:2|0:0,0:0:0:0:
227,58,51869,2,0,L|300:63,1,50,10|0,0:2|1:0,0:0:0:0:
324,44,52207,2,0,P|312:98|340:150,1,100,0|10,3:0|3:2,0:0:0:0:
412,191,52881,5,8,0:0:0:0:
370,281,53218,2,0,L|249:298,1,100,4|8,3:2|0:0,0:0:0:0:
202,367,53892,2,0,L|145:352,1,50,10|0,0:0|1:0,0:0:0:0:
105,342,54229,2,0,P|129:313|127:241,1,100,2|8,3:2|0:0,0:0:0:0:
78,168,54903,1,8,0:0:0:0:
0,230,55240,6,0,L|16:328,2,100,2|8|8,3:2|0:3|0:3,0:0:0:0:
54,147,56251,2,0,L|66:48,2,100,0|10|8,3:0|0:0|0:0,0:0:0:0:
120,221,57263,1,4,0:0:0:0:
256,192,57600,12,0,59791,0:0:0:0:
