osu file format v14

[General]
AudioFilename: audio.mp3
AudioLeadIn: 0
PreviewTime: 40914
Countdown: 0
SampleSet: Soft
StackLeniency: 0.7
Mode: 0
LetterboxInBreaks: 0
WidescreenStoryboard: 1

[Editor]
DistanceSpacing: 1.5
BeatDivisor: 4
GridSize: 32
TimelineZoom: 1.7

[Metadata]
Title:Falling, The Star Light
TitleUnicode:Falling, The Star Light
Artist:Mineko Yamamoto
ArtistUnicode:山本美禰子
Creator:Crysisters
Version:Hard
Source:ロロナのアトリエ ~アーランドの錬金術士~
Tags:Rorona no Atelier: Arland no Renkinjutsushi 中河健 video game folk opening Atelier Rorona: The Alchemist of Arland japanese pop jpop j-pop
BeatmapID:3126875
BeatmapSetID:1527986

[Difficulty]
HPDrainRate:4.5
CircleSize:3.5
OverallDifficulty:6
ApproachRate:7.5
SliderMultiplier:1.3
SliderTickRate:1

[Events]
//Background and Video events
0,0,"Rorona.jpg",0,0
//Break Periods
//Storyboard Layer 0 (Background)
//Storyboard Layer 1 (Fail)
//Storyboard Layer 2 (Pass)
//Storyboard Layer 3 (Foreground)
//Storyboard Layer 4 (Overlay)
//Storyboard Sound Samples

[TimingPoints]
634,337.078651685393,3,2,1,40,1,0
634,-125,3,2,1,40,0,0
1982,-125,3,2,1,40,0,0
2319,-125,3,2,1,40,0,0
2656,-125,3,2,1,40,0,0
4004,-125,3,2,1,40,0,0
4341,-125,3,2,1,40,0,0
4678,-125,3,2,1,40,0,0
6701,-125,3,2,1,30,0,0
7712,-125,3,2,1,20,0,0
8049,-125,3,2,1,30,0,0
8723,-125,3,2,1,30,0,0
9060,-125,3,2,1,30,0,0
16645,-125,3,2,1,30,0,0
16813,-111.111111111111,3,2,1,30,0,0
17825,-125,3,2,1,30,0,0
18667,-125,3,2,1,30,0,0
18836,-111.111111111111,3,2,1,40,0,0
19847,-111.111111111111,3,2,1,30,0,0
20016,-111.111111111111,3,2,1,10,0,0
20690,-125,3,2,1,10,0,0
20858,-111.111111111111,3,2,1,50,0,0
21869,-100,3,2,1,50,0,0
26589,-105.263157894737,3,2,1,50,0,0
27853,-105.263157894737,3,2,1,20,0,0
27937,-105.263157894737,3,2,1,60,0,0
29285,-100,3,2,1,60,0,0
30971,-90.9090909090909,3,2,1,70,0,0
38049,-66.6666666666667,3,2,1,60,0,0
38386,-83.3333333333333,3,2,1,60,0,0
38723,-90.9090909090909,3,2,1,60,0,0
39060,-125,3,2,1,30,0,0
40072,-90.9090909090909,3,2,1,20,0,0
41083,-90.9090909090909,3,2,1,70,0,1
46476,-90.9090909090909,3,2,1,70,0,1
46813,-90.9090909090909,3,2,1,70,0,1
57263,-100,3,2,1,60,0,0
59791,-100,3,2,1,10,0,0

[Colours]
Combo1 : 130,130,255
Combo2 : 0,255,128
Combo3 : 255,106,181
Combo4 : 255,255,132
Combo5 : 225,225,225

[HitObjects]
456,175,634,6,0,P|483:103|464:11,2,156,2|2|2,0:0|0:0|0:0,0:0:0:0:
371,305,1982,2,0,L|296:288,1,52,2|0,0:0|0:0,0:0:0:0:
273,230,2319,2,0,L|212:236,1,52,2|0,0:0|0:0,0:0:0:0:
151,199,2656,6,0,P|170:267|139:360,2,156,2|2|2,0:0|0:0|0:0,0:0:0:0:
66,68,4004,2,0,L|137:55,1,52,2|0,0:0|0:0,0:0:0:0:
182,101,4341,2,0,L|253:105,1,52,2|0,0:0|0:0,0:0:0:0:
288,160,4678,6,0,P|276:91|341:40,1,156,2|2,0:0|0:0,0:0:0:0:
412,60,5353,2,0,L|420:125,1,52
426,189,5690,2,0,P|458:194|487:216,1,52,2|0,2:0|2:0,2:0:0:0:
497,303,6027,2,0,P|476:328|443:342,1,52,2|0,2:0|2:0,2:0:0:0:
365,307,6364,2,0,P|353:276|357:240,1,52,2|0,2:0|2:0,0:0:0:0:
428,264,6701,6,2,B|248:243|303:360|133:354,1,312,2|0,0:0|0:0,0:0:0:0:
36,40,8386,1,0,0:0:0:0:
36,39,8723,6,0,P|74:57|141:32,1,104,4|0,0:0|0:0,0:0:0:0:
209,36,9229,1,0,0:0:0:0:
209,36,9398,2,0,L|221:106,1,52,2|0,0:0|0:0,0:0:0:0:
182,157,9735,2,0,P|147:168|126:193,1,52,2|0,0:0|0:0,0:0:0:0:
144,255,10072,2,0,P|171:279|203:285,1,52,2|0,0:0|0:0,0:0:0:0:
253,245,10409,1,2,0:0:0:0:
330,109,10746,6,0,P|384:91|472:152,1,156,2|2,0:0|0:0,0:0:0:0:
473,215,11420,2,0,L|463:291,1,52,2|0,0:0|0:0,0:0:0:0:
393,296,11757,1,2,0:0:0:0:
248,350,12094,1,2,0:0:0:0:
122,256,12431,1,2,0:0:0:0:
165,106,12768,6,0,B|216:133|216:133|348:101,1,156,2|0,0:0|0:0,0:0:0:0:
385,84,13442,2,0,L|410:161,1,52,2|0,0:0|0:0,0:0:0:0:
429,206,13780,2,0,P|368:189|297:233,1,104,2|0,0:0|0:0,0:0:0:0:
294,269,14285,1,2,0:0:0:0:
343,329,14454,1,2,0:0:0:0:
485,266,14791,6,0,P|508:319|488:371,2,104,2|2|2,0:0|0:0|0:0,0:0:0:0:
341,204,15802,1,2,0:0:0:0:
222,305,16139,6,0,L|158:313,3,52
83,296,16813,6,0,B|112:203|35:211|70:123,1,175.499994644165,2|0,0:0|0:0,0:0:0:0:
119,65,17487,2,0,P|144:86|177:92,1,58.4999982147217
178,14,17825,1,2,0:0:0:0:
329,50,18162,6,0,L|310:119,3,52
254,163,18836,6,0,P|317:142|400:189,2,116.999996429443,2|2|2,0:0|0:0|0:0,0:0:0:0:
327,322,19847,1,2,0:0:0:0:
470,215,20184,6,0,L|454:141,3,58.4999982147217
477,71,20858,6,0,P|424:73|366:125,1,116.999996429443,2|0,0:0|0:0,0:0:0:0:
318,178,21364,1,0,0:0:0:0:
251,121,21532,1,2,0:0:0:0:
103,248,21869,6,0,L|112:335,1,65,2|0,0:0|0:0,0:0:0:0:
195,360,22207,1,2,0:0:0:0:
276,306,22375,1,0,0:0:0:0:
362,351,22544,2,0,P|412:338|432:254,1,130,2|2,0:0|0:0,0:0:0:0:
256,192,23049,12,0,26251,0:0:0:0:
81,114,26589,6,0,L|78:83,2,30.8749991755486
151,174,26926,2,0,L|140:258,1,61.7499983510972,2|0,0:0|0:0,0:0:0:0:
195,312,27263,2,0,P|154:314|115:335,2,61.7499983510972
261,375,27768,1,0,0:0:0:0:
340,326,27937,6,0,L|351:243,1,61.7499983510972,2|0,0:0|0:0,0:0:0:0:
315,177,28274,2,0,P|274:189|242:178,1,61.7499983510972
244,88,28611,2,0,P|285:76|315:85,2,61.7499983510972,2|0|0,0:0|0:0|0:0,0:0:0:0:
144,255,29285,6,0,L|122:174,1,65,2|0,0:0|0:0,0:0:0:0:
103,98,29622,2,0,P|61:114|46:135,1,65
33,225,29959,2,0,L|51:306,1,65
98,371,30296,2,0,P|132:358|189:360,1,65,2|0,0:0|0:0,0:0:0:0:
244,360,30633,1,0,0:0:0:0:
303,299,30802,1,0,0:0:0:0:
274,214,30971,6,0,P|206:195|152:247,1,143.000004364014,4|8,3:0|0:3,0:0:0:0:
164,334,31476,1,4,0:3:0:0:
164,334,31645,2,0,P|202:339|251:321,1,71.5000021820069,2|4,0:0|0:3,0:0:0:0:
321,281,31982,1,0,3:0:0:0:
403,329,32150,1,0,0:0:0:0:
459,254,32319,2,0,P|472:220|475:176,1,71.5000021820069,8|4,0:0|0:3,0:0:0:0:
429,110,32656,1,8,0:0:0:0:
429,110,32825,1,2,0:0:0:0:
352,162,32993,6,0,B|277:118|275:199|195:144,1,143.000004364014,0|8,3:0|0:3,0:0:0:0:
135,108,33499,1,4,0:3:0:0:
68,172,33667,2,0,P|64:221|91:260,2,71.5000021820069,2|4|0,0:0|0:3|3:0,0:0:0:0:
215,59,34341,2,0,L|292:64,1,71.5000021820069,8|4,0:0|0:3,0:0:0:0:
373,96,34678,1,8,0:0:0:0:
318,171,34847,1,2,0:0:0:0:
372,246,35016,6,0,B|452:226|432:299|529:271,1,143.000004364014,0|8,3:0|0:3,0:0:0:0:
487,181,35521,1,4,0:3:0:0:
487,181,35690,2,0,P|448:159|408:162,1,71.5000021820069,2|4,0:0|0:3,0:0:0:0:
334,157,36027,1,0,3:0:0:0:
355,247,36195,1,0,0:0:0:0:
286,310,36364,2,0,P|233:303|193:321,1,71.5000021820069,8|4,0:0|0:3,0:0:0:0:
142,363,36701,1,8,0:0:0:0:
142,363,36869,1,2,0:0:0:0:
110,275,37038,6,0,B|118:204|92:158|92:158|56:131,2,143.000004364014,0|8|8,3:0|0:3|0:3,0:0:0:0:
168,354,37881,1,4,0:3:0:0:
168,354,38049,1,4,3:0:0:0:
364,302,38386,1,4,3:3:0:0:
309,129,38723,1,2,3:2:0:0:
309,127,39060,6,2,P|225:88|350:48,1,312
52,271,41083,6,0,P|77:303|182:292,1,143.000004364014,6|8,3:2|0:0,0:0:0:0:
230,211,41589,1,2,3:2:0:0:
230,211,41757,2,0,L|217:131,1,71.5000021820069,10|0,0:0|1:0,0:0:0:0:
192,36,42094,6,0,P|147:37|110:67,1,71.5000021820069,2|0,3:2|0:0,0:0:0:0:
95,154,42431,2,0,P|109:185|137:206,1,71.5000021820069,2|0,3:2|0:0,0:0:0:0:
243,185,42768,2,0,P|263:145|256:98,1,71.5000021820069,10|0,1:2|0:0,0:0:0:0:
328,33,43105,6,0,P|371:26|415:46,1,71.5000021820069,2|0,3:2|0:0,0:0:0:0:
476,106,43442,1,0,0:0:0:0:
371,130,43611,1,0,3:0:0:0:
431,218,43780,2,0,P|456:233|510:233,1,71.5000021820069,10|0,0:2|1:0,0:0:0:0:
428,318,44117,6,0,B|366:313|366:313|341:326|341:326|279:321,1,143.000004364014,0|10,3:0|3:2,0:0:0:0:
113,230,44791,2,0,P|151:271|152:311,1,71.5000021820069,8|2,0:0|0:0,0:0:0:0:
59,357,45128,6,0,B|131:333|124:398|219:348,1,143.000004364014,4|8,3:2|0:0,0:0:0:0:
273,282,45633,2,0,P|301:318|302:366,2,71.5000021820069,0|10|0,3:0|0:0|1:0,0:0:0:0:
208,196,46139,6,0,P|190:161|185:111,1,71.5000021820069,2|0,3:2|0:0,0:0:0:0:
273,68,46476,2,0,P|278:30|304:-13,1,71.5000021820069,2|0,3:2|0:0,0:0:0:0:
401,0,46813,2,0,P|416:32|421:67,1,71.5000021820069,10|0,1:2|0:0,0:0:0:0:
500,140,47150,2,0,P|493:175|477:206,1,71.5000021820069,2|0,3:2|0:0,0:0:0:0:
389,268,47487,5,8,0:0:0:0:
349,167,47656,1,0,3:0:0:0:
266,236,47825,2,0,B|252:274|252:274|265:329|324:351,1,143.000004364014,10|2,0:0|3:2,0:0:0:0:
415,307,48330,1,10,0:0:0:0:
415,307,48499,2,0,L|405:223,2,71.5000021820069,8|8|4,3:0|0:0|0:3,0:0:0:0:
416,341,49173,6,0,P|354:382|286:365,1,143.000004364014,6|8,3:2|0:0,0:0:0:0:
245,276,49678,1,2,3:2:0:0:
245,276,49847,2,0,L|258:196,1,71.5000021820069,10|0,0:0|1:0,0:0:0:0:
289,104,50184,6,0,P|334:105|371:135,1,71.5000021820069,2|0,3:2|0:0,0:0:0:0:
386,222,50521,2,0,P|372:253|344:274,1,71.5000021820069,2|0,3:2|0:0,0:0:0:0:
238,253,50858,2,0,P|218:213|225:166,1,71.5000021820069,10|0,1:2|0:0,0:0:0:0:
146,106,51195,6,0,P|102:106|62:133,1,71.5000021820069,2|0,3:2|0:0,0:0:0:0:
23,210,51532,1,0,0:0:0:0:
127,186,51701,1,0,3:0:0:0:
81,282,51869,2,0,P|52:302|17:308,1,71.5000021820069,10|0,0:2|1:0,0:0:0:0:
105,369,52207,6,0,L|261:351,1,143.000004364014,0|10,3:0|3:2,0:0:0:0:
409,212,52881,2,0,L|253:194,1,143.000004364014,8|4,0:0|3:2,0:0:0:0:
266,195,53386,5,0,0:0:0:0:
180,129,53555,2,0,P|181:92|198:53,2,71.5000021820069,8|0|10,0:0|3:0|0:0,0:0:0:0:
240,217,54060,1,0,1:0:0:0:
162,291,54229,6,0,P|111:318|78:316,2,71.5000021820069,2|0|8,3:2|0:0|0:0,0:0:0:0:
218,199,54735,1,2,0:0:0:0:
297,270,54903,2,0,P|347:294|388:290,1,71.5000021820069,8|0,0:0|0:0,0:0:0:0:
399,193,55240,6,0,P|349:169|308:173,1,71.5000021820069,2|0,3:2|0:0,0:0:0:0:
238,218,55577,1,8,0:3:0:0:
172,132,55746,1,4,0:3:0:0:
244,53,55914,2,0,P|289:39|340:51,1,71.5000021820069,8|4,0:3|0:3,0:0:0:0:
381,123,56251,6,0,L|369:203,1,71.5000021820069,0|8,3:0|0:0,0:0:0:0:
364,316,56589,2,0,P|323:305|291:272,1,71.5000021820069,10|0,0:0|0:0,0:0:0:0:
256,192,56926,2,0,P|210:211|185:240,2,71.5000021820069,8|8|4,0:0|0:0|0:0,0:0:0:0:
256,192,57347,12,0,59791,0:0:0:0:
