osu file format v14

[General]
AudioFilename: audio.mp3
AudioLeadIn: 0
PreviewTime: 40914
Countdown: 0
SampleSet: Soft
StackLeniency: 0.7
Mode: 0
LetterboxInBreaks: 0
WidescreenStoryboard: 1

[Editor]
DistanceSpacing: 1.2
BeatDivisor: 4
GridSize: 32
TimelineZoom: 1

[Metadata]
Title:Falling, The Star Light
TitleUnicode:Falling, The Star Light
Artist:Mineko Yamamoto
ArtistUnicode:山本美禰子
Creator:-Hitomi
Version:Hinae's Normal
Source:ロロナのアトリエ ~アーランドの錬金術士~
Tags:l1ght_u light_u hinae kudou chitose kudou_chitose mrrrk Rorona no Atelier: Arland no Renkinjutsushi 中河健 video game folk opening Atelier Rorona: The Alchemist of Arland japanese pop jpop j-pop
BeatmapID:3439261
BeatmapSetID:1682448

[Difficulty]
HPDrainRate:4
CircleSize:3.5
OverallDifficulty:4
ApproachRate:5.5
SliderMultiplier:0.999999999999999
SliderTickRate:1

[Events]
//Background and Video events
0,0,"68914676_p0.jpg",0,0
//Break Periods
//Storyboard Layer 0 (Background)
//Storyboard Layer 1 (Fail)
//Storyboard Layer 2 (Pass)
//Storyboard Layer 3 (Foreground)
//Storyboard Layer 4 (Overlay)
//Storyboard Sound Samples

[TimingPoints]
634,337.078651685393,3,2,1,45,1,0
634,-133.333333333333,3,2,1,45,0,0
8723,-133.333333333333,3,2,1,40,0,0
22881,-133.333333333333,3,2,1,50,0,0
26926,-133.333333333333,3,2,1,50,0,0
30971,-111.111111111111,3,2,1,50,0,0
31308,-111.111111111111,3,2,2,50,0,0
37038,-111.111111111111,3,2,1,50,0,0
38049,-111.111111111111,3,2,2,50,0,0
41083,-100,3,2,1,60,0,0
55577,-100,3,2,2,60,0,0
56251,-100,3,2,1,60,0,0
56589,-100,3,2,2,60,0,0
56926,-100,3,2,1,60,0,0
59622,-100,3,2,1,20,0,0

[Colours]
Combo1 : 255,155,195
Combo2 : 245,255,155
Combo3 : 155,255,215
Combo4 : 165,155,255

[HitObjects]
133,163,634,6,0,P|105:154|27:189,2,112.500004291534,2|2|2,0:1|0:0|0:0,0:0:0:0:
202,220,1982,2,0,P|236:211|287:195,1,75.000002861023,2|2,0:0|0:0,0:0:0:0:
346,145,2656,2,0,B|337:106|337:106|351:78|351:78|339:25,2,112.500004291534,2|2|2,0:1|0:0|0:0,0:0:0:0:
422,192,4004,2,0,P|417:228|409:283,1,75.000002861023,2|2,0:0|0:0,0:0:0:0:
351,333,4678,6,0,B|300:314|297:366|237:343,2,112.500004291534,2|2|2,0:1|0:0|0:0,0:0:0:0:
411,266,6027,2,0,P|416:229|422:192,1,75.000002861023,2|2,0:0|0:0,0:0:0:0:
357,129,6701,2,0,B|319:98|263:95|221:135|221:188|221:188|245:189|268:208,1,225.000008583069,4|2,0:3|0:1,0:0:0:0:
411,266,8386,5,0,0:0:0:0:
471,199,8723,2,0,P|464:164|450:74,1,112.500004291534,2|2,3:2|0:0,0:0:0:0:
442,43,9398,1,2,0:0:0:0:
361,84,9735,2,0,P|334:69|280:77,2,75.000002861023,2|2|2,0:0|0:0|0:0,0:0:0:0:
414,156,10746,6,0,P|408:207|398:281,1,112.500004291534,2|2,0:0|0:0,0:0:0:0:
395,312,11420,2,0,P|369:298|308:301,1,75.000002861023,2|2,0:0|0:0,0:0:0:0:
262,360,12094,2,0,P|231:356|180:349,1,75.000002861023,2|2,0:0|0:0,0:0:0:0:
120,290,12768,6,0,B|94:200|94:200|112:169|154:172,1,150.000005722046,2|2,3:2|0:0,0:0:0:0:
217,125,13780,2,0,B|258:133|258:133|280:155|280:155|328:161,1,112.500004291534,2|0,0:0|0:0,0:0:0:0:
363,166,14454,1,2,0:0:0:0:
432,108,14791,6,0,P|427:74|420:31,2,75.000002861023,2|2|2,0:2|0:0|0:0,0:0:0:0:
497,170,15802,2,0,P|492:214|479:327,1,150.000005722046,2|0,0:0|0:0,0:0:0:0:
401,363,16813,6,0,P|374:338|257:344,1,150.000005722046,4|0,0:3|0:0,0:0:0:0:
182,370,17825,1,2,0:1:0:0:
17,157,18836,6,0,P|24:121|32:71,2,75.000002861023,4|0|0,0:3|0:0|0:0,0:0:0:0:
73,226,19847,1,2,0:1:0:0:
280,53,20858,6,0,P|314:59|393:71,1,112.500004291534,4|0,0:3|0:0,0:0:0:0:
435,77,21532,1,0,0:0:0:0:
486,150,21869,2,0,P|501:183|482:226,1,75.000002861023,2|0,0:2|0:0,0:0:0:0:
420,275,22544,1,0,0:0:0:0:
466,352,22881,5,2,0:1:0:0:
256,192,23049,12,0,26251,0:0:0:0:
484,287,26926,6,0,B|447:266|396:302|412:332|369:368|306:338,1,187.500007152557
284,315,27937,2,0,P|290:271|306:152,1,150.000005722046,2|2,0:0|0:0,0:0:0:0:
214,65,29117,2,0,B|168:23|65:18|35:111|93:169|152:125,1,262.50001001358,2|0,0:0|0:0,0:0:0:0:
216,183,30633,1,0,0:0:0:0:
152,246,30971,6,0,P|157:280|169:352,2,89.999997253418,8|2|0,3:0|3:0|0:0,0:0:0:0:
83,187,31982,2,0,P|90:147|102:80,1,89.999997253418,8|2,3:0|3:0,0:0:0:0:
166,38,32656,2,0,P|193:44|228:53,1,44.999998626709,0|2,0:0|3:0,0:0:0:0:
240,81,32993,6,0,P|278:66|334:72,1,89.999997253418,8|2,3:0|3:0,0:0:0:0:
399,16,33667,1,0,0:0:0:0:
471,69,34004,2,0,P|468:106|462:168,1,89.999997253418,8|2,3:0|3:0,0:0:0:0:
502,239,34678,1,0,0:0:0:0:
441,305,35016,5,8,3:0:0:0:
441,305,35184,2,0,B|404:318|404:318|385:335|385:335|351:343,1,89.999997253418,0|2,0:0|3:0,0:0:0:0:
322,316,35690,1,8,3:0:0:0:
246,364,36027,2,0,P|219:361|181:358,1,44.999998626709,0|2,0:0|0:0,0:0:0:0:
170,326,36364,2,0,P|132:334|66:347,1,89.999997253418,4|2,3:0|3:2,0:0:0:0:
11,287,37038,6,0,P|18:255|24:227,1,44.999998626709,2|2,1:2|3:0,0:0:0:0:
52,210,37375,2,0,P|80:231|140:229,1,89.999997253418,2|0,3:2|0:0,0:0:0:0:
204,177,38049,5,2,3:0:0:0:
279,225,38386,1,4,3:0:0:0:
353,175,38723,1,10,3:0:0:0:
430,220,39060,1,0,0:0:0:0:
447,49,41083,6,0,P|412:59|335:82,1,99.9999999999999,6|0,1:0|0:0,0:0:0:0:
314,110,41589,1,0,1:0:0:0:
314,110,41757,2,0,P|281:107|252:103,1,50,8|0,0:0|3:0,0:0:0:0:
218,126,42094,2,0,P|225:166|236:243,1,99.9999999999999,0|8,1:0|0:0,0:0:0:0:
312,286,42768,1,2,0:2:0:0:
240,356,43105,6,0,P|211:335|131:343,1,99.9999999999999,2|8,1:0|0:0,0:0:0:0:
105,358,43611,1,2,3:2:0:0:
105,358,43780,2,0,P|71:354|40:350,1,50,2|0,1:2|1:2,0:0:0:0:
15,320,44117,2,0,B|9:284|9:284|21:252|21:252|10:206,1,99.9999999999999,0|8,1:0|0:0,0:0:0:0:
94,163,44791,2,0,P|122:169|165:178,1,50,2|2,1:2|0:0,0:0:0:0:
184,145,45128,6,0,P|171:103|211:45,1,99.9999999999999,8|8,1:3|0:0,0:0:0:0:
239,33,45633,1,0,1:0:0:0:
239,33,45802,2,0,P|274:42|309:51,1,50,0|0,1:0|0:0,0:0:0:0:
328,74,46139,2,0,P|380:67|443:58,1,99.9999999999999,2|8,1:2|0:0,0:0:0:0:
502,125,46813,1,8,0:0:0:0:
427,191,47150,6,0,P|402:216|407:287,1,99.9999999999999,2|2,1:0|0:0,0:0:0:0:
374,320,47656,1,2,1:2:0:0:
374,320,47825,2,0,P|343:316|312:311,1,50,2|8,1:2|0:0,0:0:0:0:
283,284,48162,2,0,P|290:252|297:222,2,50,0|8|0,1:0|0:0|1:0,0:0:0:0:
198,337,48836,1,4,1:3:0:0:
122,271,49173,6,0,B|78:285|78:285|60:303|60:303|15:318,1,99.9999999999999,4|8,1:0|0:0,0:0:0:0:
2,272,49678,1,2,1:2:0:0:
2,272,49847,2,0,L|7:209,1,50,0|0,1:0|0:0,0:0:0:0:
39,185,50184,2,0,L|25:67,1,99.9999999999999,2|8,1:2|0:0,0:0:0:0:
96,13,50858,1,0,1:2:0:0:
176,72,51195,6,0,P|214:53|282:66,1,99.9999999999999,2|8,1:0|0:0,0:0:0:0:
307,92,51701,1,0,1:0:0:0:
307,92,51869,2,0,P|345:86|375:82,1,50,0|0,1:0|3:0,0:0:0:0:
382,41,52207,2,0,P|414:47|501:61,1,99.9999999999999,0|8,1:0|0:0,0:0:0:0:
507,154,52881,1,8,0:0:0:0:
455,239,53218,6,0,P|466:283|483:348,1,99.9999999999999,2|8,1:0|0:0,0:0:0:0:
454,379,53723,1,2,3:2:0:0:
454,379,53892,2,0,L|396:375,1,50,2|0,1:2|1:2,0:0:0:0:
369,339,54229,2,0,L|254:357,1,99.9999999999999,2|0,1:0|1:0,1:0:0:0:
172,374,54903,1,8,0:0:0:0:
90,315,55240,6,0,B|67:281|67:281|90:212,1,99.9999999999999,4|0,3:0|1:0,0:0:0:0:
103,180,55746,1,4,1:3:0:0:
103,180,55914,1,8,3:0:0:0:
181,241,56251,2,0,P|224:234|288:222,1,99.9999999999999,8|8,1:3|3:0,0:0:0:0:
328,248,56757,1,4,3:0:0:0:
328,248,56926,2,0,P|324:279|319:309,1,50,4|0,1:3|0:0,0:0:0:0:
347,339,57263,5,4,1:0:0:0:
256,192,57431,12,0,59622,0:1:0:0:
