osu file format v14

[General]
AudioFilename: audio.mp3
AudioLeadIn: 0
PreviewTime: -1
Countdown: 2
SampleSet: Normal
StackLeniency: 0.7
Mode: 0
LetterboxInBreaks: 1
EpilepsyWarning: 1
WidescreenStoryboard: 1

[Editor]
DistanceSpacing: 0.1
BeatDivisor: 1
GridSize: 4
TimelineZoom: 1

[Metadata]
Title:ways to die in minecraft
TitleUnicode:ways to die in minecraft
Artist:MineCraft Awesome Parodys
ArtistUnicode:MineCraft Awesome Parodys
Creator:BladeNext
Version:real music
Source:MineCraft Awesome Parodys
Tags:real,music,real,rock,minecraft,awesome,parodys,50,ways,to,die,in
BeatmapID:1266014
BeatmapSetID:598950

[Difficulty]
HPDrainRate:0.5
CircleSize:2
OverallDifficulty:4
ApproachRate:9
SliderMultiplier:2
SliderTickRate:1

[Events]
//Background and Video events
0,0,"hqdefault.jpg",0,0
//Break Periods
2,13499,16800
2,28699,30400
2,78242,88746
2,114904,115754
2,130593,132512
2,158274,160024
//Storyboard Layer 0 (Background)
//Storyboard Layer 1 (Fail)
//Storyboard Layer 2 (Pass)
//Storyboard Layer 3 (Foreground)
//Storyboard Sound Samples

[TimingPoints]
800,200,4,1,0,100,1,0
2200,-66.6666666666667,4,1,0,100,0,0
6000,-200,4,1,0,100,0,0
6700,-200,4,1,0,100,0,0
7500,-66.6666666666667,4,1,0,100,0,0
16800,-100,4,1,0,100,0,0
19000,-66.6666666666667,4,1,0,100,0,0
19600,-100,4,1,0,100,0,0
19800,-200,4,1,0,100,0,0
20800,-66.6666666666667,4,1,0,100,0,0
22700,-200,4,1,0,100,0,0
23250,-66.6666666666667,4,1,0,100,0,0
32300,200,4,1,0,100,1,0
32300,-50,4,1,0,100,0,0
33100,-200,4,1,0,100,0,0
35100,-66.6666666666667,4,1,0,100,0,0
37100,-200,4,1,0,100,0,0
37500,-66.6666666666667,4,1,0,100,0,0
41600,6,4,1,0,100,1,0
41600,-66.6666666666667,4,1,0,100,0,0
41792,200,4,1,0,100,1,0
46192,200,4,1,0,100,1,0
47592,-100,4,1,0,100,0,1
51392,-66.6666666666667,4,1,0,100,0,1
54992,100,4,1,0,100,1,1
55892,50,4,1,0,100,1,0
55892,200,4,1,0,100,1,1
55892,200,4,1,0,100,1,1
55892,-66.6666666666667,4,1,0,100,0,1
55892,-200,4,1,0,100,0,1
56292,200,4,1,0,100,1,1
56292,-66.6666666666667,4,1,0,100,0,1
57992,-1000.33333333333,4,1,0,100,0,1
60892,-1.33333333333,4,1,0,100,0,1
60992,-1E-05,4,1,0,100,0,1
62092,-100000.333333333,4,1,0,100,0,1
63092,-0.1,4,1,0,100,0,1
63292,-10,4,1,0,100,0,1
63642,-10,4,1,0,100,0,1
63892,50,4,1,0,100,1,1
65292,4000,4,1,0,100,1,1
68792,50,4,1,0,100,1,1
68792,-100000.333333333,4,1,0,100,0,1
73442,-10000,4,1,0,100,0,1
78042,869.565217391304,4,1,0,100,1,1
78042,-144.927536231884,4,1,0,100,0,0
89346,200,4,1,0,100,1,0
89346,-66.6666666666667,4,1,0,100,0,0
97546,-100000.333333333,4,1,0,100,0,0
98746,-33.3333333333333,4,1,0,100,0,0
99246,-133.333333333333,4,1,0,100,0,0
100646,-100000.333333333,4,1,0,100,0,0
102946,-50,4,1,0,100,0,0
103847,-66.6666666666667,4,1,0,100,0,1
103848,-66.6666666666667,4,1,0,100,0,0
103848,-66.6666666666667,4,1,0,100,0,1
103849,-66.6666666666667,4,1,0,100,0,0
103850,-66.6666666666667,4,1,0,100,0,0
104046,-66.6666666666667,4,1,0,100,0,1
104246,-66.6666666666667,4,1,0,100,0,1
104246,-66.6666666666667,4,1,0,100,0,0
104346,-66.6666666666667,4,1,0,100,0,0
104546,-66.6666666666667,4,1,0,100,0,1
104646,-66.6666666666667,4,1,0,100,0,0
104646,-66.6666666666667,4,1,0,100,0,1
104746,-66.6666666666667,4,1,0,100,0,0
104946,-66.6666666666667,4,1,0,100,0,1
105046,-66.6666666666667,4,1,0,100,0,0
105046,-66.6666666666667,4,1,0,100,0,1
105146,-66.6666666666667,4,1,0,100,0,0
105246,-66.6666666666667,4,1,0,100,0,1
107146,24,4,1,0,100,1,1
110711,-66.6666666666667,4,1,0,100,0,1
110811,-66.6666666666667,4,1,0,100,0,0
110911,-66.6666666666667,4,1,0,100,0,1
111754,200,4,1,0,100,1,1
114764,-66.6666666666667,4,1,0,100,0,1
114854,-66.6666666666667,4,1,0,100,0,0
114954,-66.6666666666667,4,1,0,100,0,1
115064,-66.6666666666667,4,1,0,100,0,1
115154,-66.6666666666667,4,1,0,100,0,0
115254,-66.6666666666667,4,1,0,100,0,1
115364,-66.6666666666667,4,1,0,100,0,1
115454,-66.6666666666667,4,1,0,100,0,0
115554,-66.6666666666667,4,1,0,100,0,1
115664,-66.6666666666667,4,1,0,100,0,1
115754,-66.6666666666667,4,1,0,100,0,0
115854,-66.6666666666667,4,1,0,100,0,1
115964,-66.6666666666667,4,1,0,100,0,1
116054,-66.6666666666667,4,1,0,100,0,0
116154,-66.6666666666667,4,1,0,100,0,1
118654,-100000.333333333,4,1,0,100,0,0
119554,24,4,1,0,100,1,1
123298,60000,4,1,0,100,1,1
127048,24,4,1,0,100,1,1
132712,200,4,1,0,100,1,1
133712,-66.6666666666667,4,1,0,100,0,1
135112,-33.3333333333333,4,1,0,100,0,1
137962,-66.6666666666667,4,1,0,100,0,1
139012,24,4,1,0,100,1,1
139012,-100000.333333333,4,1,0,100,0,1
144124,200,4,1,0,100,1,1
145124,4000,4,1,0,100,1,1
145124,-50,4,1,0,100,0,0
155624,200,4,1,0,100,1,0
160624,-200,4,1,0,100,0,0
181224,100,4,1,0,100,1,1
187874,-200,4,1,0,100,0,0
188374,12,4,1,0,100,1,1
188374,-10000000.3333333,4,1,0,100,0,1
190462,-1E+15,4,1,0,100,0,1
193642,4000,4,1,0,100,1,1
193642,-999.999999999,4,1,0,100,0,1
207892,100,4,1,0,100,1,1
208542,12,4,1,0,100,1,1
208542,-1E+15,4,1,0,100,0,1
212490,4000,4,1,0,100,1,1
221990,100,4,1,0,100,1,1
221990,-20,4,1,0,100,0,1
222390,-1E+15,4,1,0,100,0,1
226090,-66.6666666666667,4,1,0,100,0,1
229390,12,4,1,0,100,1,1
229390,-1E+15,4,1,0,100,0,1
234622,4000,4,1,0,100,1,1
234622,-66.6666666666667,4,1,0,100,0,1
235122,-66.6666666666667,4,1,0,100,0,0

[HitObjects]
416,284,800,6,0,B|392:224|392:224|336:248|336:248|312:140|312:140|176:164,1,350
184,160,1200,1,0,0:0:0:0:
168,160,1250,1,0,0:0:0:0:
64,64,1600,2,0,P|64:160|196:240,1,200
184,56,1850,1,0,0:0:0:0:
236,264,2000,1,0,0:0:0:0:
176,44,2100,1,0,0:0:0:0:
440,236,2200,6,0,P|348:160|444:256,1,600
304,160,2700,1,0,0:0:0:0:
316,176,2800,1,0,0:0:0:0:
332,196,2900,1,0,0:0:0:0:
164,72,3200,6,0,P|160:188|188:252,3,150.000005722046
260,128,3600,1,0,0:0:0:0:
260,128,3650,2,0,L|256:224,1,75.0000028610231
380,84,3800,1,0,0:0:0:0:
380,84,3850,2,0,P|384:168|404:72,1,300.000011444092
96,152,4550,6,0,P|128:211|288:216,1,225.000008583069
220,72,4800,2,0,P|196:196|104:296,1,225.000008583069
124,284,5000,1,0,0:0:0:0:
104,288,5050,1,0,0:0:0:0:
84,288,5100,1,0,0:0:0:0:
412,136,5200,2,0,P|332:156|436:148,1,450.000017166138
196,120,5600,2,0,L|316:240,1,150.000005722046
312,112,5800,2,0,L|176:248,1,150.000005722046
72,144,6000,6,0,P|96:200|224:276,1,200
152,92,6600,2,0,L|176:128,1,25
16,72,6800,2,0,P|128:112|304:76,1,300
164,128,7500,6,0,L|176:216,1,75.0000028610231
288,216,7700,2,0,L|316:136,1,75.0000028610231
120,304,7900,2,0,P|229:311|368:352,1,225.000008583069
256,192,9200,5,8,0:0:0:0:
264,104,10200,5,0,0:0:0:0:
264,104,10300,2,0,P|204:108|348:172,1,600.000022888185
352,176,10800,2,0,L|240:200,1,75.0000028610231
160,68,11000,2,0,P|236:120|84:172,1,300.000011444092
64,112,11300,2,0,L|232:200,1,150.000005722046
272,40,11500,6,0,L|312:204,1,150.000005722046
472,168,11700,2,0,L|384:160,3,75.0000028610231
248,348,12000,2,0,L|260:252,1,75.0000028610231
88,132,12200,2,0,P|200:172|304:152,1,225.000008583069
210,59,12500,6,0,P|200:156|311:278,2,225.000008583069
78,201,12900,6,0,B|146:264|430:135|430:135|300:105|300:105|379:38,1,600.000022888185
392,300,17400,6,0,P|297:278|230:166,1,200
328,103,17800,2,0,P|254:80|100:124,1,200
19,108,18200,2,0,B|30:160|30:160|61:173|61:173|39:195|39:195|61:200|61:200|38:203|38:203|63:207|63:207|39:208|36:209|55:215|44:217|34:217|57:220|43:220|52:224|48:226|48:247,1,200
271,244,18500,1,0,0:0:0:0:
173,305,18650,1,0,0:0:0:0:
166,133,18850,1,0,0:0:0:0:
279,351,19000,2,0,B|424:272|299:71|299:71|193:97|193:97|97:108|97:108|152:160|152:160|208:233,1,675.000025749208
394,47,19600,6,0,P|430:75|492:132,1,100
65,256,19800,6,0,B|180:302|363:245|363:245|405:268|405:268|401:182,1,425
246,62,20800,6,0,P|228:151|263:277,1,150.000005722046
336,133,21000,2,0,B|152:118|375:258|375:258|124:257,1,450.000017166138
40,89,21400,2,0,B|61:75|61:75|125:84|125:84|107:157|107:157|28:171|28:171|37:250|37:250|101:256|101:256|118:322|118:322|25:346,1,525.000020027161
118,174,21900,6,0,B|249:200|429:111|429:111|249:60|249:60|305:280|305:280|415:217|415:217|197:140,1,1050.00004005432
106,299,22700,6,0,B|154:302|225:284|225:284|274:318|274:318|277:281|277:281|289:278,1,225
435,148,23250,6,0,B|312:131|63:89|63:89|129:226|129:226|266:61|266:61|334:237|334:237|417:50,1,1125.00004291535
277,333,24200,6,0,B|141:297|272:206|272:206|366:125|366:125|138:120|138:120|374:267|374:267|495:183,1,900.000034332277
259,77,24900,1,4,0:0:0:0:
231,76,25000,1,0,0:0:0:0:
91,217,25200,1,0,0:0:0:0:
110,102,25400,5,0,0:0:0:0:
201,233,25600,1,0,0:0:0:0:
213,117,25800,1,0,0:0:0:0:
447,312,26000,6,0,B|401:188|466:193|466:193|371:91|371:91|187:66|187:66|271:246|357:153|357:153|290:329,1,825.000031471254
153,255,26700,1,0,0:0:0:0:
153,255,26800,2,0,P|214:272|383:291,1,225.000008583069
263,96,27100,1,0,0:0:0:0:
252,105,27300,2,0,B|186:157|95:106|95:106|48:249|48:249|274:239|274:239|448:337|448:337|409:175|409:175|414:69|414:69|303:133|303:133|347:39|347:39|83:11|83:11|68:369,1,1800.00006866455
403,261,31000,6,0,P|203:224|317:140,1,450.000017166138
285,83,31400,2,0,L|310:265,4,150.000005722046
68,139,31900,6,0,P|119:218|418:82,1,450.000017166138
146,88,32300,6,0,B|215:155|415:269|415:269|266:304,1,400
274,54,32600,2,0,L|254:274,1,200
112,170,32800,2,0,P|269:191|414:122,1,300
65,300,33100,6,0,L|130:333,1,50
144,206,33400,2,0,L|175:262,1,50
242,134,33700,2,0,L|248:207,1,50
246,197,33850,1,0,0:0:0:0:
245,210,33900,1,0,0:0:0:0:
365,196,34200,5,0,0:0:0:0:
357,102,34300,1,0,0:0:0:0:
341,213,34400,1,0,0:0:0:0:
389,88,34500,1,0,0:0:0:0:
315,235,34600,1,0,0:0:0:0:
420,80,34700,1,0,0:0:0:0:
288,243,34800,1,0,0:0:0:0:
447,73,34900,1,0,0:0:0:0:
211,180,35100,6,0,B|114:178|114:178|245:188|245:188|112:175|112:175|241:188|241:188|115:188|115:188|220:186|220:186|137:186|137:186|237:195|237:195|128:180|125:180|134:180,1,975.0000371933
190,167,35800,2,0,L|171:362,1,150.000005722046
212,162,36100,2,0,L|191:335,1,150.000005722046
232,156,36700,2,0,L|209:356,1,150.000005722046
248,147,37100,2,0,L|225:347,1,150.000005722046
403,183,37900,6,0,P|346:186|423:232,1,225.000008583069
134,52,38200,2,0,L|217:167,1,75.0000028610231
211,278,38400,6,0,P|265:213|152:280,1,450.000017166138
179,198,38800,2,0,B|184:198|184:198|177:192|177:192|176:208|176:208|186:193|186:193|190:213|181:208|177:200,1,75.0000028610231
421,160,39000,6,0,B|289:120|401:143|401:143|305:105|305:105|300:196|300:196|356:98|356:98|336:113,1,450.000017166138
150,71,39500,6,0,B|210:146|49:107|49:107|193:130|193:130|141:286|141:286|132:86,1,675.000025749208
383,255,40100,6,0,L|297:226,1,75.0000028610231
310,220,40200,2,0,L|394:251,1,75.0000028610231
386,240,40300,2,0,L|306:204,1,75.0000028610231
181,100,40400,2,0,L|166:228,1,75.0000028610231
349,96,40600,6,0,B|292:164|435:230|435:230|310:323|312:323|418:89,1,450.000017166138
95,284,41000,6,0,B|86:273|86:273|101:277|101:277|83:288|83:288|94:272|94:272|90:298|90:298|79:277|79:277|110:284|110:284|78:295|78:295|91:267|91:267|94:298|94:298|71:288|71:288|108:277|108:277|83:296|83:296|83:263|83:263|95:288|95:289|61:289|61:289|103:279|103:279|83:297|83:297|84:259|84:259|94:293|94:293|68:289|108:285|108:285|91:302|92:303|105:295|105:295|97:289|97:289|101:305|101:305|111:291|111:291|83:282|83:282,1,675.000025749208
405,185,41648,2,0,B|401:182|401:182|412:195|412:195|397:189|397:189|392:198|392:198|390:204|390:204|390:192|390:192|392:172|385:165|385:165|388:158|388:158|398:157|398:157|403:164|403:164|412:170|412:170|400:176|396:176|396:176|384:176|384:176|388:180|388:180|378:179|378:179|368:180|372:180|372:180|380:192|380:192|381:195|381:195|383:183|383:183|390:188|390:188|392:184|392:184|374:168|374:168|372:157|372:157|384:172,1,150.000005722046
210,41,41792,6,0,B|223:115|401:165|401:165|281:342|281:342|314:60,1,700
245,154,44192,5,0,0:0:0:0:
211,254,44292,1,0,0:0:0:0:
250,146,44392,1,0,0:0:0:0:
193,257,44492,1,0,0:0:0:0:
271,139,44592,1,0,0:0:0:0:
172,264,44692,1,0,0:0:0:0:
291,130,44792,1,0,0:0:0:0:
103,92,44892,6,0,L|186:135,1,50
136,127,44992,6,0,L|78:95,1,50
417,265,45192,6,0,B|355:226|468:333|468:333|199:317|199:317|376:137|376:137|475:349,1,850
130,145,46192,6,0,L|214:201,1,100
228,86,46392,2,0,L|201:218,1,100
306,87,46542,2,0,L|214:191,1,100
380,108,46692,2,0,L|257:178,1,100
407,185,46842,2,0,L|286:200,1,100
399,117,47092,6,0,P|334:97|362:289,1,350
121,164,47592,6,0,L|226:226,1,100
123,153,47742,2,0,L|217:200,1,100
130,142,47892,2,0,L|235:196,1,100
364,133,48092,6,0,B|264:104|264:104|301:195|301:195|374:120,1,300
260,104,48492,5,0,0:0:0:0:
388,123,48592,1,0,0:0:0:0:
303,202,48692,1,0,0:0:0:0:
268,91,48792,1,0,0:0:0:0:
401,106,48892,1,0,0:0:0:0:
293,219,48992,1,0,0:0:0:0:
276,77,49092,1,0,0:0:0:0:
418,98,49192,1,0,0:0:0:0:
287,229,49292,1,14,0:0:0:0:
129,208,49379,2,0,L|163:224,13,25
121,60,49842,6,0,P|198:129|101:104,1,250
309,122,50192,6,0,L|361:182,1,50
324,278,50292,2,0,L|288:236,1,50
432,142,50392,2,0,L|467:207,1,50
371,57,50592,6,0,B|265:64|168:226|168:226|272:250|272:250|195:87|195:87|332:160,1,700
237,306,51392,6,0,P|142:224|304:277,1,450.000017166138
436,254,51842,2,0,L|301:251,1,75.0000028610231
377,73,51992,2,0,L|386:182,1,75.0000028610231
138,201,52192,6,0,L|219:252,1,75.0000028610231
238,63,52392,2,0,L|212:135,1,75.0000028610231
62,110,52592,6,0,B|156:182|396:184|396:184|259:318|259:318|297:66|297:66|96:192|95:193|57:99,1,1050.00004005432
103,61,53392,6,0,P|299:175|303:336,1,375.000014305115
283,161,53842,2,0,L|147:194,1,75.0000028610231
205,74,54092,5,0,0:0:0:0:
212,75,54142,1,0,0:0:0:0:
219,76,54192,1,0,0:0:0:0:
226,77,54242,1,0,0:0:0:0:
233,78,54292,1,0,0:0:0:0:
240,79,54342,1,0,0:0:0:0:
108,268,54492,6,0,L|214:297,8,75.0000028610231
184,81,55042,2,0,P|288:115|43:192,1,750.000028610231
33,197,55467,2,0,P|73:311|186:83,1,600.000022888185
172,60,55892,2,0,B|105:154|184:136|184:136|232:136,1,150
361,275,56292,6,0,L|123:218,1,225.000008583069
129,215,56492,2,0,L|372:275,1,225.000008583069
372,275,56692,2,0,L|94:202,1,225.000008583069
146,211,56892,2,0,L|387:283,1,225.000008583069
326,101,57192,6,0,B|222:97|394:311|394:311|370:184|370:184|120:249,1,600.000022888185
455,104,57692,2,0,L|143:72,1,300.000011444092
377,308,57992,6,0,P|306:300|345:222,1,185
463,286,60892,6,0,B|312:105|93:66|93:66|115:129|115:129|667:69,1,1000
232,275,61092,2,0,B|298:173|444:162|444:162|410:73|410:73|366:206|366:206|452:96|452:96|403:158|403:158|407:105|407:105|435:153,1,500
100,108,61292,6,0,B|150:166|396:155|396:155|247:273|247:273|275:59|275:59|316:175,1,500
139,215,61892,6,0,P|301:186|623:40,1,500
48,100,62092,6,0,P|104:116|136:112,1,90
412,288,63092,6,0,B|352:304|248:276|400:160|160:208|336:92|340:92|296:268|296:268|360:160|360:160|388:248|388:248|312:224|312:224|416:232|416:232|396:280|396:280|376:216|376:216|420:240|420:240|352:268|352:268|392:216|392:216|388:260|388:260|356:240|356:240|388:264|392:264|388:216|388:216|416:252|416:252|348:240|348:240|368:236,1,1000
116,264,63292,6,0,B|112:272|304:236|304:236|96:192|96:192|248:164|248:164,1,500
220,120,63492,2,0,B|280:200|280:200|400:184|400:184|284:264|284:264|300:100|300:100|364:248,1,500
180,48,63642,6,0,B|168:56|168:56|200:64|200:64|172:64|168:64|188:48|188:48|180:80|180:80|164:56|164:56|196:56|196:56|148:84|148:84|168:40|168:40|192:80|192:80|140:64|140:64|208:48|208:48|160:84|160:84|156:56|156:56|188:104|188:104|212:52|212:52|160:76|160:76|164:64,1,500
164,244,63792,6,0,B|280:256|424:40|424:40|304:168,1,500
80,200,63892,1,0,0:0:0:0:
192,188,64092,1,0,0:0:0:0:
176,316,64292,1,0,0:0:0:0:
288,260,64442,6,0,P|360:260|484:176,16,200
104,128,65292,6,0,P|144:136|208:144,1,100
280,80,67542,2,0,L|294:142,1,62.5
139,118,68992,6,0,P|144:165|179:224,1,100
217,57,69342,2,0,L|260:177,1,120
389,131,69792,6,0,P|348:246|441:322,1,240
465,228,70542,2,0,B|221:195|277:86|277:86|277:281,1,460
69,104,71792,6,0,B|228:177|266:203|266:203|194:253|194:253|202:82|202:82|332:185,1,640
443,126,73492,6,0,B|359:92|288:84|288:84|363:179|363:180|371:44,1,360
201,138,74442,2,0,P|221:226|303:242,1,180
336,88,74992,2,0,B|255:81|255:81|292:137|292:137|283:42|283:42|330:127|330:127|224:90|224:90|366:80|366:80,1,580
61,111,76592,2,0,B|206:175|206:175|225:300|226:301|162:106|162:106|300:216,1,580
388,202,89346,6,0,P|290:135|363:290,1,450.000017166138
330,91,89746,2,0,L|329:262,8,150.000005722046
88,128,90746,6,0,P|160:168|388:120,1,300.000011444092
224,56,91246,2,0,P|232:176|416:328,2,300.000011444092
404,148,91846,6,0,B|120:144|120:144|236:272|236:272|284:60|284:60|408:168|408:168|184:188|184:188|244:48|244:48|408:152,1,1350.00005149842
432,284,92846,6,0,L|240:268,1,150.000005722046
220,116,93046,2,0,L|196:284,1,150.000005722046
108,144,93246,6,0,L|308:196,1,150.000005722046
164,64,93446,2,0,L|148:256,1,150.000005722046
456,192,93646,6,0,P|404:128|432:308,1,600.000022888185
352,224,94146,6,0,P|216:176|384:164,1,450.000017166138
476,128,94546,2,0,L|300:124,1,150.000005722046
376,44,94746,2,0,P|404:136|368:276,1,225.000008583069
280,120,94946,2,0,P|265:230|300:344,5,225.000008583069
16,204,95946,6,0,P|116:232|248:236,1,225.000008583069
248,232,96146,1,0,0:0:0:0:
260,228,96196,1,0,0:0:0:0:
268,224,96246,1,0,0:0:0:0:
296,72,96346,6,0,P|348:144|436:172,1,150.000005722046
388,48,96546,2,0,P|352:116|232:156,1,150.000005722046
72,96,96746,6,0,B|176:160|320:356|320:356|416:140|416:140|136:184|136:184|56:96,1,975.0000371933
292,68,97546,6,0,P|256:64|232:72,1,60
232,224,98246,6,0,L|240:208,1,15
380,148,98496,2,0,L|372:168,1,20
96,144,98996,6,0,P|232:208|400:240,1,300.000011444092
212,64,99246,2,0,B|216:120|440:321|440:321|428:151|426:62|64:246|152:320|152:320|312:220,1,1012.50003862381
290,233,100646,6,0,L|314:261,1,35
396,224,103046,6,0,L|112:144,1,200
188,168,103246,2,0,L|440:252,1,200
336,104,103446,6,0,L|280:308,1,200
272,296,103596,2,0,L|336:64,1,200
24,128,103846,6,0,L|172:240,1,150.000005722046
196,60,104046,6,0,P|168:140|164:320,1,225.000008583069
56,112,104346,6,0,L|280:216,1,225.000008583069
176,48,104546,2,0,P|160:196|200:356,1,300.000011444092
388,248,104796,2,0,L|132:176,1,225.000008583069
272,72,105046,6,0,P|296:164|256:340,1,225.000008583069
332,104,105246,2,0,L|272:204,1,75.0000028610231
432,80,105396,2,0,L|456:176,1,75.0000028610231
32,168,105546,2,0,L|80:284,1,75.0000028610231
144,84,105696,2,0,P|132:144|152:208,1,75.0000028610231
328,248,106346,6,0,L|192:224,1,75.0000028610231
244,116,106496,2,0,L|352:148,1,75.0000028610231
180,188,106646,2,0,L|176:284,1,75.0000028610231
456,264,106796,2,0,L|432:128,1,75.0000028610231
292,40,106946,6,0,P|312:120|376:240,1,150.000005722046
76,152,107146,6,0,P|132:180|292:240,1,220
248,104,107554,2,0,B|224:172|360:332|360:332|404:156,1,440
104,128,108202,6,0,L|212:180,1,120
240,80,108442,2,0,L|264:232,1,140
384,136,108754,6,0,B|332:128|388:84|388:84|448:284|448:284|360:196,1,400
152,136,109306,6,0,B|256:168|80:140|80:140|114:209|114:209|183:264|183:264|247:206|247:206|270:201|270:201|294:183|294:183|317:169|317:169|259:109|259:109|265:89|265:89|116:40|116:40,1,740
372,48,110290,6,0,P|376:152|408:276,1,220
256,192,110674,2,0,L|380:248,1,120
328,64,110890,2,0,L|224:80,1,100
224,76,111346,6,0,P|268:168|156:264,1,260
88,128,111754,6,0,L|328:240,1,250
312,88,112054,2,0,L|264:240,1,150
156,64,112304,6,0,P|248:200|308:248,1,200
372,132,112554,2,0,L|412:248,8,100
168,104,113454,2,0,L|148:172,25,50
296,216,116354,6,0,L|132:172,1,150.000005722046
164,64,116554,2,0,L|352:120,1,150.000005722046
144,216,116754,6,0,L|160:48,1,150.000005722046
336,104,116954,2,0,L|312:280,1,150.000005722046
424,224,117154,6,0,L|248:340,1,150.000005722046
84,156,117354,2,0,L|264:56,1,150.000005722046
36,72,117554,6,0,L|44:272,1,150.000005722046
464,272,117754,2,0,L|456:72,1,150.000005722046
312,156,117954,6,0,L|224:152,1,75.0000028610231
252,40,118154,6,0,P|152:80|380:276,1,600.000022888185
388,188,118654,6,0,P|328:176|308:176,1,80
132,152,119554,6,0,P|204:196|496:176,1,200
220,72,119842,6,0,P|208:192|288:336,1,280
392,216,120274,2,0,P|256:188|396:200,1,420
124,112,120898,2,0,P|204:184|432:124,1,360
276,256,121570,6,0,L|168:240,1,100
172,92,121834,2,0,L|284:152,1,120
160,88,122050,6,0,P|132:136|168:252,1,180
312,128,122338,2,0,P|328:184|276:264,1,160
40,108,122626,6,0,P|176:172|480:88,1,480
52,256,123298,6,0,P|52:259|61:264,1,12.5
208,98,127144,6,0,P|212:177|336:280,1,240
361,123,127528,2,0,L|192:215,1,180
48,249,127912,6,0,L|124:277,1,80
108,130,128104,2,0,B|164:202|354:132|354:132|227:86|227:86|248:190|248:190|401:170,1,640
157,91,128944,6,0,B|171:92|171:92|152:89|152:89|172:89|172:89|157:88|157:88|157:99|157:99|165:93|165:93|166:103|166:103|159:93|159:93|166:86|166:86|163:102|163:102|170:97|170:97|150:95|150:95|162:89|162:89|162:97|162:97|161:97|161:97|163:97|163:97|159:95|159:95|161:95|161:95|157:96|157:97|157:97|156:97|156:97|163:95|162:95|162:95,1,200
59,208,129352,2,0,P|212:264|376:176,1,360
70,103,129904,5,0,0:0:0:0:
421,100,129952,5,0,0:0:0:0:
94,313,130024,5,0,0:0:0:0:
399,318,130096,5,0,0:0:0:0:
325,235,130264,6,0,B|243:213|322:169|284:235|284:235|141:168|140:165|256:86|256:86|224:247|223:247|168:75|168:75|393:129|393:129|196:268|196:268,1,1080
267,268,133112,6,0,B|291:171|160:112|160:112|359:82|359:82|239:179,1,525.000020027161
74,250,133712,6,0,P|196:278|414:208,1,300.000011444092
211,117,134012,2,0,L|225:266,2,150.000005722046
52,131,134312,6,0,L|159:167,2,75.0000028610231
326,139,134512,2,0,L|248:184,2,75.0000028610231
171,321,134712,2,0,L|183:227,2,75.0000028610231
195,91,134912,2,0,L|214:0,2,75.0000028610231
364,292,135312,6,0,B|336:296|224:168|224:168|412:136,1,300.000011444092
232,4,135562,2,0,B|240:84|440:152|440:152|168:304,1,450.000017166138
160,248,135812,1,0,0:0:0:0:
216,120,135912,1,0,0:0:0:0:
144,252,136012,1,0,0:0:0:0:
256,116,136112,1,0,0:0:0:0:
112,260,136212,1,0,0:0:0:0:
304,100,136312,1,0,0:0:0:0:
72,264,136412,1,0,0:0:0:0:
352,88,136512,1,0,0:0:0:0:
372,272,136612,5,0,0:0:0:0:
372,272,136662,1,0,0:0:0:0:
372,272,136712,1,0,0:0:0:0:
156,104,136812,5,0,0:0:0:0:
112,200,136912,1,0,0:0:0:0:
224,192,137012,1,0,0:0:0:0:
192,88,137112,5,0,0:0:0:0:
280,200,137312,1,0,0:0:0:0:
256,72,137412,5,0,0:0:0:0:
184,272,137512,1,0,0:0:0:0:
376,204,137612,1,0,0:0:0:0:
92,116,137712,6,0,P|284:188|564:80,1,450.000017166138
60,240,137962,2,0,P|272:268|192:64,1,450.000017166138
240,84,138312,1,0,0:0:0:0:
220,76,138362,1,0,0:0:0:0:
196,72,138412,1,0,0:0:0:0:
72,64,138512,5,0,0:0:0:0:
80,88,138562,1,0,0:0:0:0:
84,112,138612,1,0,0:0:0:0:
387,242,138712,6,0,P|297:224|421:171,1,300.000011444092
115,261,139012,6,0,B|201:278|410:204|410:204|236:169|236:169|301:321,1,645
432,171,139876,6,0,B|392:109|37:190|37:190|245:251|245:251|235:50,1,820
345,114,140932,6,0,L|323:109,30,20
246,315,141796,6,0,L|207:158,1,160
276,104,142180,2,0,L|338:222,1,120
125,247,142420,6,0,L|138:182,1,60
247,184,142540,2,0,L|235:268,1,80
160,73,142660,6,0,L|228:88,1,60
210,335,142756,2,0,L|151:315,1,60
408,283,142948,6,0,B|360:204|379:72|379:72|92:126|92:126|246:237|246:237|206:148|206:148|314:142|314:142|303:189,1,940
48,267,144124,6,0,L|475:306,1,400
290,0,144724,2,0,B|259:48|259:48|280:101|280:101|243:120|271:155|235:154|226:210|226:210|241:240|243:271|243:271|201:266|219:287|219:287|241:323|239:407,1,400
95,197,145374,6,0,P|188:209|345:137,1,250
183,77,148124,2,0,P|197:163|331:288,1,275
294,142,151124,1,0,0:0:0:0:
260,142,151374,1,0,0:0:0:0:
229,148,151624,1,0,0:0:0:0:
82,283,151874,6,0,P|92:208|128:122,1,150
329,280,153874,6,0,P|267:242|335:200,1,175
67,138,155824,6,0,B|182:190|385:98|385:97|245:306|250:289|257:55|257:55|415:189|415:189|182:307,1,950
192,294,156824,2,0,P|215:213|290:362,1,400
294,364,157274,1,0,0:0:0:0:
275,367,157324,1,0,0:0:0:0:
255,368,157374,1,0,0:0:0:0:
107,148,157524,5,0,0:0:0:0:
107,148,157574,1,0,0:0:0:0:
107,148,157624,1,0,0:0:0:0:
107,148,157674,1,0,0:0:0:0:
107,148,157724,1,0,0:0:0:0:
308,177,157874,6,0,P|255:115|126:58,1,200
429,279,160624,6,0,P|332:251|279:156,1,200
370,85,161224,2,0,B|290:84|165:54|164:55|134:198|270:324|47:111|383:191|85:380|415:224|119:326|265:146|429:122|202:327,1,575
55,169,162524,2,0,B|405:178|162:346|334:103|445:279|195:146|433:90|322:50|212:65|128:71|68:73|39:120|78:208|110:286|251:359|415:326|454:282|405:194|302:206|227:231|172:148|284:120|357:160|388:157,1,975
387,143,164524,2,0,B|412:213|330:338|330:338|276:180,1,375
265,80,165374,6,0,B|166:71|59:199|63:213|63:213|194:298|194:298|70:53,1,675
77,48,166774,1,0,0:0:0:0:
281,189,167024,1,0,0:0:0:0:
301,189,167224,2,0,P|167:215|8:359,1,350
92,93,168024,5,0,0:0:0:0:
206,96,168174,1,0,0:0:0:0:
155,231,168324,1,0,0:0:0:0:
293,188,168474,1,0,0:0:0:0:
190,343,168624,1,0,0:0:0:0:
394,255,168724,1,0,0:0:0:0:
306,378,168824,1,0,0:0:0:0:
273,88,168924,5,0,0:0:0:0:
127,315,169024,1,0,0:0:0:0:
433,142,169124,1,0,0:0:0:0:
125,99,170024,6,0,B|95:144|95:144|170:144|170:144|123:88,1,200
178,81,170524,2,0,B|147:149|147:149|203:149|203:149|181:78,1,200
215,78,171024,2,0,B|260:148|260:148|289:72|289:72|214:76,1,225
396,273,171624,6,0,P|338:277|204:244,1,175
247,80,172124,2,0,B|228:129|228:129|235:138|235:138|239:145|239:145|225:139|225:139|228:132|228:132|225:145|225:145|219:172|220:264,1,225
368,95,172724,5,0,0:0:0:0:
313,246,172874,1,0,0:0:0:0:
432,227,173024,1,0,0:0:0:0:
351,89,173174,1,0,0:0:0:0:
291,254,173274,1,0,0:0:0:0:
448,239,173374,1,0,0:0:0:0:
245,154,174624,5,0,0:0:0:0:
211,254,174724,1,0,0:0:0:0:
250,146,174824,1,0,0:0:0:0:
193,257,174924,1,0,0:0:0:0:
271,139,175024,1,0,0:0:0:0:
172,264,175124,1,0,0:0:0:0:
291,130,175224,1,0,0:0:0:0:
103,92,175324,6,0,L|186:135,1,50
136,127,175474,6,0,L|78:95,1,50
330,283,175674,6,0,B|306:252|375:332|375:332|199:317|199:317|285:236|285:236|353:295,1,450
214,74,176624,6,0,L|158:137,1,75
308,89,176874,2,0,L|197:126,1,100
357,127,177174,2,0,L|246:142,1,100
274,253,177424,5,0,0:0:0:0:
161,320,177524,1,0,0:0:0:0:
256,235,177624,1,0,0:0:0:0:
121,325,177724,1,0,0:0:0:0:
277,197,177824,1,0,0:0:0:0:
72,309,177924,1,0,0:0:0:0:
140,75,178024,6,0,L|77:141,1,75
261,94,178274,2,0,L|170:113,1,75
368,162,178524,2,0,L|270:156,1,75
135,311,178824,5,0,0:0:0:0:
323,246,178924,1,0,0:0:0:0:
123,302,179024,1,0,0:0:0:0:
337,228,179124,1,0,0:0:0:0:
105,291,179224,1,0,0:0:0:0:
81,148,179424,6,0,L|170:171,1,75
262,146,179724,1,0,0:0:0:0:
232,246,179824,1,0,0:0:0:0:
274,138,179874,1,0,0:0:0:0:
228,257,179974,1,0,0:0:0:0:
295,130,180074,1,0,0:0:0:0:
396,295,180224,6,0,L|323:249,1,75
444,113,180424,2,0,L|356:125,1,75
134,55,180624,2,0,L|152:146,1,75
112,278,180874,6,0,B|197:246|123:273,1,75
444,264,181224,6,0,B|368:252|296:128|296:128|100:280,1,400
172,80,181624,2,0,P|228:176|456:120,1,300
312,60,181874,1,0,0:0:0:0:
296,64,181924,1,0,0:0:0:0:
276,72,181974,1,0,0:0:0:0:
26,158,182124,6,14,P|165:200|424:92,1,400
154,99,182424,2,14,L|188:212,18,100
372,305,183474,6,0,L|203:315,1,100
292,84,183674,2,0,L|399:198,1,100
38,167,183874,2,0,L|128:271,1,100
78,56,184074,2,0,L|204:59,1,100
380,281,184324,6,0,B|244:249|380:209|380:209|359:90,1,200
297,77,184524,2,0,B|198:136|198:136|259:180|259:180|179:275,1,300
68,237,184774,6,0,P|200:188|368:297,1,300
85,48,185024,6,0,P|112:146|334:200,1,300
235,73,185324,2,0,L|161:215,1,100
381,82,185524,6,0,L|295:156,1,100
468,157,185674,2,0,L|348:194,1,100
470,290,185824,2,0,L|362:260,1,100
88,88,185974,6,0,L|188:158,1,100
76,204,186124,2,0,L|181:234,1,100
95,333,186274,2,0,L|220:322,1,100
236,71,186424,6,0,L|255:179,1,100
324,301,186624,2,0,L|352:194,2,100
495,115,186874,6,0,P|351:101|45:284,1,500
75,90,187224,1,0,0:0:0:0:
179,67,187474,1,0,0:0:0:0:
140,171,187724,1,0,0:0:0:0:
74,78,187874,2,0,B|230:122|381:75|381:82|364:195|364:195|331:62,1,500
311,308,188482,6,0,P|219:288|195:213,1,180
290,211,188758,2,0,B|222:188|365:184|365:184|260:126,1,240
41,141,189058,6,0,P|173:182|348:21,1,380
222,22,189406,2,0,L|263:212,1,180
139,300,189646,6,0,B|241:304|157:295|157:295|228:294|228:294|144:294|144:294|147:294,1,240
381,272,190006,6,0,B|368:197|368:197|323:133|322:132|308:219|308:219|329:208|329:208|318:218|317:218|317:218|319:194|319:194|324:226|324:226|292:206|292:206|324:208|324:208|304:238|305:239|316:202|316:202|321:229|321:229|310:213|310:213|332:218|332:218|310:204|310:204|325:220|325:220|320:211|320:211|314:216|314:216|314:207|314:207|297:225|297:225|316:213|316:213,1,620
99,166,190486,6,0,P|183:167|255:95,1,180
141,64,190714,2,0,L|232:218,1,160
450,141,190906,6,0,P|343:95|57:261,1,460
250,339,191290,6,0,P|337:271|298:358,1,280
142,196,191578,2,0,P|283:227|128:114,1,560
248,135,192034,2,0,L|306:153,42,60
103,256,194142,6,0,L|110:257,1,7.5
219,142,196142,2,0,P|212:160|217:198,1,58.75
137,309,208092,6,0,P|268:309|389:71,1,400
274,61,208342,2,0,L|386:217,1,100
84,110,208542,6,0,P|78:133|119:236,1,140
270,173,208710,2,0,B|186:127|296:204|296:204|395:175|395:175|282:88|282:88,1,360
230,277,209010,6,0,B|199:273|199:273|225:278|226:278|192:275|192:275|220:276|220:276|194:276|194:276|200:278|200:278|230:282|230:282|201:277|201:278|222:278|223:278|201:275|201:275|210:268|210:268|219:282|219:282|208:290|208:290|226:260|226:260|208:280|208:280|225:281|225:281|207:263|207:263|203:288|203:288|219:284|219:284,1,380
105,151,209382,6,0,L|186:168,1,80
199,64,209574,2,0,L|172:117,1,60
405,312,209778,6,0,P|304:269|392:254,1,280
325,97,210102,2,0,L|283:215,1,120
114,279,210270,2,0,P|83:212|130:293,1,700
170,176,210810,6,0,L|313:158,1,140
426,237,210990,2,0,L|415:313,1,60
157,154,211182,6,0,L|314:142,1,140
443,215,211398,2,0,L|437:321,1,100
264,223,211566,2,0,P|201:203|286:303,1,400
275,218,211926,2,0,P|215:205|284:315,1,320
95,196,212490,6,0,P|185:209|361:146,1,200
186,80,216740,2,0,L|183:133,1,50
135,212,218240,2,0,L|150:222,1,12.5
226,166,218740,2,0,L|231:187,1,12.5
320,133,219240,2,0,L|317:150,1,12.5
412,117,219740,2,0,L|407:139,1,12.5
433,220,220240,2,0,L|415:231,5,12.5
230,220,221990,6,0,B|227:219|252:199|196:200|189:150|265:178|195:257|311:280|370:31|161:151|508:168|217:192|134:246|223:112|292:204|281:162|282:162|282:162|328:100|328:100|170:102|170:102|172:190|172:191|170:182,1,500
114,270,222190,2,0,B|166:302|166:302|283:235|283:235|351:341|351:341|469:150|469:150|240:264|240:264|354:108|354:108|361:297|363:297,1,1000
51,75,222390,6,0,L|189:94,1,140
499,78,223140,1,0,0:0:0:0:
268,264,223190,1,0,0:0:0:0:
284,12,223240,1,0,0:0:0:0:
99,245,223390,6,0,L|211:177,1,130
379,100,224140,2,0,L|377:117,1,10
336,205,224290,2,0,L|341:214,1,10
426,171,224390,2,0,L|422:189,1,10
406,281,224540,2,0,L|406:295,1,10
52,157,224790,6,0,P|211:157|281:95,1,260
387,291,226240,6,0,P|303:298|427:135,1,450.000017166138
300,208,226540,2,0,P|-52:221|-81:34,1,600.000022888185
163,118,226890,6,0,P|334:124|578:324,1,450.000017166138
5,157,227190,2,0,B|6:329|6:329|3:407|3:407|539:407|539:407|508:0|508:0|-2:6|-2:6|-6:194|-6:194|24:186|24:186|-13:179|-13:182,1,1950.0000743866
302,233,227990,6,0,L|114:213,1,150.000005722046
151,200,228140,2,0,L|306:224,1,150.000005722046
301,211,228240,2,0,L|137:178,1,150.000005722046
154,166,228390,2,0,L|308:201,1,150.000005722046
442,177,228590,6,0,L|220:151,1,150.000005722046
443,169,228690,2,0,L|281:152,1,150.000005722046
445,162,228790,2,0,L|283:141,1,150.000005722046
70,177,228990,6,0,L|292:151,1,150.000005722046
69,169,229090,2,0,L|231:152,1,150.000005722046
67,162,229190,2,0,L|229:141,1,150.000005722046
168,271,229390,6,0,P|331:303|430:240,1,280
317,127,229630,2,0,L|358:299,1,160
335,119,229858,2,0,L|359:308,1,180
354,112,230026,2,0,L|385:310,1,200
205,109,230290,6,0,L|120:208,1,120
214,111,230386,2,0,L|137:219,1,120
340,286,230578,6,0,P|232:320|374:231,1,740
254,252,231382,6,0,P|204:211|287:240,1,280
254,252,231766,6,0,P|204:211|287:240,1,280
254,252,232102,1,0,0:0:0:0:
280,240,232186,1,0,0:0:0:0:
316,240,232270,1,0,0:0:0:0:
254,252,232510,6,0,P|204:211|287:240,1,280
64,232,232942,6,0,L|112:240,14,40
176,296,233518,1,0,0:0:0:0:
180,308,233566,1,0,0:0:0:0:
176,296,233602,1,0,0:0:0:0:
180,308,233698,2,0,P|204:256|248:232,1,100
248,124,233914,2,0,L|268:136,17,20
384,164,234226,6,0,P|364:104|300:304,1,680
134,183,235122,6,0,P|207:194|321:168,1,187.500007152558
261,77,238122,2,0,L|255:310,1,225.000008583069
94,198,241622,2,0,P|219:126|166:248,1,356.25001358986
